#TITLE:Toadstool's Groove;
#SUBTITLE:;
#ARTIST:Tetrimino;
#TITLETRANSLIT:;
#SUBTITLETRANSLIT:;
#ARTISTTRANSLIT:;
#GENRE:;
#CREDIT:;
#MUSIC:Toadstool's Groove.ogg;
#BANNER:Toadstool's Groove-bn.png;
#BACKGROUND:Toadstool's Groove-bg.png;
#CDTITLE:;
#SAMPLESTART:15.220;
#SAMPLELENGTH:14.366;
#SELECTABLE:YES;
#OFFSET:1.681;
#BPMS:0.000=142.000;
#STOPS:;
#BGCHANGES:;
#FGCHANGES:;

//--------------- dance-single - OrangeRight ----------------
#NOTES:
     dance-single:
     OrangeRight:
     Beginner:
     2:
     0,0,0,0,0:
0000
0000
0000
0000
,
0000
0000
0000
0000
,
0000
0000
0000
0000
,
0000
0000
0000
0000
,
0000
0000
0000
0000
,
0000
0000
0000
0000
,
1000
0000
0000
0000
,
0001
0000
0000
0000
,
1000
0000
0000
0000
,
1000
0000
0000
0000
,
0001
0000
0000
0000
,
1000
0000
0000
0000
,
0001
0000
0000
0000
,
0010
0000
0000
0000
,
0100
0000
0000
0000
,
1000
0000
0000
0000
,
0001
0000
1000
0000
,
0001
0001
0000
0000
,
1001
0000
0000
0000
,
1000
0000
0000
0000
,
0001
0000
0000
0000
,
0100
0000
0000
0000
,
0010
0000
0000
0000
,
1000
0000
0000
0000
,
0100
0000
0000
0000
,
1000
0000
1000
0000
,
1000
0000
1000
0000
,
0001
0000
0001
0000
,
0001
0000
1000
0000
,
0001
0000
0000
0000
,
1000
0000
0000
0000
,
0100
0000
0000
0000
,
0010
0000
0000
0000
,
0001
0000
0000
0000
,
0100
0000
0000
0000
,
0001
0000
0001
0000
,
0001
0000
0001
0000
,
1000
0000
1000
0000
,
1000
0000
0100
0000
,
1000
1000
0000
0000
,
1001
0000
0000
0000
,
2000
0000
0000
0000
,
3000
0000
0000
0000
,
0002
0000
0000
0000
,
0003
0000
0000
0000
,
1000
0000
0100
0000
,
1000
0000
0000
0000
,
0001
0000
0010
0000
,
0001
0000
0000
0000
,
1000
0000
1000
0000
,
0001
0000
0001
0000
,
1000
0000
0000
0000
,
0100
0000
0010
0000
,
0001
0000
0001
0000
,
1000
0000
1000
0000
,
0001
0000
0100
0000
,
0010
0000
1000
0000
,
0100
0000
0100
0000
,
1000
0000
0001
0000
,
0100
0000
0100
0000
,
0001
0000
1000
0000
,
0010
0000
0010
0000
,
1000
0000
0100
0000
,
1000
0000
1000
0000
,
1000
0000
1000
0000
,
0001
0000
0001
0000
,
0010
0000
0001
0000
,
1000
1000
0000
0000
,
1001
0000
0000
0000
,
1001
0000
0000
0000
,
1000
0000
0001
0000
,
2002
0000
0000
3003
;

//--------------- dance-single - OrangeRight ----------------
#NOTES:
     dance-single:
     OrangeRight:
     Easy:
     5:
     0,0,0,0,0:
0000
0000
0000
0000
,
0000
0000
0000
0000
,
0000
0000
0000
0000
,
0000
0000
0000
0000
,
0000
0000
0000
0000
,
0000
0000
0000
0000
,
1000
0000
0000
1000
0000
0000
1000
0000
,
0001
0100
0000
0100
,
0010
1000
0001
0000
,
0010
0000
0001
2000
0000
3000
0000
0000
,
0001
0000
0000
0001
0000
0000
0001
0000
,
1000
0100
0000
0100
,
1000
0000
0000
1000
0000
0000
1000
0000
,
0001
0010
0000
0010
,
0001
0000
0000
0001
0000
0000
0001
0000
,
1000
0010
0000
1000
,
0100
0010
0001
0100
,
0010
0000
0010
0000
0000
2000
0000
0002
,
0000
3003
0000
1000
,
0001
0010
0002
0003
,
1000
0010
2000
3000
,
0001
0100
0002
0003
,
1000
0100
2000
3000
,
0100
1000
0020
0030
,
1000
0001
2000
3000
,
0001
1000
0010
1000
,
0001
1000
0100
1000
,
0001
1000
0010
0100
,
0001
0010
0001
0001
,
1000
0010
2000
3000
,
0001
0010
0002
0003
,
1000
0100
2000
3000
,
0001
0100
0002
0003
,
0100
0001
0020
0030
,
0100
0010
0200
0300
,
1000
0001
0100
0001
,
1000
0001
0010
0001
,
1000
0010
0100
0001
,
1000
1000
0001
0001
,
1000
0000
0001
0000
0000
0200
0000
0020
,
0000
0330
1000
0000
,
0002
0000
0010
0000
,
1003
0001
0100
0010
,
2000
0000
3001
1000
,
0000
0001
0000
0001
0000
1000
0000
2000
,
0000
3000
0001
0100
,
0010
0000
1000
0100
,
0010
0100
1000
0001
,
0100
0010
1000
1000
,
0001
0010
0100
1000
,
0010
0010
1000
0100
,
0010
0000
0000
0001
0000
0000
1000
0000
,
0010
0100
0001
0001
,
1000
0100
0010
0001
,
1000
0000
0010
0000
0010
0000
0000
0100
,
0000
0001
0000
1000
0000
0100
0000
1000
,
0000
0001
0000
0010
0000
0001
0000
0000
,
1000
0010
0100
0001
,
0010
0100
0010
0000
,
0001
0100
0010
1000
,
0001
0010
0100
1000
,
0001
0000
0000
1000
0000
0100
0000
1000
,
0000
0010
0100
0001
,
1000
0100
0020
0030
,
0001
0100
0020
0030
,
1000
0001
2000
3000
,
0001
0001
1000
1000
,
1001
0000
1001
0000
0000
1000
0002
2000
,
0000
0000
0000
3003
0000
0000
0000
0000
,
1000
0000
0000
0001
0000
0000
0100
0000
,
0020
0030
0200
0300
,
2002
0000
0000
3003
;

//--------------- dance-single - OrangeRight ----------------
#NOTES:
     dance-single:
     OrangeRight:
     Medium:
     7:
     0,0,0,0,0:
0000
0000
0000
0000
,
0000
0000
0000
0000
,
0000
0000
0000
0000
,
0000
0000
0000
0000
,
0000
0000
0000
0000
,
0000
0000
0000
0000
,
1000
0000
0000
0001
0000
1000
0000
0100
,
1000
0010
0000
0100
,
0001
0000
1000
0100
0000
0100
0010
0000
,
0001
0000
1000
0002
0000
0000
0003
0000
,
0001
0000
0000
0010
0000
0100
0000
1000
,
0001
1000
0010
0000
,
1000
0000
0000
0100
0000
0010
0000
0001
,
1000
0001
0100
0000
,
0001
0000
0000
1000
0000
0010
0000
0100
,
0001
0010
0000
0100
,
1000
0000
0001
0100
0000
0100
0010
0000
,
1000
0000
1000
0000
0000
0001
0001
0002
,
0000
0000
0003
1000
,
0001
0000
1000
0100
0000
0100
1000
0000
,
0010
0000
0100
0010
0000
0000
0010
0000
,
1000
0000
0001
0010
0000
0010
0001
0000
,
0100
0000
0010
0100
0000
0000
0100
0000
,
0001
0000
0010
0100
0000
0100
1000
0000
,
0010
0000
1000
0001
0000
1000
0100
1000
,
0100
0000
0010
0000
0001
0100
0001
0000
,
0010
0000
0100
0000
1000
0010
1000
0000
,
0001
0000
0010
0000
0100
1000
0001
0000
,
0100
0010
1000
1000
,
0001
0000
0010
0100
0000
0100
0010
0000
,
0001
0000
1000
0001
0000
1000
0001
0000
,
1000
0000
0100
0010
0000
0010
0100
0000
,
1000
0000
0001
1000
0000
0001
1000
0000
,
0001
0000
0100
0010
0000
0010
1000
0000
,
0100
0000
0010
0001
0000
0001
0100
0001
,
0100
0000
0010
0000
1000
0001
1000
0000
,
0100
0000
0010
0000
0001
1000
0001
0000
,
0100
0000
0010
0000
1000
0100
0010
0001
,
1000
0001
1000
1000
,
0001
0000
0001
0000
0000
1000
1000
2000
,
0000
0000
3000
0001
,
2000
0000
3001
0100
,
0001
0010
0100
1000
,
0002
0000
0000
0000
1003
0000
0001
0100
,
0000
0100
0000
0010
0000
0010
0000
2000
,
0000
0000
3001
1000
,
0100
0010
0100
1000
,
0010
0100
0001
0010
,
0100
1000
0100
0000
1000
0010
1000
0000
,
0001
0100
0010
1000
,
0100
0000
0100
0000
1000
0010
0100
0000
,
0001
0000
1000
0001
0000
0001
0010
0000
,
0100
0000
1000
0000
0010
0100
0010
0100
,
0000
0001
1000
0001
0000
0010
0000
0100
,
0000
1000
0001
1000
0001
0000
1000
0200
,
0000
0310
0000
0002
0000
0103
0000
0020
,
0000
1030
0000
2000
0000
3001
0000
0000
,
1000
0010
0100
0000
0001
0000
0001
0000
,
1000
0100
0010
0001
1000
0000
0001
0000
,
1000
0010
0100
0000
0001
0010
0100
0000
,
1000
0000
0001
0000
0100
0001
0100
0000
,
0001
0010
0100
1000
0000
0010
0000
0100
,
0000
0001
1000
0000
0100
0000
0010
0000
,
0001
0000
0010
0100
0000
1000
0100
0000
,
1000
0000
0010
0100
0000
0001
0100
0000
,
0001
0000
1000
0001
0000
0001
0010
0100
,
1000
0000
0010
0000
0100
0001
1000
0010
,
0100
0000
0100
0000
0000
0010
0010
0020
,
0000
0000
0030
0000
0000
1000
0001
1000
,
0001
0000
0000
1000
0000
0000
0001
0000
,
1000
0000
1000
0000
1000
0000
0001
0000
0001
0000
0001
0000
,
0200
0000
0000
0020
,
0330
0000
0000
0000
;

//--------------- dance-single - OrangeRight ----------------
#NOTES:
     dance-single:
     OrangeRight:
     Hard:
     12:
     0,0,0,0,0:
0000
0000
0000
0000
,
0000
0000
0000
0000
,
0000
0000
0000
0000
,
0000
0000
0000
0000
,
0000
0000
0000
0000
,
0000
0000
0000
0000
,
1001
0000
0000
1100
0000
0110
0000
0010
,
0001
0100
0010
0000
1000
0001
1000
0000
,
0100
0010
0001
0200
0000
0301
1000
0000
,
0010
1000
0100
0020
0000
0000
0030
0000
,
0110
0000
0000
1100
0000
1001
0000
0001
,
1000
0010
0100
0000
0010
0100
0001
0000
,
1001
0000
0000
0011
0000
0110
0000
0100
,
1000
0010
0100
0000
0001
1000
0100
0000
,
0110
0000
0000
0011
0000
1001
0000
1000
,
0010
0100
0001
0000
0010
0100
1000
0001
,
0100
0010
0100
0002
0000
1003
0100
0010
,
0001
0000
1001
0000
0000
0001
1000
2200
,
0000
0000
3300
0000
0000
0100
1000
0100
,
1000
0010
0100
0002
0000
1003
0100
0010
,
0100
1000
1000
0002
0000
1003
0001
1000
,
0001
0010
0100
2000
0000
3001
0100
0010
,
0100
0001
0001
2000
0000
3010
0100
0001
,
1000
0100
0010
0002
0000
0103
0010
0100
,
0001
1000
1000
0020
0000
0130
0001
0100
,
0010
0100
0001
2000
0000
3010
0100
0010
,
1000
0010
0100
0002
0000
1003
0100
0010
,
0001
0010
0100
2000
0000
3001
0100
0010
,
1000
0001
1000
0000
1001
0000
0101
0000
,
0001
0010
0100
2000
0000
3001
0100
0001
,
1000
0010
0010
2000
0000
3001
1000
0001
,
1000
0100
0010
0002
0000
1003
0100
1000
,
0001
0100
0100
0002
0000
0103
0010
1000
,
0001
0010
0100
2000
0000
3010
0100
0010
,
1000
0001
0001
0200
0000
0310
1000
0010
,
0100
0010
1000
0002
0000
0013
0100
0010
,
0001
0010
0100
2000
0000
3001
0100
0010
,
1000
0010
0100
0002
0000
1003
0100
0010
,
0001
1000
0001
0000
0100
0010
0100
0010
,
0110
0000
1001
0000
0000
1000
0001
0101
,
0000
0000
0000
0000
0000
0000
0001
0100
0001
0000
1000
0000
1001
0000
0000
0000
,
0002
0000
0000
0003
0000
1000
0010
2000
,
0000
0000
0000
3200
0000
0000
0000
0000
0000
0310
0000
0000
0001
0000
0000
1000
0000
0000
0000
0000
0001
0000
1000
0000
,
0002
0000
0003
0010
0001
0100
0010
1000
,
0000
1010
0000
1001
0000
0101
0000
2002
,
0000
0000
3003
0000
0001
0010
0100
0010
,
0001
0100
0010
2000
0000
3100
1000
0010
,
0100
0001
1000
0001
0010
0100
1000
0001
,
1000
0010
0001
0010
1000
1000
0001
0002
,
0000
0023
0000
0230
0000
1300
0001
0100
,
0020
0000
1030
0001
1000
0100
0001
0100
,
1000
0010
0100
0001
0010
0100
1000
0000
,
0001
0010
0100
1000
0010
0001
0010
2000
,
0000
3001
0000
1001
0000
1100
0000
1001
,
0000
0001
0100
1000
0100
0001
1000
1001
,
0000
0011
0000
1001
0000
0101
0000
0110
,
0000
1010
0000
1100
0000
1001
0000
0001
,
1000
0100
0001
0100
1000
0010
0100
0001
,
0010
1000
0010
0002
0000
1003
0001
0100
,
0010
0000
1000
0000
0100
0000
0010
0000
0001
0000
0100
0000
0010
0000
1000
0001
,
0000
0001
1000
0000
0100
0000
0010
0000
0001
0000
0100
0000
0010
0000
1000
0000
,
0001
0000
0000
0010
0100
0000
1100
0000
0000
0000
1010
0000
0000
0000
0110
0000
,
0000
0000
0100
0000
0001
0000
1000
0000
0010
0000
1010
0000
0000
1000
0000
0000
,
2001
0000
0000
0000
0010
0000
3010
0000
0000
0000
0011
0000
0000
0001
0000
0000
,
1002
0000
0000
0000
0100
0000
0103
0000
0000
0000
1100
0000
0000
1000
0000
0000
,
2001
0000
0100
3100
0000
1000
0010
0100
,
0001
0000
0000
0001
0010
0000
0000
0010
0100
0000
1000
0000
0010
0000
0100
0000
,
0101
0000
1001
0000
0000
1000
0001
0022
,
0000
0000
0033
0000
0000
0001
1000
0001
,
1001
0000
0000
0110
0000
0000
1001
0000
,
1000
0000
0100
0000
0001
0000
0100
0000
1000
0000
0001
0000
,
0100
0010
0200
0000
0000
0000
0000
0000
0000
0020
0000
0000
,
0330
0000
0000
0000
;

//--------------- dance-single - OrangeRight ----------------
#NOTES:
     dance-single:
     OrangeRight:
     Challenge:
     15:
     0,0,0,0,0:
0000
0000
0000
0000
,
0000
0000
0000
0000
,
0000
0000
0000
0000
,
0000
0000
0000
0000
,
0000
0000
0000
0000
,
0000
0000
0000
0000
,
1001
0000
0000
1010
0000
0011
0000
1010
,
1000
0000
0100
0000
0010
0000
0001
0000
1000
0000
0001
0000
0100
00M0
0100
0000
,
1000
0000
0010
0000
0100
0000
0002
0000
0000
0000
0013
0M00
0010
0000
1000
0000
,
0001
0010
0100
2200
0000
0000
3300
0000
,
1001
0000
0000
0011
0000
1010
0000
0011
,
0001
0100
0010
1000
0100
0010
0001
1000
,
1001
0000
0000
1100
0000
0101
0000
1100
,
1000
0010
0100
0001
0010
0100
1000
0001
,
1001
0000
0000
0011
0000
0101
0000
1100
,
1000
0000
0010
0000
0100
0000
0001
0000
1000
0000
0010
0M00
0010
0000
0001
0000
,
0100
1000
0100
0002
0000
1003
0100
0010
,
0110
0000
1001
0000
0000
1010
0001
0022
,
0000
0000
0033
0000
0000
0001
1000
1000
,
0010
0100
0001
0020
0000
0031
0100
0010
,
1000
0100
0100
0200
0000
1300
0001
0001
,
0010
0100
1000
0020
0000
0130
0010
1000
,
0001
1000
1000
2000
0000
3001
1000
1000
,
0001
0010
0100
2000
0000
3010
0100
0001
,
0010
0001
0001
0002
0000
1003
0001
1000
,
0100
00M0
0100
0000
0001
0000
1000
0000
0100
0000
1000
0000
0001
0000
1000
0000
,
0010
0M00
0010
0000
0001
0000
1000
0000
0010
0000
1000
0000
0001
0000
1000
0000
,
0100
00M0
0100
0000
0001
0000
1000
0000
0100
0000
0001
0000
0100
0000
0010
0000
,
0010
0001
0001
0100
0101
0000
1100
0000
,
1000
0100
1000
1020
0000
0130
0001
1000
,
0100
0010
0001
0012
0000
0103
0001
1000
,
0001
0010
0001
0201
0000
0310
1000
0100
,
0010
0100
1000
2100
0000
3010
1000
0001
,
1000
0100
0010
0012
0000
0103
0001
1000
,
0001
0010
0100
2100
0000
3001
1000
0001
,
0100
00M0
0100
0000
1000
0000
0001
0000
0010
0000
1000
0000
0010
0000
0001
0000
,
0010
0M00
0010
0000
1000
0000
0001
0000
0100
0000
1000
0000
0100
0000
0001
0000
,
0100
00M0
0100
0000
1000
0000
0010
0000
0001
0000
0010
0000
1000
0000
0100
0000
,
0100
0000
0010
0000
0010
0000
0001
0000
1000
0000
0001
0100
0001
0000
1000
0100
,
1000
0000
1001
0000
0000
0011
1000
2020
,
0000
0000
3030
1000
0001
1000
0100
0000
,
2002
0000
0000
3003
0000
0001
0010
0002
,
0000
0000
0000
0000
0000
0000
0203
0000
0000
0000
0000
0000
0000
0000
0000
0000
0000
0000
0310
0000
0000
1000
0000
0000
0010
0000
0000
0000
0000
0000
1000
0000
0000
0000
0000
0000
0000
0000
0000
0000
0100
0000
0000
0000
1000
0000
0000
0000
,
0002
0000
0000
0000
0003
0000
0010
0001
0010
0000
0001
0000
1000
0000
0100
0000
,
0000
1100
0000
1010
0000
0110
0000
0102
,
0000
0000
0000
0000
1003
0000
0000
0000
1000
0000
0010
1000
0001
0010
0100
1000
,
0010
0100
0001
0000
1000
0000
0020
0000
0000
0000
0130
0001
1000
0100
0010
0001
,
1000
0010
1000
0001
0100
0010
0100
0001
0010
0100
0010
0001
1000
0100
1000
0000
,
0001
0100
0010
1000
0001
0001
1000
1002
,
0000
0203
0000
2300
0000
3100
0001
0010
,
2000
0000
0000
0000
3010
0000
0001
0000
1000
0010
0100
0001
1000
0000
0001
0000
,
1000
0100
1000
0100
0010
0000
0001
0100
0001
0100
0010
0000
1000
0000
0000
0000
,
1000
0100
1000
0100
0010
0001
0010
0001
1000
0000
0001
0000
0100
0000
0201
0000
,
0000
0310
1000
1010
0000
0011
0000
1010
,
0000
0000
1000
0100
0010
0001
1000
0010
0100
0000
0001
0000
1000
0000
1002
0000
,
0000
0013
0001
0201
0000
0310
1000
1200
,
0000
0310
0001
2001
0000
3010
1000
0100
,
1000
0000
0010
0100
0001
0010
0001
1000
0010
0000
0100
0001
0100
0000
0010
0000
,
1000
0000
0001
0000
0010
0000
0012
0000
0000
0000
1003
0001
1000
0000
0100
0000
,
1000
0000
0010
0100
0001
0010
0100
1000
0010
0100
0001
1000
0010
0000
1000
0100
,
0000
0100
0010
0000
0010
0001
0000
0001
0100
0010
1000
0001
1000
0100
0010
0001
,
1000
0000
0001
0100
0001
0000
0011
0000
0000
0000
0101
0000
0000
0000
1100
0000
,
0000
0000
1000
0010
0100
0010
1000
0000
0001
0000
0010
0000
0001
1000
0001
0000
,
0100
00M0
0100
0000
1000
0000
0010
0000
0001
0000
0010
0000
1000
0001
1000
0000
,
0100
00M0
0100
0000
0001
0000
0010
0000
1000
0000
0010
0100
1000
0000
0001
0000
,
0100
00M0
0100
0000
1000
0000
0010
0000
0001
0000
0010
0000
1000
0000
0100
0000
,
1100
0000
0000
1000
0010
0000
0000
0010
0100
0000
0001
0000
1000
0000
0100
0000
,
1100
0001
0101
0001
1000
1010
0001
0022
,
0000
0000
0000
0033
0000
0001
0100
0010
,
1010
0000
1000
1100
0000
0100
0110
0000
,
0011
0000
1001
0000
0101
0000
1010
0000
1001
0000
1100
0000
,
1000
0002
2000
0000
0000
0000
0003
0000
0000
0020
0000
0000
,
3030
0000
0000
0000
;
