#VERSION:0.83;
#TITLE:To the Milky Way;
#SUBTITLE:;
#ARTIST:黒魔;
#TITLETRANSLIT:;
#SUBTITLETRANSLIT:;
#ARTISTTRANSLIT:Chroma;
#GENRE:;
#CREDIT:;
#MUSIC:To the Milky Way.ogg;
#BANNER:To the Milky Way.png;
#BACKGROUND:To the Milky Way-bg.png;
#CDTITLE:;
#SAMPLESTART:40.807;
#SAMPLELENGTH:26.290;
#SELECTABLE:YES;
#OFFSET:1.290;
#BPMS:0.000=186.000;
#STOPS:;
#WARPS:380.000=6.000;
#SPEEDS:0.000=1.000=0.000=0,
230.000=0.900=0.000=0,
232.000=0.800=0.000=0,
234.000=0.700=0.000=0,
236.000=0.600=0.000=0,
260.000=0.650=0.000=0,
260.125=0.670=0.000=0,
260.250=0.700=0.000=0,
260.375=0.720=0.000=0,
260.500=0.750=0.000=0,
260.625=0.770=0.000=0,
260.750=0.800=0.000=0,
260.875=0.820=0.000=0,
261.000=0.850=0.000=0,
261.125=0.870=0.000=0,
261.250=0.900=0.000=0,
261.375=0.920=0.000=0,
261.500=0.950=0.000=0,
261.625=0.970=0.000=0,
261.750=0.980=0.000=0,
261.875=0.990=0.000=0,
262.000=3.000=0.000=0,
263.000=1.000=0.000=0,
372.000=0.700=0.000=0,
372.125=0.750=0.000=0,
372.250=0.800=0.000=0,
372.375=0.850=0.000=0,
372.500=0.900=0.000=0,
372.625=0.950=0.000=0,
372.750=1.000=0.000=0,
372.875=1.050=0.000=0,
373.000=1.100=0.000=0,
373.125=1.150=0.000=0,
373.250=1.200=0.000=0,
373.375=1.250=0.000=0,
373.500=1.300=0.000=0,
373.625=1.350=0.000=0,
373.750=1.400=0.000=0,
373.875=1.450=0.000=0,
374.000=1.500=0.000=0,
374.125=1.550=0.000=0,
374.250=1.600=0.000=0,
374.375=1.650=0.000=0,
374.500=1.700=0.000=0,
374.625=1.750=0.000=0,
374.750=1.800=0.000=0,
374.875=1.850=0.000=0,
375.000=1.900=0.000=0,
375.125=1.950=0.000=0,
375.250=2.000=0.000=0,
375.375=2.050=0.000=0,
375.500=2.100=0.000=0,
375.625=2.150=0.000=0,
375.750=2.200=0.000=0,
375.875=2.250=0.000=0,
376.000=2.300=0.000=0,
376.125=2.350=0.000=0,
376.250=2.400=0.000=0,
376.375=2.450=0.000=0,
376.500=2.500=0.000=0,
376.625=2.550=0.000=0,
376.750=2.600=0.000=0,
376.875=2.650=0.000=0,
377.000=2.700=0.000=0,
377.125=2.750=0.000=0,
377.250=2.800=0.000=0,
377.375=2.850=0.000=0,
377.500=2.900=0.000=0,
377.625=2.950=0.000=0,
377.750=3.000=0.000=0,
377.875=3.050=0.000=0,
378.000=3.100=0.000=0,
378.125=3.150=0.000=0,
378.250=3.200=0.000=0,
378.375=3.250=0.000=0,
378.500=3.300=0.000=0,
378.625=3.350=0.000=0,
378.750=3.400=0.000=0,
378.875=3.450=0.000=0,
379.000=3.500=0.000=0,
379.125=3.550=0.000=0,
379.250=3.600=0.000=0,
379.375=3.650=0.000=0,
379.500=3.700=0.000=0,
379.625=3.750=0.000=0,
379.750=3.800=0.000=0,
379.875=3.850=0.000=0,
380.000=4.000=0.000=0
;
#SCROLLS:0.000=1.000,
262.000=0.000,
262.125=1.000,
262.250=0.000,
262.375=1.000,
262.500=0.000,
262.625=1.000,
262.750=0.000,
262.875=1.000
;
#BGCHANGES:;
#FGCHANGES:;

//--------------- dance-single - chronon ----------------
#NOTEDATA:;
#STEPSTYPE:dance-single;
#DESCRIPTION:chronon;
#DIFFICULTY:Beginner;
#METER:3;
#RADARVALUES:0,0,0,0,0;
#NOTES:
0000
0000
0000
0000
,
0000
0000
0000
0000
,
0000
0000
0000
0000
,
0000
0000
0000
0000
,
0000
0000
0000
0000
,
0000
0000
0000
0000
,
0000
0000
0000
0000
,
0000
0000
0000
0000
,
0000
0000
0000
0000
,
1000
0000
0000
0000
,
0010
0000
0000
0000
,
0100
0000
0000
0000
,
0001
0000
0000
0000
,
1000
0000
0000
0000
,
0100
0000
0000
0000
,
0010
0000
0000
0000
,
0001
0000
0000
0000
,
1001
0000
0000
0000
,
0000
0000
0000
0000
,
0000
0000
0000
0000
,
0000
0000
0000
0000
,
1000
0000
1000
0000
,
1000
0000
0000
0000
,
0001
0000
0001
0000
,
0001
0000
0000
0000
,
2002
0000
0000
0000
,
0000
0000
0000
0000
,
0000
0000
0000
0000
,
0000
0000
3003
0000
,
1000
0000
1000
0000
,
1000
0000
0000
0001
,
0000
0001
1000
0000
,
1000
0000
0000
0000
,
0001
0000
0010
0000
,
0010
0000
0100
0000
,
1000
0000
1000
0000
,
0001
0000
0000
0000
,
0100
0100
0100
0000
,
0001
0000
1000
0000
,
0100
0000
0010
0000
,
0001
0000
0000
0000
,
1000
0000
0010
0000
,
0010
0000
0100
0000
,
0001
0000
0001
0000
,
1000
0000
0000
0000
,
0100
0100
0100
0000
,
0100
0100
0100
0000
,
1000
0000
0001
0000
,
1000
0000
0001
0000
,
0100
0100
0100
0000
,
0100
0100
0100
0000
,
0001
0000
1000
0000
,
0001
0000
0001
0000
,
1000
0000
1000
0000
,
0000
0000
0000
0000
,
0001
0000
0001
0000
,
0000
0000
0000
0000
,
2002
0000
0000
0000
,
0000
0000
0000
0000
,
0000
0000
0000
0000
,
0000
0000
0000
0000
,
0000
0000
3003
0000
,
0000
0000
0000
0000
,
0000
0000
0000
0000
,
0000
0000
0000
0000
,
0000
0000
0000
0000
,
1000
0000
0000
0000
,
0001
0000
0000
0000
,
1000
0000
0001
0000
,
1000
0001
1000
0000
,
0010
0010
0010
0000
,
1000
0000
0001
0000
,
0010
0000
0100
0000
,
1000
0000
0000
0000
,
0001
0000
0010
0000
,
0010
0000
0100
0000
,
1000
0000
1000
0000
,
0001
0000
1000
0000
,
0010
0010
0010
0000
,
0010
0010
0010
0000
,
1000
0000
0001
0000
,
0100
0000
0001
0000
,
0010
0010
0010
0000
,
0010
0010
0010
0000
,
0001
0000
1000
0000
,
0001
1000
0001
0000
,
1000
0000
0001
0000
,
0000
0000
0000
0000
,
0001
0000
1000
0000
,
0000
0000
0000
0000
,
0000
0000
0000
0000
,
2002
0000
0000
0000
,
0000
0000
0000
0000
,
0M00
00M0
0M00
00M0
0M00
00M0
0M00
00M0
0M00
00M0
0M00
00M0
0M00
00M0
0M00
00M0
,
0M00
00M0
0M00
00M0
0M00
00M0
0M00
00M0
0M00
00M0
0M00
00M0
0M00
00M0
0M00
00M0
,
3M03
00M0
0M00
00M0
000M
0M00
M000
00M0
000M
0M00
M000
00M0
000M
0M00
M000
00M0
,
000M
0000
0000
0000
;

//--------------- dance-single - chronon ----------------
#NOTEDATA:;
#STEPSTYPE:dance-single;
#DESCRIPTION:chronon;
#DIFFICULTY:Easy;
#METER:6;
#RADARVALUES:0,0,0,0,0;
#NOTES:
0000
0000
0000
0000
,
0000
0000
0000
0000
,
0000
0000
0000
0000
,
0000
0000
0000
0000
,
0000
0000
0000
0000
,
0000
0000
0000
0000
,
0000
0000
0000
0000
,
0000
0000
0000
0000
,
0000
0000
0000
0000
,
0001
0000
0010
0000
,
0100
0100
1000
0000
,
0001
0000
0100
0100
,
0020
0000
0000
1030
,
1000
0000
0010
0000
,
0100
0000
0100
0000
0001
0000
0000
1000
,
0000
0000
0000
0001
0000
0000
0000
1000
,
0000
0002
0000
1003
,
1001
0000
0000
0000
,
0000
0000
0000
0000
,
0000
0000
0000
0000
,
0000
0000
0000
0000
,
1000
0000
0100
0000
,
0010
0000
0001
0000
,
1000
0000
0010
0000
,
1000
0000
0001
0000
,
2002
0000
0000
0000
,
0000
0000
0000
0000
,
0000
0000
0000
0000
,
0000
0000
0000
3003
,
1001
0000
0000
1001
0000
0000
1001
0000
,
0000
1001
0000
0000
0000
0000
0001
0000
,
0010
0100
1000
0010
,
0200
0000
0301
0000
,
1000
0001
0001
1000
,
0001
0001
0010
0000
,
0100
0000
1000
0000
,
0001
0000
0000
0000
,
0100
1000
0100
0000
,
0001
0000
1000
0000
,
0100
0100
1000
1000
,
0001
0000
0000
1000
0000
0000
0000
0000
,
0001
1000
1000
0001
,
1000
1000
0010
0000
,
0100
0000
0001
0000
,
1000
0000
0000
0000
,
0100
0001
0100
0000
,
0100
0001
0100
0000
,
0100
0000
1000
0000
,
0001
0000
0000
0000
,
0100
1000
0100
0000
,
0100
1000
0100
0000
,
0001
0000
1000
0000
,
0001
1000
0001
1000
,
0001
0000
1000
0000
,
0100
0100
0100
0000
,
1000
0000
0001
0000
,
0100
0000
0100
0000
0200
0300
0000
0000
,
2002
0000
0000
0000
,
0000
0000
0000
0000
,
0000
0000
0000
0000
,
0000
0000
0000
0000
,
0000
0000
3003
0000
,
0000
0000
0000
0000
,
0000
0000
0000
0000
,
0000
0000
0000
0000
,
0000
0000
0000
0000
,
0001
0000
1000
0000
,
0001
0000
1000
0000
,
0001
1000
0001
1000
,
0001
1000
0001
0000
,
0010
1000
0010
0000
,
0001
1000
0001
0000
,
0100
0100
0001
0001
,
1000
0000
0000
0001
0000
0000
0000
0000
,
1000
0100
0100
1000
,
0001
0001
1000
0010
,
0100
0000
0001
0000
,
1000
0000
0000
0000
,
0010
0001
0010
0000
,
0100
1000
0100
0000
,
0010
0000
1000
0000
,
0001
1000
0001
0000
,
0010
1000
0010
0000
,
0100
0001
0100
0000
,
1000
0000
0001
0000
,
1000
0001
1000
0001
,
1000
0000
0001
0000
,
0100
0100
0100
0000
,
0001
0000
1000
0000
,
0100
0100
0100
0000
,
0000
0000
0000
0000
,
2002
0000
0000
0000
,
0000
0000
0000
0000
,
0M00
00M0
0M00
00M0
0M00
00M0
0M00
00M0
0M00
00M0
0M00
00M0
0M00
00M0
0M00
00M0
,
0M00
00M0
0M00
00M0
0M00
00M0
0M00
00M0
0M00
00M0
0M00
00M0
0M00
00M0
0M00
00M0
,
3M03
00M0
0M00
00M0
000M
0M00
M000
00M0
000M
0M00
M000
00M0
000M
0M00
M000
00M0
,
000M
0000
0000
0000
;

//--------------- dance-single - chronon ----------------
#NOTEDATA:;
#STEPSTYPE:dance-single;
#DESCRIPTION:chronon;
#DIFFICULTY:Medium;
#METER:10;
#RADARVALUES:0,0,0,0,0;
#NOTES:
0000
0000
0000
0000
,
0000
0000
0000
0000
,
0000
0000
0000
0000
,
0000
0000
0000
0000
,
0000
0000
0000
0000
,
0000
0000
0000
0000
,
0000
0000
0000
0000
,
0000
0000
0000
0000
,
0000
0000
0000
0000
,
1000
0000
0010
0200
0000
0301
0000
2000
,
0000
3001
1000
0000
0100
0000
1000
0000
,
0100
0000
0010
0002
0000
1003
0000
0020
,
0000
0100
0100
1030
,
0001
0000
0100
0020
0000
1030
0000
0002
,
0000
1003
0001
0000
0010
0000
0001
0010
,
0000
0000
0100
1000
0000
0000
0001
2000
,
0000
0002
0000
3003
,
1000
1000
0000
0000
0000
0000
0000
0000
,
0000
0000
0000
0000
0000
0000
0000
1001
,
0000
1001
0000
0000
,
0000
0000
0000
0000
,
0001
0001
0000
0000
1000
0000
0000
1001
,
0000
0000
1001
0000
0001
0000
0000
0020
,
0000
0000
0130
0000
1000
0000
0000
0020
,
0000
1030
0001
0000
,
2002
0000
0000
0000
,
0000
0000
0000
0000
,
0000
0000
0000
0000
,
0000
0000
0000
3003
,
1001
0000
0000
1100
0000
0000
1001
0000
,
0000
0000
0102
0000
0000
0000
0000
0000
1003
0000
0000
0000
0001
0000
0000
0010
,
0000
0000
0001
0000
1000
0000
0000
0000
1000
0000
0000
0010
0000
0000
1000
0000
,
0002
0000
1003
0000
,
0001
1000
0002
0000
0010
0000
1003
0001
,
2000
0010
3001
0010
,
0100
1000
0001
1000
,
0010
0010
0010
0200
,
1000
0320
0001
0130
,
0002
2003
3200
0320
,
0130
0010
0001
0000
0010
0100
1000
0000
,
0001
0000
0000
0001
0000
0000
0001
0000
0000
0000
1000
0000
0001
0000
0000
0000
,
1000
0001
2000
0000
0010
0000
3001
1000
,
0002
0010
1003
0010
,
0100
0001
1000
0001
,
0010
0010
0010
0200
,
0001
0320
1000
0230
,
0001
0320
1000
0130
,
1000
0001
1000
0000
,
0001
1000
0001
0000
,
0200
1000
0320
0001
,
0230
1000
0320
0001
,
0130
0001
0100
0001
,
1000
0000
0001
0000
1000
0001
1000
0000
,
0001
0001
0000
0000
1000
1000
0000
0000
,
0000
0000
0001
0000
0000
1000
0000
0000
0001
0000
0000
0000
0000
0000
0000
0000
,
1000
1000
0000
0000
0001
0001
0000
0000
,
0000
0000
1000
0000
0000
0001
0000
0000
2000
0000
3000
0000
0000
0000
0000
0000
,
2002
0000
0000
0000
,
0000
0000
0000
0000
,
0000
0000
0000
0000
,
0000
0000
0000
0000
,
0000
0000
3003
0000
,
1000
0000
0100
0000
,
0010
0000
0001
0000
,
1000
0000
0002
0000
,
2000
0000
0000
0000
0000
0000
0000
0000
0M00
0M00
00M0
00M0
30M3
0000
0000
0000
,
1000
1000
1000
1000
,
0001
0001
0001
0001
,
0010
0100
1000
0001
,
1000
0001
1000
0001
1000
0000
0020
0000
,
0001
0230
1000
0310
,
2000
3002
0023
0230
,
1300
0100
0010
0000
0100
1000
0001
0000
,
1000
0000
0000
1000
0000
0000
1000
0000
0000
0000
0001
0000
1000
0000
0000
0000
,
0001
1000
0002
0000
0100
0000
1003
0001
,
2000
0000
0100
0000
3001
1000
0001
0000
,
0010
0100
1000
0001
,
0100
0100
0100
0020
,
0001
0230
1000
0320
,
0001
0230
1000
0310
,
0100
0001
1000
0001
,
0010
0100
0100
0020
,
1000
0230
0001
0320
,
1000
0230
0001
0310
,
0100
1000
0001
1000
,
0001
1000
0001
1000
0001
1000
0001
0000
,
1000
1000
0000
0000
0010
0010
0000
0000
,
0000
0000
1000
0000
0000
0001
0000
0000
1000
0000
0000
0000
0000
0000
0000
0000
,
0001
0001
0000
0000
0010
0010
0000
0000
,
0000
0000
0001
0000
0000
1000
0000
0000
0001
0000
0000
0000
0000
0000
0000
0000
,
0000
0000
0000
0000
,
2002
0000
0000
0000
,
0000
0000
0000
0000
,
0M00
00M0
0M00
00M0
0M00
00M0
0M00
00M0
0M00
00M0
0M00
00M0
0M00
00M0
0M00
00M0
,
0M00
00M0
0M00
00M0
0M00
00M0
0M00
00M0
0M00
00M0
0M00
00M0
0M00
00M0
0M00
00M0
,
3M03
00M0
0M00
00M0
000M
0M00
M000
00M0
000M
0M00
M000
00M0
000M
0M00
M000
00M0
,
000M
0000
0000
0000
;

//--------------- dance-single - chronon ----------------
#NOTEDATA:;
#STEPSTYPE:dance-single;
#DESCRIPTION:chronon;
#DIFFICULTY:Hard;
#METER:14;
#RADARVALUES:0,0,0,0,0;
#NOTES:
0000
0000
0000
0000
,
0000
0000
0000
0000
,
0000
0000
0000
0000
,
0000
0000
0000
0000
,
0000
0000
0000
0000
,
0000
0000
0000
0000
,
0000
0000
0000
0000
,
0000
0000
0000
0000
,
0000
0000
0000
0000
,
0001
0100
0010
0200
0000
0301
0000
2000
,
0000
3001
0010
0100
1000
0000
0100
1000
,
0100
0010
0002
0010
0000
1000
0000
0203
,
0000
0301
0100
0010
1000
0000
0001
0000
,
1000
0100
0010
0200
0000
1300
0000
0002
,
0000
1003
0010
0100
0001
0100
0001
0010
,
0000
0100
1000
0010
0000
0100
0001
2000
,
0000
3100
1000
0000
0100
1000
0001
0000
,
0100
0100
0010
0100
1000
0100
0010
0000
,
0200
0000
0010
0302
0000
0000
0010
1003
,
0000
0000
1001
0000
1000
0000
0001
0020
,
0000
0230
0000
0000
1300
0100
0010
0000
,
0100
0100
0010
0100
0001
0100
0010
0000
,
0200
0000
0010
2300
0000
0000
0010
3001
,
0000
0000
1001
0000
0001
0000
1000
0020
,
0000
1030
0002
0000
1003
0000
0000
0000
,
2002
0000
0000
0000
,
0000
0000
0000
0000
,
0000
0000
0000
0000
,
0000
0000
0000
3003
,
1000
0100
0100
0010
0001
1000
0001
0100
,
0100
0000
0010
0000
1000
0000
0001
0000
1000
0000
0000
0000
1001
0000
0000
0001
,
0000
0000
0010
0000
0100
0000
0000
0000
1001
0000
0000
1000
0000
0000
0010
0000
,
0200
0000
0310
0000
,
0100
2000
3100
0010
2000
0000
3100
0002
,
0103
0010
0002
0000
0013
0100
1000
0000
,
0100
1000
0001
0000
1000
0001
0100
0000
,
0101
0000
1001
0000
0011
0000
0001
0020
,
0001
0000
0000
0230
1000
0000
0310
0000
0001
0000
1000
0000
0001
0000
0000
0000
,
2000
3020
0032
0023
,
0130
0001
0010
0000
0100
1000
0010
0000
,
2010
0000
0000
3001
0000
0000
1001
0000
0000
0000
1000
0001
1000
0000
0000
0000
,
0100
0001
0100
0010
0002
0000
0103
1000
,
0100
0010
2000
0000
3010
0100
0001
0000
,
0100
0001
1000
0000
0001
1000
0100
0000
,
1100
0000
1001
0000
1010
0000
1000
0020
,
1000
0000
0000
0230
0001
0000
0320
0000
1000
0000
0000
0230
0001
0000
0320
0000
,
1000
0000
0000
0230
0001
0000
0310
0000
1000
0000
0000
0000
0001
0000
0000
0000
,
1000
0000
0100
0010
0001
0000
0100
0010
,
1000
0000
0001
0000
1000
0000
0001
0020
,
0001
0000
0000
0230
1000
0000
0320
0000
0001
0000
0000
0230
1000
0000
0320
0000
,
0001
0000
0000
0230
1000
0000
0310
0000
0001
0000
0000
0000
1000
0000
0000
0000
,
0001
1000
0001
1000
0001
1000
0001
1000
,
0001
0100
0010
1000
0001
1000
0100
0000
,
1100
1100
0000
0000
1001
1001
0000
0000
,
0000
0000
0012
0000
0000
1003
0000
0000
1002
0000
0000
0000
0103
0000
0000
0000
,
0101
0101
0000
0000
1001
1001
0000
0000
,
0000
0000
2010
0000
0000
3001
0000
0000
2002
0000
3003
0000
0000
0000
0000
0000
,
2002
0000
0000
0000
,
0000
0000
0000
0000
,
0000
0000
0000
0000
,
0000
0000
0000
0000
,
0000
0000
3003
0000
,
1000
0020
0130
0001
,
0020
0130
0001
0100
,
1000
0100
0010
0002
,
2000
0000
0000
0000
0000
0000
0000
0000
0M00
0M00
00M0
00M0
30M3
0000
0000
0000
,
1000
0010
1000
0010
0100
0001
0100
0001
,
1000
0100
1000
0100
0010
0001
0010
0001
,
1000
0100
0010
0001
1000
0100
0010
0001
,
1000
0010
0100
0001
0100
0000
0001
0200
,
0001
0000
0000
0320
1000
0000
0130
0000
0001
0000
1000
0000
0001
0000
0010
0000
,
0002
0023
2030
3020
,
0130
1000
0010
0000
0100
0001
0010
0000
,
0011
0000
0000
1001
0000
0000
1001
0000
0000
0000
1000
0001
1000
0000
0000
0000
,
0010
0002
0013
1000
0002
0000
0013
1000
,
0010
0001
2000
0000
3001
1000
0010
0100
,
0001
1000
0100
0000
1000
0001
0100
0000
,
0101
0000
0000
0000
1001
0000
0000
0000
0011
0000
0000
0010
0001
0000
0020
0000
,
0001
0000
0000
0230
1000
0000
0320
0000
0001
0000
0000
0230
1000
0000
0320
0000
,
0001
0000
0000
0230
1000
0000
0310
0000
0001
0000
1000
0000
0001
0000
0100
0000
,
0010
1000
0001
1000
0100
1000
0001
1000
,
0010
0000
0000
0000
1000
0000
0000
0000
0010
0000
0000
0010
1000
0000
0020
0000
,
1000
0000
0000
0230
0001
0000
0320
0000
1000
0000
0000
0230
0001
0000
0320
0000
,
1000
0000
0000
0230
0001
0000
0310
0000
1000
0000
0001
0000
1000
0000
0100
0000
,
1000
0100
0010
0001
1000
0100
0010
0001
,
1000
0010
0100
0001
1000
0001
0010
0000
,
0011
0011
0000
0000
1100
1100
0000
0000
,
0000
0000
1100
0000
0000
1001
0000
0000
2001
0000
0000
0000
3010
0000
0000
0000
,
1010
1010
0000
0000
0101
0101
0000
0000
,
0000
0000
0101
0000
0000
1001
0000
0000
1001
0000
1000
0000
0100
0000
0010
0000
,
0001
1000
0010
0100
0001
1000
0000
0000
,
2002
0000
0000
0000
,
0000
0000
0000
0000
,
0M00
00M0
0M00
00M0
0M00
00M0
0M00
00M0
0M00
00M0
0M00
00M0
0M00
00M0
0M00
00M0
,
0M00
00M0
0M00
00M0
0M00
00M0
0M00
00M0
0M00
00M0
0M00
00M0
0M00
00M0
0M00
00M0
,
3M03
00M0
0M00
00M0
000M
0M00
M000
00M0
000M
0M00
M000
00M0
000M
0M00
M000
00M0
,
000M
0000
0000
0000
;

//--------------- dance-single - chronon ----------------
#NOTEDATA:;
#STEPSTYPE:dance-single;
#DESCRIPTION:chronon;
#DIFFICULTY:Challenge;
#METER:17;
#RADARVALUES:0,0,0,0,0;
#NOTES:
0000
0000
0000
0000
,
0000
0000
0000
0000
,
0000
0000
0000
0000
,
0000
0000
0000
0000
,
0000
0000
0000
0000
,
0000
0000
0000
0000
,
0000
0000
0000
0000
,
0000
0000
0000
0000
,
0000
0000
0000
0000
,
1000
0010
0100
0020
0000
1030
0000
0002
,
0000
0000
1003
0000
0100
0010
0001
0000
1000
0000
0000
0000
0001
0000
1000
0000
,
0010
0100
0002
0100
0000
1000
0000
0023
,
0000
0031
0010
0100
1000
0100
0010
0000
,
0001
0100
0010
0200
0000
0301
0000
2000
,
0000
0000
3001
0000
0010
0100
1000
0000
0001
0000
0010
0000
0001
0000
0100
0000
,
0000
0000
0100
0010
1000
0000
0100
0000
0000
0000
0010
0100
1000
0000
0002
0000
,
0000
0000
1003
0001
0200
0000
0000
0000
0301
0000
0100
0001
1000
0000
0000
0000
,
1001
0000
1001
0000
0001
0000
0100
0000
1000
0000
0100
0000
0010
0100
0010
0000
,
1000
0002
0010
1003
0000
0002
0013
1001
,
0000
0000
1010
0000
0010
0100
0001
0020
,
0000
0230
0000
0310
0001
1000
0001
0000
,
1001
0000
1001
0000
1000
0000
0010
0000
0001
0000
0010
0000
0100
0010
0100
0000
,
0001
2000
0100
3001
0000
2000
3100
1001
,
0000
0000
0011
0000
0010
0100
1000
0020
,
0000
0130
0002
0000
1003
0000
0000
0000
,
2002
0000
0000
0000
,
0000
0000
0000
0000
,
0000
0000
0000
0000
,
0000
0000
0000
3003
,
0001
1000
0001
1000
0100
0000
1000
0100
1000
0100
0010
0000
0100
0010
0100
0010
,
0001
0000
0010
0001
0010
0001
2000
0000
0001
0000
3010
0000
1010
0000
0000
1010
,
0000
0000
0110
0000
0110
0000
0000
0000
0101
0000
0000
0101
0000
0000
1001
0000
,
0022
0000
0000
0000
0000
0000
0000
0000
0033
0000
0001
0010
0001
0000
0010
0000
,
0100
0000
0002
0000
0103
0010
0001
0000
2000
0000
3010
0000
0100
0000
2000
0000
,
3100
0010
1000
0000
0002
0000
0013
0000
0001
0010
0100
0000
0010
0100
1000
0000
,
0100
0010
0001
1000
0001
0100
0010
1000
,
1010
0000
0000
0000
0101
0000
0000
0000
1001
0000
0001
1000
0010
0000
0200
0000
,
1000
0000
0000
0320
1000
0000
0130
0000
1000
0000
0100
0010
0100
0000
0001
0000
,
0101
1100
1010
0011
,
0001
1000
0001
1000
0010
0000
0000
0000
1000
0001
1000
0001
0010
0000
0000
0000
,
0011
0000
0000
0110
0000
0000
1100
0000
0000
0000
1000
0100
1000
0000
0100
0000
,
0010
0000
2000
0000
3010
0100
1000
0000
0002
0000
0103
0000
0010
0000
0002
0000
,
0013
0100
0001
0000
2000
0000
3100
0000
1000
0100
0010
0000
0100
0010
0001
0000
,
0010
0100
1000
0001
1000
0010
0100
0001
,
0101
0000
0000
0000
1010
0000
0000
0000
1001
0000
0001
1000
0010
0000
0200
0000
,
1000
0000
0000
0320
1000
0000
0230
0000
1000
0000
0000
0320
1000
0000
0230
0000
,
1000
0000
0000
0320
1000
0000
0130
0000
1000
0000
0100
0010
1000
0000
0001
0000
,
0010
0100
0010
0001
1000
0001
0100
0010
,
1000
0000
0001
0000
1000
0000
0000
0000
0001
0000
1000
0001
0010
0000
0200
0000
,
0001
0000
0000
0320
0001
0000
0230
0000
0001
0000
0000
0320
0001
0000
0230
0000
,
0001
0000
0000
0320
0001
0000
0130
0000
0001
0000
0100
0000
1000
0000
0001
0000
,
1000
1000
0010
0010
0100
0100
0001
0001
,
1000
0010
1000
0010
0100
0010
0100
0001
1000
0001
1000
0001
0010
0000
0000
0000
,
0011
0012
0010
1003
1010
2010
0010
3001
,
1000
0000
0001
0000
0000
1001
0000
0000
2001
0000
0000
0000
3100
0000
0000
0000
,
1100
2100
0100
3001
0101
0102
0100
1003
,
0001
0000
1000
0000
0000
1001
0000
0000
2002
0000
3003
0000
0000
0000
0000
0000
,
2002
0000
0000
0000
,
0000
0000
0000
0000
,
0000
0000
0000
0000
,
0000
0000
0000
0000
,
0000
0000
3003
0000
,
0001
1000
0200
0000
0310
0000
0001
1000
,
0020
0130
1000
0100
,
0010
1000
0001
0000
0010
0001
2000
0000
,
0002
0000
0000
0000
0000
0000
0000
0000
0M00
0M00
00M0
00M0
30M3
0000
0000
0000
,
0001
0010
0100
1000
0001
0010
0100
1000
,
0001
0100
0010
1000
0001
0100
0010
1000
,
0001
0100
0010
1000
0001
0100
0010
1000
0001
0010
0100
1000
0001
0010
0100
1000
,
0001
1000
0100
0010
0001
1000
0001
0100
0010
0000
1000
0001
0100
0000
0020
0000
,
0001
0000
0000
0230
0001
0000
0310
0000
0001
0000
0010
0100
0010
0000
1000
0000
,
2010
3001
0012
1003
2100
3001
0102
0000
,
0103
0001
1000
0001
0010
0000
0000
0000
0100
1000
0001
1000
0010
0000
0000
0000
,
1010
0000
0000
0110
0000
0000
0101
0000
0000
0000
0001
0100
0001
0000
0100
0000
,
0010
0000
0002
0000
0013
0100
0001
0000
0020
0000
0130
0000
0010
0000
2000
0000
,
3010
0100
1000
0000
0020
0000
0130
0000
1000
0100
0010
0000
0100
0010
1000
0000
,
0010
0000
1000
0000
0100
0000
0010
0000
0001
0000
0100
0010
0100
0000
0010
0000
,
0110
0000
0000
0000
0101
0000
0000
0000
1001
0000
1000
0001
0100
0000
0020
0000
,
0001
0000
0000
0230
0001
0000
0320
0000
0001
0000
0000
0230
0001
0000
0320
0000
,
0001
0000
0000
0230
0001
0000
0310
0000
0001
0000
0010
0100
0001
0000
1000
0000
,
0001
0000
0010
0000
0100
0000
1000
0001
1000
0000
0010
0000
0100
0000
0001
1000
,
0001
0000
1000
0000
0001
0000
0000
0000
1000
0000
0001
1000
0100
0000
0020
0000
,
1000
0000
0000
0230
1000
0000
0320
0000
1000
0000
0000
0230
1000
0000
0320
0000
,
1000
0000
0000
0230
1000
0000
0310
0000
1000
0000
0010
0000
0001
1000
0001
0000
,
1001
0000
1000
0000
1010
0000
0010
0000
0110
0000
0100
0000
0101
0000
0001
0100
,
0001
0100
0010
1000
0001
0100
0010
1000
0001
0100
0001
1000
0100
0000
0000
0000
,
1100
2100
0100
3001
0101
0102
0100
1003
,
0001
1000
0001
0000
0000
1001
0000
0000
1002
0000
0000
0000
0013
0000
0000
0000
,
0011
0012
0010
1003
1010
2010
0010
3001
,
1000
0001
1000
0000
0000
1001
0000
0000
1001
0000
0001
1000
0100
0010
0001
1000
,
0001
0100
0010
0100
0001
1000
0001
0010
0100
1000
0001
1000
0000
0000
0000
0000
,
2002
0000
0000
0000
,
0000
0000
0000
0000
,
0M00
00M0
0M00
00M0
0M00
00M0
0M00
00M0
0M00
00M0
0M00
00M0
0M00
00M0
0M00
00M0
,
0M00
00M0
0M00
00M0
0M00
00M0
0M00
00M0
0M00
00M0
0M00
00M0
0M00
00M0
0M00
00M0
,
3M03
00M0
0M00
00M0
000M
0M00
M000
00M0
000M
0M00
M000
00M0
000M
0M00
M000
00M0
,
000M
0000
0000
0000
;
