#VERSION:0.83;
#TITLE:Time to POKEDANCE!;
#SUBTITLE:;
#ARTIST:Yuki Honda ft. Nanahira;
#TITLETRANSLIT:;
#SUBTITLETRANSLIT:;
#ARTISTTRANSLIT:;
#GENRE:;
#CREDIT:;
#MUSIC:song.ogg;
#BANNER:bn.png;
#BACKGROUND:bg.png;
#CDTITLE:;
#SAMPLESTART:43.135;
#SAMPLELENGTH:12.000;
#SELECTABLE:YES;
#OFFSET:-0.554;
#BPMS:0.000=124.000;
#STOPS:;
#SPEEDS:0.000=1.000=0.000=0;
#SCROLLS:0.000=1.000;
#TICKCOUNTS:0.000=4;
#TIMESIGNATURES:0.000=4=4;
#LABELS:0.000=Song Start;
#COMBOS:0.000=1;
#ORIGIN:;
#TAGS:;
#PREVIEWVID:;
#JACKET:jacket.png;
#CDIMAGE:;
#DISCIMAGE:;
#XSCROLLS:0.000000=0.000000 ;
#BGCHANGES:99999.000=-nosongbg-=1.000=0=0=0=StretchNoLoop====,
99999.000=-nosongbg-=1.000=0=0=0=StretchNoLoop====
;
#FGCHANGES:;

//--------------- dance-single - DS ----------------
#NOTEDATA:;
#STEPSTYPE:dance-single;
#DESCRIPTION:DS;
#DIFFICULTY:Hard;
#METER:13;
#RADARVALUES:0.541166,0.580611,0.17561,0.903138,0.363764,302,288,14,72,0,0,0,0,0,0.541166,0.580611,0.17561,0.903138,0.363764,302,288,14,72,0,0,0,0,0;
#CHARTNAME:Youtube Short(er);
#CHARTHASH:3979290902;
#BANNER:;
#CHARTSTYLE:;
#METERF:0.000000;
#LASTSECONDHINT:78.457230;
#CREDIT:Maractus (X-Scale);
#NOTES:
0000
0000
0000
0000
,
0000
0000
0000
0000
0000
0000
0000
2000
,
0010
0000
3001
0100
0000
0100
0010
0000
2000
0000
0100
0000
3200
0000
0010
0000
,
1300
0000
1000
0100
0000
0100
0010
0000
0002
0000
1000
0000
1003
0000
0002
0000
,
0100
0000
1003
0100
0000
0100
0010
0000
0002
0000
0100
0000
0203
0000
0010
0000
,
0301
0000
0001
0100
0000
0100
0010
0000
2000
0000
0001
0000
3001
0000
2000
0000
,
0100
0000
3001
0010
0000
0010
0100
0000
2000
0000
0010
0000
3020
0000
0100
0000
,
1030
0000
1000
0010
0000
0010
0100
0000
0002
0000
1000
0000
1003
0000
0002
0000
,
0010
0000
1003
0010
0000
0010
0100
0000
0002
0000
0010
0000
0023
0000
0100
0000
,
0031
0000
0001
0010
0000
0010
0100
0000
1000
0000
0100
0000
0010
0000
0001
0000
,
0100
0000
0002
0000
2003
0100
3100
0010
,
0001
0000
0010
0100
0000
0100
0000
0100
1000
0000
0001
0000
0002
0000
0000
0000
,
0003
0000
2000
0000
3002
0100
0103
0010
,
1000
0000
0010
0100
0000
0100
0000
0100
0001
0000
1000
0000
2000
0000
0000
0000
,
3000
0000
0002
0000
2003
0010
3010
0100
,
0001
0000
0100
0010
0000
0010
0000
0010
1000
0000
0001
0000
0002
0000
0000
0000
,
0003
0000
2000
0000
3002
0010
0013
0100
,
1000
0000
0100
0010
0000
0010
0000
0010
0001
0000
1000
0000
2000
0000
0000
0000
,
3002
0000
1000
0000
0013
0001
0100
0001
,
2000
0100
3001
1000
,
0002
0000
1000
0000
0103
0001
0010
0001
,
0022
0033
0000
2002
3003
0000
1010
0000
1001
0000
0001
1000
0020
0000
0000
0030
,
0100
0000
0010
1000
0000
1000
0001
0000
0002
0000
0100
0000
1003
0000
0010
0000
,
0100
0000
0010
1000
0000
1000
0001
0000
0002
0000
0010
0000
2003
0000
0010
0000
,
3002
0000
0000
0103
0010
0000
1000
0000
0010
0000
0100
0001
1000
0000
0100
0000
,
2200
0000
0000
3300
2002
0000
0000
3003
0202
0000
0000
0303
1001
0000
1000
0000
,
0100
0000
0010
0001
0000
0001
1000
0000
2000
0000
0010
0000
3001
0000
0100
0000
,
0010
0000
0100
0001
0000
0001
1000
0000
2000
0000
0010
0000
3002
0000
0010
0000
,
2003
0000
0000
3100
0010
0000
0001
0000
0010
0000
0100
1000
0001
0000
0100
0000
,
0020
0000
0000
0230
0000
0000
0310
0000
1000
0000
0100
0010
0002
0000
0100
0000
,
1003
0000
0002
0100
1003
0000
0002
0100
,
1003
0100
0010
0001
1000
0010
0010
0010
,
0220
0330
0000
0202
0303
0000
1001
0000
2200
3300
0000
2020
3030
0000
1001
0000
,
0022
0033
0000
0220
0330
0000
0100
0000
2000
0000
3010
0100
0001
0000
1000
0000
,
1000
0010
0100
0001
1000
0100
0200
0010
,
2300
0000
3001
1000
0001
0010
0020
0100
,
0031
0010
0001
0100
0010
1000
2000
0100
,
3002
0000
0100
0000
1003
0000
0100
0000
0020
0000
0001
0000
0031
0000
0100
0010
,
2000
0000
3000
0000
0001
0000
1000
0000
0100
0000
0000
0010
0000
0000
0001
0000
,
0000
0000
1000
0000
0100
1000
0000
0000
0001
0000
0100
0000
0020
0000
0000
0000
,
0030
0000
0000
0000
;

//--------------- dance-single - FS+ DS ----------------
#NOTEDATA:;
#STEPSTYPE:dance-single;
#DESCRIPTION:FS+ DS;
#DIFFICULTY:Challenge;
#METER:14;
#RADARVALUES:0.541166,0.577005,0.17561,0.827877,0.370036,302,288,14,66,32,0,11,0,0,0.541166,0.577005,0.17561,0.827877,0.370036,302,288,14,66,32,0,11,0,0;
#CHARTNAME:Youtube Shorts;
#CHARTHASH:1276785122;
#BANNER:;
#CHARTSTYLE:;
#METERF:0.000000;
#LASTSECONDHINT:77.973358;
#CREDIT:Maractus (X-Scale);
#NOTES:
0M00
0M00
0M00
0M00
0M00
0M00
0M00
0M00
,
0M00
0M00
0M00
0M00
0M00
0M00
0M00
2000
,
0010
0000
3001
0100
00M0
0100
1000
0000
2000
0000
0100
0000
3200
0000
0010
0000
,
1300
0000
1000
0100
00M0
0100
0001
0000
0002
0000
1000
0000
1003
0000
0002
0000
,
0100
0000
1003
0100
00M0
0100
0001
0000
0002
0000
0100
0000
0203
0000
0010
0000
,
0301
0000
0001
0100
00M0
0100
1000
0000
2000
0000
0001
0000
3001
0000
2000
0000
,
0100
0000
3001
0010
0M00
0010
1000
0000
2000
0000
0010
0000
3020
0000
0100
0000
,
1030
0000
1000
0010
0M00
0010
0001
0000
0002
0000
1000
0000
1003
0000
0002
0000
,
0010
0000
1003
0010
0M00
0010
0001
0000
0002
0000
0010
0000
0023
0000
0100
0000
,
0031
0000
0001
0010
0M00
0010
1000
0000
1000
0000
0100
0000
0010
0000
0001
0000
,
0100
0000
0004
0000
2003
0100
3100
0010
,
0001
0000
0010
0100
0000
0100
00M0
0100
0001
0000
0200
0000
0340
0000
0000
0000
,
0030
0000
4000
0000
3002
0100
0103
0010
,
1000
0000
0010
0100
0000
0100
00M0
0100
1000
0000
0200
0000
0340
0000
0000
0000
,
0030
0000
0004
0000
2003
0010
3010
0100
,
0001
0000
0100
0010
0000
0010
0M00
0010
0001
0000
0020
0000
0430
0000
0000
0000
,
0300
0000
4000
0000
3002
0010
0013
0100
,
1000
0000
0100
0010
0000
0010
0M00
0010
1000
0000
0020
0000
0430
0000
0000
0000
,
0302
0000
1000
0000
0013
0001
0100
0001
,
2000
0100
3001
1000
,
0002
0000
1000
0000
0103
0001
0010
0001
,
0022
0033
0000
2002
3003
0000
1010
0000
1001
0000
0001
1000
0040
0000
0000
0030
,
0100
0000
0001
0100
00M0
0100
0010
0000
0002
0000
0100
0000
1003
0000
0100
0000
,
0010
0000
0001
0010
0M00
0010
0100
0000
0002
0000
0010
0000
2003
0000
0010
0000
,
3002
0000
0000
0103
0010
0000
1000
0000
0010
0000
0100
0001
1000
0000
0100
0000
,
2200
0000
0000
3300
2002
0000
0000
3003
0202
0000
0000
0303
1001
0000
1000
0000
,
0010
0000
1000
0100
00M0
0100
0010
0000
2000
0000
0100
0000
3001
0000
0100
0000
,
0010
0000
1000
0010
0M00
0010
0100
0000
2000
0000
0010
0000
3002
0000
0010
0000
,
2003
0000
0000
3100
0010
0000
0001
0000
0010
0000
0100
1000
0001
0000
0100
0000
,
0020
0000
0000
0230
0000
0000
0310
0000
1000
0000
0100
0010
0002
0000
0100
0000
,
1003
0000
0002
0100
1003
0000
0002
0100
,
1003
0100
0010
0001
1000
0010
0010
0010
,
0220
0330
0000
0202
0303
0000
1001
0000
2200
3300
0000
2020
3030
0000
1001
0000
,
0022
0033
0000
0220
0330
0000
0100
0000
2000
0000
3010
0100
0001
0000
0100
00M0
,
0100
1000
0002
0100
1003
0100
0200
0010
,
4300
0000
3001
1000
0001
0010
0020
0100
,
0031
0010
0001
0100
0010
1000
2000
0100
,
3002
0000
0100
0000
1003
0000
0100
0000
0020
0000
0001
0000
0031
0000
0100
0010
,
2000
0000
3000
0000
0001
0000
1000
0000
0100
0000
0000
0010
0000
0000
0001
0000
,
0000
0000
1000
0000
0100
1000
0000
0000
0001
0000
0100
0000
0040
0000
0000
0000
,
0030
0000
0000
0000
;
