#VERSION:0.83;
#TITLE:The One;
#SUBTITLE:;
#ARTIST:Paul Bazooka;
#TITLETRANSLIT:;
#SUBTITLETRANSLIT:;
#ARTISTTRANSLIT:;
#GENRE:;
#CREDIT:;
#MUSIC:The One.ogg;
#BANNER:The One-banner.png;
#BACKGROUND:The One-background.png;
#JACKET:The One-jacket.png;
#DISCIMAGE:;
#CDIMAGE:;
#SELECTABLE:YES;
#LYRICSPATH:;
#CDTITLE:scr-cdtitle.png;
#SAMPLESTART:0.000;
#SAMPLELENGTH:0.000;
#BPMS:0.000=125.000;
#STOPS:;
#WARPS:;
#DELAYS:;
#SPEEDS:;
#SCROLLS:;
#TICKCOUNTS:;
#TIMESIGNATURES:;
#LABELS:;
#COMBOS:;
#FAKES:;
#BGCHANGES:;
#FGCHANGES:;
#ATTACKS:;

//---------------dance-single - XO---------------
#NOTEDATA:;
#CHARTNAME:hello? hello?;
#CHARTSTYLE:;
#CREDIT:Scrypts;
#STEPSTYPE:dance-single;
#DESCRIPTION:XO;
#DIFFICULTY:Hard;
#METER:12;
#METERF:12;
#RADARVALUES:0,0,0,0,0;
#NOTES:
// measure 0
0000
0000
0000
0000
,  // measure 1
0000
0000
0000
0000
,  // measure 2
0000
0000
0000
0000
,  // measure 3
0000
0000
0000
0000
,  // measure 4
1000
0000
0100
0000
0000
0000
0000
0010
0000
0010
0000
0001
1000
0000
0010
0000
,  // measure 5
0100
0000
0001
0000
0000
0000
1000
0000
0000
0100
0000
0100
1000
0000
0010
0000
,  // measure 6
0100
0000
0001
0000
0000
0000
0000
1000
0000
1000
0000
0010
0100
0000
0001
0000
,  // measure 7
1000
0000
0100
0010
0100
0000
1000
0000
0001
0100
0001
0000
1000
0100
1000
0000
,  // measure 8
0001
0000
0100
0000
0010
0000
1000
0001
0000
0001
0000
1000
0100
0000
0010
0000
,  // measure 9
0100
0000
1000
0000
0001
0000
0100
0000
0000
0010
0000
0010
1000
0000
0001
0000
,  // measure 10
1000
0000
0100
0000
0010
0000
0001
1000
0000
1000
0000
0010
0100
0000
0010
0000
,  // measure 11
1000
0000
0001
0000
0010
0000
0100
0000
0000
1000
0000
1000
0010
0000
0100
0000
,  // measure 12
0000
0000
0001
0000
1000
0000
0100
0010
0000
0010
0000
0100
1000
0000
0001
0000
,  // measure 13
1000
0000
0010
0000
0100
0000
0001
0000
0000
0010
0000
0010
0001
0000
1000
0000
,  // measure 14
0001
0000
0100
0000
0010
0000
1000
0100
0000
0100
0000
1000
0001
0000
1000
0000
,  // measure 15
0010
0100
0001
1000
0100
0100
0010
0001
,  // measure 16
1000
0010
0000
0000
0100
0000
0001
1000
0000
0100
0000
0100
0010
0000
0001
0000
,  // measure 17
1000
0010
0000
1000
0001
0000
0010
0100
0000
0010
0000
0010
0001
0000
1000
0000
,  // measure 18
0010
0100
0000
0000
0001
0000
1000
0100
0000
0010
0000
0010
0100
0000
1000
0000
,  // measure 19
0010
0100
0000
0000
0001
0000
0010
0100
0000
0010
0000
0001
1000
0000
0001
0000
,  // measure 20
0000
0100
0010
0000
1000
0000
0001
0010
0000
0100
0000
0100
1000
0000
0001
0000
,  // measure 21
1000
0010
0000
0000
0100
0000
0001
1000
0000
0100
0000
0100
0010
0000
0001
0000
,  // measure 22
1000
0010
0000
0000
0100
0000
0001
1000
0000
0100
0000
0100
0010
0000
0001
0000
,  // measure 23
1000
0010
1000
0000
0001
0000
0010
0100
0010
0001
1000
0000
0020
0000
0000
0000
,  // measure 24
0130
0000
0001
0000
1000
0000
0100
0010
0000
0010
0000
0100
1000
0000
0001
0000
,  // measure 25
0100
0000
0100
0000
0010
1000
0000
0001
0000
0010
0000
0010
0100
0000
1000
0001
,  // measure 26
1000
0000
0010
0000
0100
0000
0001
1000
0000
1000
0000
0100
0010
0000
0001
0000
,  // measure 27
1000
0010
1000
0000
0001
0010
0001
0100
0000
0010
0000
0010
1000
0000
0001
0000
,  // measure 28
1000
0000
0100
0000
0010
0000
0001
0100
0000
0100
0000
0010
1000
0000
0001
0000
,  // measure 29
1000
0000
0010
0000
0100
0001
0000
0010
0000
0100
0000
0100
1000
0000
0001
0000
,  // measure 30
1000
0000
0100
0000
0010
0000
0001
0100
0000
0100
0000
0010
1000
0000
0001
0000
,  // measure 31
0010
0100
0010
0000
0001
1000
0000
0001
0000
0001
0100
0001
1000
0000
1000
0000
,  // measure 32
0100
0010
0001
0100
1000
0100
0001
1000
,  // measure 33
0100
0001
0100
1000
0010
0100
0010
1000
,  // measure 34
0001
0010
0100
0010
1000
0010
0001
1000
,  // measure 35
0010
0001
0010
1000
0001
0010
0100
1000
,  // measure 36
0001
1000
0100
0010
0100
0001
0100
1000
,  // measure 37
0001
0100
1000
0100
0001
1000
0100
0010
,  // measure 38
0001
0000
1000
0000
0010
0000
0010
0100
0000
0001
0000
0001
1000
0000
1000
0000
,  // measure 39
0001
0100
0001
0000
1000
0100
1000
0000
0001
0010
0001
0000
1000
0010
1000
0000
,  // measure 40
0001
0010
0100
1000
0001
0100
0010
0100
,  // measure 41
0001
1000
0100
0010
0001
1000
0010
0100
,  // measure 42
0010
1000
0001
0010
0100
1000
0001
0100
,  // measure 43
0001
1000
0100
0010
0001
0100
0010
1000
,  // measure 44
0001
0010
0001
0100
0010
1000
0100
1000
,  // measure 45
0001
0100
0010
1000
0001
0010
0100
0010
,  // measure 46
1000
0010
0001
0100
1000
0100
0001
1000
,  // measure 47
0100
0001
0100
1000
0010
0001
0010
1000
,  // measure 48
0002
0023
0230
2300
,  // measure 49
3002
0203
0320
2030
,  // measure 50
3002
0023
0230
0320
,  // measure 51
0032
2003
3020
0230
,  // measure 52
0302
2003
3200
0302
,  // measure 53
2003
3020
0032
2003
,  // measure 54
3020
0230
2300
3002
,  // measure 55
0023
0000
2030
0000
3001
0010
0100
1000
,  // measure 56
1002
0000
0003
0000
;

//---------------dance-single - XO, DS-, DT----------------
#NOTEDATA:;
#CHARTNAME:bwomp bwomp;
#CHARTSTYLE:;
#CREDIT:Scrypts;
#STEPSTYPE:dance-single;
#DESCRIPTION:XO, DS-, DT-;
#DIFFICULTY:Challenge;
#METER:14;
#METERF:14;
#RADARVALUES:0,0,0,0,0;
#NOTES:
// measure 0
0000
0000
0000
0000
,  // measure 1
0000
0000
0000
0000
,  // measure 2
0000
0000
0000
0000
,  // measure 3
0000
0000
0000
0000
0000
0000
0000
0000
0000
0000
0000
0000
0000
0000
1000
0010
,  // measure 4
0100
0001
0000
1000
0000
0000
0000
0100
0000
0100
0000
0010
0001
0000
1000
0000
,  // measure 5
0010
0100
0000
0001
0000
0000
0010
0000
0000
0010
0000
0100
1000
0000
0010
0000
,  // measure 6
0100
0001
0000
1000
0000
0000
0000
0100
0000
0100
0000
0010
0001
0000
1000
0000
,  // measure 7
0010
0100
0001
0100
0010
0000
1000
0000
0001
0010
0100
1000
0100
1000
0001
0100
,  // measure 8
0010
0000
1000
0001
0100
0010
0200
1000
0000
1000
0300
0100
0001
0000
0010
0000
,  // measure 9
0100
1000
0001
0010
0001
0100
0020
0000
0000
0001
0000
0031
0010
0000
1000
0100
,  // measure 10
1000
0000
0001
0100
0001
0010
0200
0001
0000
0001
0300
0100
1000
0000
0010
0000
,  // measure 11
0100
0001
0010
0001
1000
0000
0100
0020
0000
1000
0000
1030
0000
0010
0100
2000
,  // measure 12
0000
0000
3010
0100
0001
0010
0200
0001
0000
0001
0300
0100
1000
0000
0010
0000
,  // measure 13
0100
0001
1000
0001
0010
0100
0020
0000
0000
1000
0000
1030
0010
0000
0001
1000
,  // measure 14
0010
0000
0100
0001
1000
0010
0200
1000
0000
1000
0300
0100
0001
0000
0010
0000
,  // measure 15
0100
1000
0000
0100
0001
0000
0100
0010
0001
1000
0001
0100
0010
1000
0100
1000
,  // measure 16
0001
0000
0100
0010
1000
0000
0010
0100
0000
0001
0000
0001
1000
0000
0100
0000
,  // measure 17
0010
0100
1000
0001
0100
0001
1000
0100
0000
0010
0000
0010
0001
1000
0010
1000
,  // measure 18
0001
0010
0100
1000
0100
0010
0001
0100
0000
0010
0000
0010
1000
0000
0010
0000
,  // measure 19
0100
0001
1000
0100
0010
0000
0100
0001
0000
0100
0010
0001
0000
0000
1001
0000
,  // measure 20
0000
1000
0010
0100
0001
0100
0010
1000
0000
0100
0000
0100
0010
0000
0001
0000
,  // measure 21
1000
0010
0100
0001
0010
0001
1000
0010
0000
0100
0000
0100
0010
1000
0001
0010
,  // measure 22
0100
0010
0001
1000
0010
0100
0001
0100
0000
0010
0000
0010
1000
0000
0001
0000
,  // measure 23
1000
0010
0100
0010
1000
0000
0010
0001
0010
0100
0001
1000
0200
0000
0001
0000
,  // measure 24
1300
0000
0010
0000
1000
0001
0200
1000
0000
1000
0300
0100
0010
1000
0001
0000
,  // measure 25
0010
0000
0010
0000
0100
1000
0100
0020
0000
1000
0000
1030
0010
0001
0000
1000
,  // measure 26
0010
0000
0100
0000
0001
1000
0200
0001
0000
0001
0300
0100
1000
0010
0100
0000
,  // measure 27
0001
0000
0001
0000
1000
0001
0100
0020
0000
0001
0000
0031
0010
0100
0001
1000
,  // measure 28
0100
0000
0010
0000
0001
1000
0200
0001
0000
0001
0300
0100
0010
0001
1000
0000
,  // measure 29
0010
0000
0010
0000
0100
0001
0100
0020
0000
0001
0000
0031
0010
1000
0000
0001
,  // measure 30
0010
0000
0100
0000
1000
0001
0200
1000
0000
1000
0300
0100
0001
0010
0100
0000
,  // measure 31
1000
0001
0000
1000
0100
0000
0010
1000
0010
0100
1000
0001
0100
0000
0001
1000
,  // measure 32
0001
0010
0100
0000
1000
0010
0100
0001
1000
0000
0100
0010
0000
0001
0010
0100
,  // measure 33
1000
0000
0010
0000
0100
0010
1000
0001
0100
0000
0001
1000
0100
0010
0000
0001
,  // measure 34
0010
0100
1000
0000
0010
0100
0001
1000
0100
0000
0010
0001
0000
1000
0010
0100
,  // measure 35
0010
0000
1000
0001
0010
0100
1000
0001
0000
1000
0010
0100
0010
1000
0100
0010
,  // measure 36
0001
0000
1000
0001
0000
1000
0100
1000
0100
0000
0010
0100
0000
1000
0001
1000
,  // measure 37
0010
0000
0100
0001
1000
0000
0100
0010
0001
0000
1000
0010
0100
0010
1000
0001
,  // measure 38
0010
0000
0100
0000
1000
0001
1000
0010
0000
0100
0000
0100
0001
0000
0001
0000
,  // measure 39
0010
0100
0010
0100
1000
0001
1000
0001
0100
0010
0100
0010
1000
0100
0010
0001
,  // measure 40
1000
0000
0010
0000
0100
0001
0100
0010
0000
1000
0000
1000
0100
0000
0100
0000
,  // measure 41
0010
0001
0010
0001
1000
0010
0100
0001
1000
0100
0000
0100
0010
0000
0001
0100
,  // measure 42
0010
0000
1000
0000
0010
0100
0001
1000
0000
0100
0000
0100
0010
0000
0001
0000
,  // measure 43
1000
0010
0100
0010
1000
0001
0010
0001
1000
0100
0010
0100
1000
0000
0001
0000
,  // measure 44
0100
0000
0010
0000
1000
0000
0100
0010
0000
0001
0000
0001
1000
0000
1000
0000
,  // measure 45
0010
0100
0001
0100
0010
1000
0001
1000
0100
0010
0000
0010
0001
0000
1000
0000
,  // measure 46
0001
0100
0010
0100
1000
0100
0010
0100
0001
0010
0100
0010
1000
0010
0100
0010
,  // measure 47
0001
1000
0100
0010
0100
0001
0100
0010
0100
1000
0010
0100
0010
0001
0010
1000
,  // measure 48
0002
0000
0010
0000
0203
0000
0010
0000
0301
1000
0100
0000
0110
0000
0010
0001
,  // measure 49
2000
0000
0010
0000
3200
0000
0010
0000
1300
0010
0100
0000
0110
0000
0010
1000
,  // measure 50
0002
0000
0100
0000
0023
0000
0100
0000
0031
1000
0010
0000
0110
0000
0100
0001
,  // measure 51
2000
0000
0100
0000
3020
0000
0100
0000
1030
0100
0010
0000
0110
0000
0100
0010
,  // measure 52
0001
0000
0001
0000
1000
0000
0010
0100
0000
0001
0000
1000
0100
0000
0010
0000
,  // measure 53
0001
1000
0001
1000
0001
0000
0010
0100
0000
1000
0000
1000
0001
0000
0100
0000
,  // measure 54
0010
0000
1000
0000
0001
0000
1000
0100
0000
0100
0000
0010
0001
0000
1000
0000
,  // measure 55
0001
0100
0010
1000
0001
0010
0100
1000
0001
0100
0001
1000
0001
0010
0100
1000
,  // measure 56
0020
0000
0000
0030
;
