#TITLE:The Nerve!;
#SUBTITLE:;
#ARTIST:dj VERTICAI;
#TITLETRANSLIT:;
#SUBTITLETRANSLIT:;
#ARTISTTRANSLIT:;
#GENRE:;
#CREDIT:;
#BANNER:The Nerve!.png;
#BACKGROUND:The Nerve!-bg.png;
#LYRICSPATH:;
#CDTITLE:;
#MUSIC:The Nerve!.ogg;
#OFFSET:-0.015717;
#SAMPLESTART:20.575037;
#SAMPLELENGTH:15.000000;
#SELECTABLE:YES;
#BPMS:0.000000=105.000000
,130.000000=210.000000
,258.000000=105.000000
;
#STOPS:128.000000=1.142853
;
#BGCHANGES:;
#KEYSOUNDS:;
#ATTACKS:;

//---------------dance-single - ----------------
#NOTES:
     dance-single:
     :
     Beginner:
     3:
     0.130491,0.190914,0.033216,0.016608,0.004152,110.000000,106.000000,4.000000,2.000000,0.000000,0.000000,0.130491,0.190914,0.033216,0.016608,0.004152,110.000000,106.000000,4.000000,2.000000,0.000000,0.000000:
0000
0000
0000
0000
,
0000
0000
0000
0000
,
0000
0000
0000
0000
,
0000
0000
0000
0000
,
0000
0000
0000
0000
,
1000
0000
1000
0000
,
0001
0000
0001
0000
,
1000
0000
0001
0000
,
1001
0000
0000
0000
,
0000
0001
0000
0001
,
0000
0100
0000
0100
,
0000
0001
0000
0001
,
0000
1000
0000
1000
,
0000
0001
0000
0001
,
0000
0010
0000
0010
,
0000
0001
0000
0001
,
0001
0000
0000
0000
,
0000
1000
0000
1000
,
0000
0100
0000
0100
,
0000
1000
0000
1000
,
0000
0001
0000
0001
,
0000
1000
0000
1000
,
0000
0010
0000
0010
,
0000
1000
0000
1000
,
1000
0000
0001
0000
,
1000
0100
0100
0000
,
0100
0010
0010
0000
,
0010
0001
0001
0000
,
1000
0001
1000
0000
,
0001
0000
0001
0000
,
1000
0000
1000
0000
,
0001
0000
1000
0000
,
1001
0000
0000
0000
,
1000
0000
1000
0000
,
1000
0000
0000
0000
,
0001
0000
0001
0000
,
0001
0000
0000
0000
,
1000
0000
1000
0000
,
1000
0000
0000
0000
,
0001
0000
0001
0000
,
0001
0000
0000
0000
,
0010
0000
0010
0000
,
0010
0000
0000
0000
,
0100
0000
0100
0000
,
0100
0000
0000
0000
,
0010
0000
0010
0000
,
0010
0000
0001
0000
,
0000
0000
1000
0000
,
0000
0000
0001
0000
,
0100
0000
0001
0000
,
0000
0000
1000
0000
,
0010
0000
1000
0000
,
0000
0000
0001
0000
,
0010
0000
0001
0000
,
0000
0000
1000
0000
,
0100
0000
1000
0000
,
0000
0000
0001
0000
,
0001
0000
0100
0000
,
0000
0000
0010
0000
,
0010
0000
1000
0000
,
0000
0000
0100
0000
,
0100
0000
1000
0000
,
0000
0000
0001
0000
,
0001
0000
0010
0000
,
0000
0000
1001
0000
,
0000
0000
0000
0000
0000
0000
0000
0000
2002
0000
0000
3003
0000
0000
0000
0000
;

//---------------dance-single - ----------------
#NOTES:
     dance-single:
     :
     Easy:
     7:
     0.219463,0.381828,0.132864,0.083040,0.020760,185.000000,169.000000,16.000000,10.000000,0.000000,0.000000,0.219463,0.381828,0.132864,0.083040,0.020760,185.000000,169.000000,16.000000,10.000000,0.000000,0.000000:
0000
0000
0000
0000
,
0000
0000
0000
0000
,
0000
0000
0000
0000
,
0000
0000
0000
0000
,
0000
0000
0000
0000
,
1001
0001
0101
0100
,
1010
1000
1100
0100
,
0110
0000
0000
0010
0000
0000
0100
0000
0000
0100
0000
0000
1000
0000
0000
0000
,
2002
0000
0000
3003
,
0001
1000
1000
0100
,
1000
0001
1000
0010
,
1000
0001
0001
0100
,
0001
1000
0001
0010
,
0001
0100
0100
0010
,
0100
1000
0100
0001
,
1000
0100
0100
0010
,
2002
0000
0000
3003
,
1000
0100
1000
0010
,
0100
0010
0100
0001
,
0001
0100
0001
0010
,
0100
0010
0100
1000
,
0002
0003
1000
0010
,
0100
0001
0100
0010
,
1000
0100
0010
0001
,
0010
0100
2000
3000
,
0001
0001
0100
0000
,
1000
1000
0100
0000
,
0001
0100
0010
0000
,
1000
0100
0010
0000
,
1001
1000
1100
0100
,
0011
0001
0101
0100
,
0110
0000
0000
0010
0000
0000
0100
0000
0000
0100
0000
0000
0001
0000
0000
0000
,
1001
0000
0000
0001
,
0000
0001
0001
0000
,
0100
0000
0010
0000
,
1000
0000
0100
0000
,
0010
0000
0000
0001
,
0000
1000
1000
0000
,
0100
0000
0010
0000
,
0001
0000
0100
0000
,
0010
0000
0000
0100
,
0000
0010
0000
0100
,
0000
0010
0000
1000
,
0000
0001
0000
0001
,
0000
1000
0000
0100
,
0000
0010
0000
0100
,
0000
0010
0010
0000
,
0000
0110
0000
0000
,
1001
0000
0001
0000
,
0100
0000
1000
0000
,
0100
0000
0001
0000
,
0100
0000
0010
0000
,
0100
0000
0001
0000
,
0010
0000
1000
0000
,
0010
0000
0001
0000
,
0010
0000
0100
0000
,
1000
0000
0001
0000
,
0100
0000
0100
0000
,
0010
0000
0010
0000
,
1000
0000
1000
0000
,
0001
0000
0010
0000
,
0100
0000
0100
0000
,
1000
0000
0000
0000
0001
0000
0000
0001
,
0000
0000
1000
0000
0000
1000
0000
0000
,
1001
0000
0002
0203
,
2300
0000
0000
0000
3020
0000
0000
0000
0031
0000
0000
0001
0000
0000
0000
0000
;

//---------------dance-single - ----------------
#NOTES:
     dance-single:
     :
     Medium:
     11:
     0.361817,0.545469,0.215904,0.240816,0.078888,305.000000,279.000000,26.000000,29.000000,0.000000,0.000000,0.361817,0.545469,0.215904,0.240816,0.078888,305.000000,279.000000,26.000000,29.000000,0.000000,0.000000:
0000
0000
0000
0000
,
0000
0000
0000
0000
,
0000
0000
0000
0000
,
0000
0000
0000
0000
,
0000
0000
0000
0000
,
1000
0000
0000
1000
0100
0000
0010
0000
0001
0000
0000
0010
0000
0010
0000
0000
,
0001
0000
0000
0001
0100
0000
0010
0000
1000
0000
0000
0010
0000
0010
0000
0000
,
1000
0000
0000
1010
0000
0000
1001
0000
0000
0011
0000
0000
0001
0000
0010
0000
,
0220
0000
0000
0330
,
0100
1000
0001
0002
0000
0100
0000
1000
,
0000
0000
0010
0000
0000
0000
1000
0000
0000
0000
0103
0000
0000
0100
0001
0000
,
0100
0001
1000
2000
0000
0100
0000
0001
,
0000
0000
0010
0000
0000
0000
0001
0000
3000
0000
1100
0000
0000
1001
0000
0000
,
0101
0100
0001
0020
0000
0001
0000
0100
,
0000
0000
1000
0000
0000
0000
0100
0000
0000
0000
0031
0000
0000
0001
0010
0000
,
0010
0001
1000
0020
0000
0100
0000
0100
,
1030
1000
1000
0000
0001
0001
0002
0000
,
0103
0001
0010
0001
0000
1000
1000
1000
,
0000
0100
0100
0100
0000
0010
0010
0010
,
0100
1000
0010
1000
0000
0001
0001
0001
,
0000
0000
0100
0000
0100
0000
0100
0000
0000
0000
0010
0000
0000
0010
0000
0000
,
0100
0001
1000
0100
0000
0010
0010
0001
,
0000
1000
1000
0100
0000
0010
0010
0001
,
0010
0001
1000
0010
0000
0010
0010
1000
,
0000
0000
0001
0000
0001
0000
0100
0000
0000
0001
0000
1000
0000
0000
1001
0000
,
0001
0000
0001
0000
0001
0100
0010
0000
,
1000
0000
0000
0000
1000
0000
0000
0000
1000
0000
0010
0000
0010
0100
0000
0000
,
0001
0000
0001
0000
0001
0010
0100
0000
,
1000
0000
0000
0000
1000
0000
0000
0000
1000
0000
0100
0000
0100
0010
0000
0000
,
0011
0000
0001
0001
0101
0000
0100
0100
,
1100
0000
1000
1000
1010
0000
0010
0010
,
0011
0000
0000
0110
0000
0000
1100
0000
0000
0101
0000
0000
0010
0000
0010
0000
,
2002
0000
3003
1000
,
0100
0000
1000
0000
0001
0000
0001
0010
,
0002
0000
0003
0000
1000
0000
1000
0010
,
2000
3000
0001
0020
,
0230
1300
1000
0001
,
0100
0000
0001
0000
1000
0000
1000
0010
,
0200
0300
0001
0001
,
0100
0100
1000
1000
,
0020
0030
0001
0010
,
0100
0010
0001
1000
,
0100
0100
1000
0010
,
0100
0010
1000
0001
,
0100
0100
0001
0010
,
0100
0100
1000
0010
,
0100
0000
0100
0000
0001
0000
0000
0101
,
0000
0000
1001
0000
0000
1100
0000
0000
,
1000
0001
2000
0100
,
0100
3000
0002
0100
,
1000
0003
0002
0010
,
0010
0003
2000
0010
,
0001
3010
0020
0100
,
0100
0030
0200
0010
,
0301
0002
0023
0100
,
0100
0030
0200
0010
,
1300
2000
3000
0001
,
0010
0001
1000
0001
,
0100
0001
1000
0100
,
0200
1300
0001
0100
,
0200
0300
0001
0100
,
0010
0000
1000
0000
0100
0010
0100
0010
,
0200
0300
0000
0000
1000
0000
0000
1100
,
0000
0000
1001
0000
0000
0101
0000
0000
,
0100
0010
2001
0100
,
0001
0000
0000
0000
3010
0000
0000
0000
0101
0000
0000
1001
0000
0000
0000
0000
;

//---------------dance-single - ----------------
#NOTES:
     dance-single:
     :
     Hard:
     14:
     0.640594,0.790929,0.232512,0.166080,0.660167,540.000000,512.000000,28.000000,20.000000,0.000000,0.000000,0.640594,0.790929,0.232512,0.166080,0.660167,540.000000,512.000000,28.000000,20.000000,0.000000,0.000000:
// measure 0
0000
0000
0000
0000
,  // measure 1
0000
0000
0000
0000
,  // measure 2
0000
0000
0000
0000
,  // measure 3
0000
0000
0000
0000
,  // measure 4
0000
0000
0000
0000
,  // measure 5
1000
0000
0010
0100
0001
0000
0001
0000
1000
0000
0010
0100
0001
0000
0100
0010
,  // measure 6
1000
0000
0001
0010
0100
0000
0100
0000
1000
0000
0001
0010
0100
0010
0001
0010
,  // measure 7
0100
0000
0000
1100
0000
0000
1010
0000
0000
0011
0000
0010
0001
1000
0001
0000
,  // measure 8
1001
0000
0000
0000
0000
0000
0001
0001
0001
0000
0001
0000
0100
0010
0100
0010
,  // measure 9
1000
0000
1000
0001
0000
0000
1000
0100
0000
1000
0100
0010
0000
0100
0010
0001
,  // measure 10
0000
0010
0001
1000
0000
0001
1000
0100
0000
1000
0100
0010
0000
0100
0010
0001
,  // measure 11
1000
0000
0001
1000
0000
0000
1000
0010
0000
1000
0010
0100
0000
0010
0100
0001
,  // measure 12
0000
0100
0001
1000
0000
0001
1000
0010
0000
1000
0010
0100
0010
1000
0001
0000
,  // measure 13
0001
0000
0010
0010
0000
0000
0100
0100
0000
1000
0001
0100
0000
0001
1000
0010
,  // measure 14
0000
1000
0001
0010
0000
0001
1000
0100
0000
0010
0100
1000
0000
0010
0100
0001
,  // measure 15
0100
0000
0010
1000
0000
0000
0001
0010
0000
0001
0100
0001
0000
1000
0100
1000
,  // measure 16
0020
0000
0000
0000
0000
0000
0000
0000
0000
0100
0000
0100
0030
0100
0010
0100
,  // measure 17
0001
0000
0100
0001
0000
1000
0010
1000
0000
0001
0100
0001
0010
0001
0100
0001
,  // measure 18
0000
1000
0100
1000
0010
1000
0100
1000
0000
0001
0100
0010
1000
0010
0100
0001
,  // measure 19
1000
0000
0100
1000
0000
0001
0010
0001
0000
1000
0100
0010
0100
1000
0001
0010
,  // measure 20
0000
0001
0100
0010
0100
0001
1000
0010
0000
1000
0100
0010
0001
0010
0100
0000
,  // measure 21
0110
0000
0010
0010
0000
0010
0100
0010
0000
0010
0001
0010
0100
1000
0010
0100
,  // measure 22
0000
0010
1000
0010
0100
0001
0010
0100
0000
0010
0100
1000
0001
0001
0100
0010
,  // measure 23
0200
0000
0310
0010
0000
1000
0001
1000
0000
0001
1000
0100
0010
0001
0010
0100
,  // measure 24
0000
1000
0001
0100
0010
1000
0010
0100
0000
0001
0000
1000
0000
1000
0001
0100
,  // measure 25
0010
0000
0010
0000
0010
0000
0000
0000
0200
0010
0000
0001
0000
0000
0300
0000
,  // measure 26
0000
0001
0000
0010
0000
0010
0100
0000
0200
0010
0000
1000
0000
0000
0300
0000
,  // measure 27
0001
0000
1000
0010
0000
0010
0100
0000
0002
0100
0000
1000
0000
0000
0003
0000
,  // measure 28
1000
0000
0001
0010
0000
0100
0010
0100
2000
0100
0000
0001
0000
0000
3001
0000
,  // measure 29
1001
0000
1000
0001
0000
0001
0010
0000
0110
0000
0010
0100
0000
0100
0001
0000
,  // measure 30
1001
0000
0001
1000
0000
1000
0100
0000
0110
0000
0100
0010
0000
0010
1000
0001
,  // measure 31
1000
0100
0000
0100
0010
0000
0010
0001
0000
0001
0100
0000
0100
0010
0100
0000
,  // measure 32
2002
0000
0000
3003
1001
0000
1000
0100
,  // measure 33
0000
1000
0100
1000
0001
0010
0100
0010
,  // measure 34
0002
0000
1003
0001
1000
0010
0100
0010
,  // measure 35
2000
0000
3001
0001
1000
0100
0020
0000
,  // measure 36
0230
0000
1300
0100
0000
0000
1000
0001
,  // measure 37
0000
0001
0100
0001
1000
0010
0100
0001
,  // measure 38
2000
0000
3100
0100
0100
1000
0001
0000
,  // measure 39
0100
0001
1000
0000
0010
1000
0100
0010
,  // measure 40
0001
1000
0010
0000
0110
0000
0100
0010
,  // measure 41
0000
0010
0100
0010
1000
0010
0100
0010
,  // measure 42
0001
0010
0100
0001
0010
0001
0010
0100
,  // measure 43
0020
0000
1030
0010
0100
1000
0002
0000
,  // measure 44
2003
0000
3001
0010
0001
0000
1000
0100
,  // measure 45
0000
1000
0001
0100
0000
0100
0001
1000
,  // measure 46
0010
0000
0010
1000
0001
0001
0000
0010
,  // measure 47
0010
0000
0100
0100
0000
1000
1000
0000
,  // measure 48
0101
0000
1100
0000
0110
0000
0001
0010
,  // measure 49
0000
0010
0100
0010
0001
1000
0100
0010
,  // measure 50
0011
0000
0001
1000
0010
0100
0001
1000
,  // measure 51
1010
0000
0010
1000
0100
0010
0011
0000
,  // measure 52
1010
0000
0010
0010
0100
0000
0001
0100
,  // measure 53
0000
0100
0001
0010
0100
1000
0010
0100
,  // measure 54
0101
0000
0001
1000
0100
0010
0001
1000
,  // measure 55
1100
0000
0100
1000
0001
0100
0101
0000
,  // measure 56
1100
1000
1000
0000
1001
0000
0001
0010
,  // measure 57
0000
0001
1000
0010
0100
0001
0100
0010
,  // measure 58
0100
1000
0100
0001
1000
0100
0010
0100
,  // measure 59
0002
0000
0103
0010
0100
1000
0001
0100
,  // measure 60
2000
0000
3100
0100
0010
0000
1000
0010
,  // measure 61
0000
0010
1000
1000
0001
0001
0010
0100
,  // measure 62
2000
0001
0000
3001
1000
0100
0000
0100
,  // measure 63
0001
0000
0001
0010
0000
0010
1000
0000
,  // measure 64
1000
0000
0001
0000
0011
0000
0000
0000
0120
0000
1000
1000
1000
0000
0100
0100
,  // measure 65
0100
0000
0001
0001
0031
0010
0000
0000
1100
0000
0000
1001
0000
0000
0000
0000
;
