#TITLE:The Biggest Dreamer;
#SUBTITLE:;
#ARTIST:和田 光司;
#TITLETRANSLIT:;
#SUBTITLETRANSLIT:;
#ARTISTTRANSLIT:Koji Wada;
#GENRE:DIGIROCK;
#CREDIT:;
#MUSIC:The Biggest Dreamer.ogg;
#BANNER:The Biggest Dreamer.png;
#BACKGROUND:The Biggest Dreamer-bg.png;
#CDTITLE:cdtitle.png;
#SAMPLESTART:55.089;
#SAMPLELENGTH:9.995;
#SELECTABLE:YES;
#OFFSET:-0.263;
#BPMS:0.000=100.750
,12.000=96.750
,14.000=98.750
,20.000=75.000
,21.000=90.000
,22.000=105.000
,23.000=133.955
;
#STOPS:;
#DISPLAYBPM:100.000:134.000;
#BGCHANGES:-0.750=The Biggest Dreamer.avi=1.000=1=0=0=StretchNoLoop==CrossFade==;
#FGCHANGES:;

//--------------- dance-single - KAYSTAR ----------------
#NOTES:
     dance-single:
     KAYSTAR:
     Beginner:
     1:
     0,0,0,0,0:
0000
0000
0000
0000
,
0000
0000
0000
0000
,
0000
0000
0000
0000
,
0000
0000
0000
0000
,
0000
0000
0000
0000
,
0000
0000
0000
1000
,
0000
0000
0000
1000
,
0000
0000
0000
0001
,
0000
0000
0000
0001
,
0000
0000
0000
0010
,
0000
0010
0000
0020
,
0000
0030
0000
0010
,
0000
0000
0000
0001
,
0000
0000
0000
1000
,
0000
0000
0000
0000
,
0000
0000
0000
0010
,
0000
0000
0000
1000
,
0000
0000
0000
0001
,
0000
0000
0000
0000
,
0000
0000
0000
1000
,
0000
0000
0000
0100
,
0000
0000
0000
0010
,
0000
0000
0000
0000
,
0000
0000
0000
0001
,
0000
0000
0000
0100
,
0000
0000
0000
0010
,
0000
0000
0000
0020
,
0000
0000
0000
0030
,
0000
0000
0000
1000
,
0000
0000
0000
1000
,
0000
0000
0000
0010
,
0000
0000
0000
0100
,
0000
0000
0000
0001
,
0000
0000
0000
0001
,
0000
0000
0000
0010
,
0000
0010
0000
0020
,
0000
0030
0000
0000
,
0000
0000
0000
0000
,
0000
0000
0000
0000
,
0000
0000
0000
0000
,
0000
0000
0000
0002
,
0000
0000
0000
0003
,
0000
0000
0000
2000
,
0000
0000
0000
3000
,
0000
0000
0000
0001
,
0000
0000
0000
0100
,
0000
0000
0000
0010
,
0000
0010
0000
0010
,
0000
0000
0000
1000
,
0000
0000
0000
0100
,
0000
0000
0000
0010
,
0000
0010
0000
0010
,
0000
0000
0000
0001
,
0000
0000
0000
0001
,
0000
0000
0000
0100
,
0000
0000
0000
0010
,
0000
0000
0000
1000
,
0000
0000
0000
1000
,
0000
0000
0000
0100
,
0000
0100
0000
0200
,
0000
0300
0000
0100
,
0000
0000
0000
1000
,
0000
1000
0000
1000
,
0000
0000
0000
0001
,
0000
0001
0000
0001
,
0000
0000
0000
0200
,
0000
0000
0000
0310
;

//--------------- dance-single - KAYSTAR ----------------
#NOTES:
     dance-single:
     KAYSTAR:
     Easy:
     5:
     0,0,0,0,0:
0000
0000
0000
0000
,
0000
0000
0000
0000
,
0000
0000
0000
0000
,
1000
0000
0001
0000
,
0100
0010
2000
0000
,
3000
0000
0000
0001
,
0001
0100
0000
0010
,
1000
0001
0000
1000
,
1000
0100
0000
0010
,
0001
1000
0000
0020
,
0030
0200
0300
2002
,
0000
3003
0000
0001
,
0000
0001
0000
1000
,
0100
0010
0000
0001
,
0000
0001
0000
0100
,
0010
1000
0000
0100
,
0000
0100
0000
1000
,
0001
0100
0000
0010
,
0000
0010
0000
1000
,
0001
0010
0000
0002
,
0000
0003
0000
2000
,
0000
3000
0000
0001
,
1000
0100
0010
0001
,
0000
0000
0000
0200
,
0000
0300
0000
0020
,
0000
0030
0000
1000
,
0001
0010
0100
2000
,
0000
0000
0000
3000
,
0000
0000
0000
0001
,
0001
0100
0000
0010
,
1000
0001
0000
1000
,
1000
0100
0000
1000
,
0010
0100
0000
0001
,
0001
0010
0000
0001
,
0100
0010
0000
1000
,
0000
1001
0000
0001
,
0010
0100
1000
0020
,
0000
0000
0000
0030
,
0000
0000
0000
2002
,
0000
0000
0000
0000
,
0000
3003
0000
1000
,
0000
0100
0000
0010
,
0000
0001
0001
1000
,
0000
0010
0000
0100
,
0000
0001
1000
2000
,
0000
3000
0000
0002
,
0000
0003
0000
1000
,
0001
0100
0010
1000
,
0100
0010
0001
0200
,
0000
0300
0000
0020
,
0000
0030
0000
1000
,
0010
0100
0001
0010
,
0010
0010
0000
0001
,
0001
1000
0000
0010
,
0100
0001
0000
0010
,
0010
0100
0000
1000
,
0001
0100
0000
0010
,
0010
0100
0000
0001
,
0010
0100
0000
1000
,
1000
0001
0001
0100
,
0010
1000
0001
2002
,
0000
3003
0000
1000
,
0100
0010
0000
0001
,
0001
0100
0000
0010
,
1000
0001
0000
0020
,
0030
0200
0300
1000
,
0001
0100
0100
0220
,
0330
0000
0000
0000
;

//--------------- dance-single - KAYSTAR ----------------
#NOTES:
     dance-single:
     KAYSTAR:
     Medium:
     9:
     0,0,0,0,0:
0000
0000
0000
0000
,
0000
0000
0000
0000
,
0000
0000
0000
0000
,
2000
3000
0002
0003
,
1000
0100
0020
0000
,
0030
0000
0000
0001
,
1001
0000
1000
0001
0010
0000
0001
0000
,
1000
0010
0100
0001
,
1001
0000
1000
0001
0100
0000
0010
0000
,
1000
0000
0000
0000
0100
0000
0000
0000
0010
0000
0000
0000
0001
0000
0000
0001
,
0000
0000
0000
0000
1000
0000
0000
1000
0000
0000
0000
0000
0020
0000
0000
0000
,
0000
0130
0000
0010
,
0100
0000
0001
0000
1000
0100
0010
0000
,
0001
0001
0000
0100
,
0010
0000
1000
0000
0001
0010
0100
0000
,
1000
0000
1000
0000
0000
0000
0001
0100
,
0010
0000
1000
0000
1000
0000
0100
0010
,
0001
0000
0001
0000
0000
0000
0010
0100
,
1000
0000
1000
0000
0010
0100
0001
0000
,
0001
0000
0000
2000
,
0000
3010
1000
0002
,
0000
0103
0000
0001
,
0010
0100
1000
0002
,
0000
0003
0000
0200
,
0000
0310
1000
0200
,
0000
0310
0001
0200
,
0000
0010
0310
2002
,
0000
0000
0000
3003
,
0000
0000
0000
0000
0000
0000
1000
0100
,
0010
0000
0001
0100
0010
0000
1000
0000
,
0001
1001
0000
1000
,
0001
0100
0001
0000
1000
0000
0001
0000
,
1000
0010
1000
0000
0001
0000
1000
0100
,
0010
0000
0001
0100
0010
0000
1000
0000
,
0001
0000
0000
0000
1001
0000
0000
0000
0000
0000
0000
0000
1000
0000
0000
1000
,
0000
0000
0000
0000
0001
0000
0000
0001
0000
0000
0000
0000
0100
0000
0000
0000
,
0010
0110
0000
2000
,
0000
0001
3001
0002
,
0000
1000
1003
0220
,
0000
0000
0000
0330
,
0000
0000
0000
0000
0001
0000
0000
0001
0000
0000
1000
0000
0000
0000
0000
0000
,
0020
1000
0130
0000
,
0200
0001
0310
0000
,
2000
0010
3001
0000
,
0002
0010
1003
0001
,
0100
0010
1000
0000
1001
0000
0001
0000
,
0010
0100
1000
0000
1001
0000
0001
0000
,
0100
0010
1000
0100
,
0001
0100
1000
1000
,
0010
0100
0001
0000
1001
0000
1000
0000
,
0100
0010
0001
0000
1001
0000
1000
0000
,
0010
0000
0100
0000
0001
0000
0010
0100
,
1000
0000
1001
0000
0000
0000
0001
0100
,
0010
0000
1000
0100
0010
0000
0002
0000
,
0100
1003
1001
0001
,
0100
0010
0100
0000
1000
0000
0100
0000
,
0010
0100
0010
0000
1000
0000
0001
0010
,
0100
0000
1000
0010
0100
0000
0002
0000
,
0010
0000
1003
0000
0000
0000
0001
0100
,
0010
0000
1000
0100
0010
0000
0100
0010
,
0100
0010
0001
0000
0100
0010
1000
0000
,
1001
0000
0001
1000
0010
0000
0100
0000
,
0001
0010
0100
1000
,
1001
0000
0001
1000
0100
0000
0010
0000
,
0001
0000
0000
0000
0100
0000
0000
0000
0010
0000
0000
0000
1000
0000
0000
1000
,
0000
0000
0000
0000
0001
0000
0000
0001
0000
0000
0000
0000
0100
0000
0000
0000
,
0010
0000
1000
0000
0001
0000
0010
0000
0000
0100
0000
0000
2000
0000
0000
0000
,
3000
0000
0000
0000
;

//--------------- dance-single - KAYSTAR ----------------
#NOTES:
     dance-single:
     KAYSTAR:
     Hard:
     13:
     0,0,0,0,0:
0000
0000
0000
0000
,
0000
0000
0000
0000
,
0000
0000
0000
0000
,
1000
0000
0100
1000
0000
0000
0000
0000
0001
0000
0100
0001
0000
0000
0000
0000
,
0010
0000
0010
0000
0001
1000
0000
2002
0000
0000
0000
0000
0000
0000
0000
0000
,
3003
0000
0000
1002
,
1003
0000
0000
0001
0100
0000
0101
0000
1001
0000
0000
0000
1000
0200
0000
0010
,
0000
1300
0000
0001
0000
0000
0020
0000
0100
0000
0031
0000
2000
0000
0000
0000
,
3001
0000
0000
1000
0100
0000
1100
0000
1001
0000
0000
0000
0001
0200
0000
0010
,
0000
0301
0000
1000
0000
0000
0020
0000
0100
0000
1030
0000
0001
0000
0001
0100
,
0000
0000
0010
0000
1000
0100
1000
0100
0000
0000
0010
0000
0002
0000
0000
0000
,
1003
0000
0000
0000
0000
0000
0000
0000
0000
0000
0000
0000
0001
0000
0000
0000
0100
0000
0000
0000
0001
0000
0000
0000
1001
0000
0000
0000
0000
0000
0000
0000
0000
0000
0000
0000
1000
0000
0000
0000
0000
0000
0000
0000
0000
1000
0000
0000
,
0010
0000
0100
0000
0001
0000
0000
0001
0010
0000
0100
0000
1000
0000
0001
0100
,
0000
0001
0200
0000
0000
0000
0310
0000
0100
0000
0001
0000
1000
0000
0000
1000
,
0100
0000
0010
0000
0001
0000
0000
0001
0100
0000
0010
0000
1000
0000
0001
0010
,
0000
0001
0020
0000
0000
0000
0130
0000
0110
0000
0000
0000
0001
0000
0001
1000
,
0000
0000
0100
0000
1000
0000
0010
0000
0100
0000
0001
0000
0010
0000
0001
1000
,
0000
0001
2000
0000
0000
0000
3001
0000
1000
0000
0010
0000
0100
0000
0100
0010
,
0000
0000
0100
0000
0001
0000
1000
0000
0100
0000
0010
0000
0002
0000
0000
0100
,
0000
0000
1003
0000
0001
0000
0010
0100
1000
0000
0001
0000
2001
0000
0000
0000
,
3010
0000
1000
0000
0001
0100
0000
0100
0010
0000
1000
0000
0002
0000
0010
0000
,
0013
0000
0001
0000
1000
0010
0000
0010
0100
0000
0000
0000
0001
0000
0000
0001
,
0010
0000
0000
0010
0100
0000
0000
0100
2000
0000
0010
0000
3001
0000
0000
2002
,
0000
0000
0000
3003
0000
0000
1000
0000
0010
0000
0100
0010
0200
0000
0001
0000
,
0310
0000
1000
0000
0100
0010
0000
0010
0001
0000
1000
0000
0020
0000
0100
0000
,
1030
0000
0001
0000
0010
0100
0000
0100
1000
0000
0010
0000
0210
0000
0000
0000
,
0301
0100
0010
1000
0100
0010
0220
0000
,
0000
0000
0000
0000
0000
0000
0000
0000
0330
0000
0000
0000
0100
1000
0100
1000
,
0000
0001
0000
0100
0001
0000
0000
0000
0000
0000
0000
0000
2000
0000
0010
0000
,
3001
1000
0000
0100
2000
0000
0010
0000
3001
0000
1000
0000
0100
0000
0010
0000
,
0001
0100
0000
0100
0010
0000
1000
0001
1000
0000
0000
0000
0020
0000
1000
0000
,
0130
0001
0000
0001
1000
0000
0100
0000
0010
0000
0001
0000
0200
0000
0010
0000
,
0301
1000
0000
0100
0000
0100
1000
0000
0010
0000
0100
0000
0002
0000
0010
0000
,
1003
0001
0000
0100
0002
0000
0010
0000
1003
0000
0001
0000
0010
0000
0100
0000
,
1000
0010
0000
0010
0100
0000
0001
1000
0001
0000
0000
0000
1001
0000
1000
0100
,
0000
0000
0010
0000
0001
0000
0001
0100
0000
0000
0010
0000
1000
0000
0001
0000
,
0010
0001
0000
0100
0000
0100
0010
0000
1000
0000
0001
1000
0002
0000
0000
0000
,
0103
0000
0000
0000
0002
0000
0000
0010
0000
0000
1003
0000
2000
0000
0000
0000
,
3100
0000
0000
0000
2000
0000
0000
0010
0000
0000
3001
0000
2002
0000
0000
0000
,
0000
0000
0000
0000
,
3003
0000
0000
0000
1010
0000
0000
0101
0000
0000
1001
0000
0000
0000
0001
0000
,
1000
0000
0010
0000
0200
0000
0000
1000
0000
0000
0310
0000
0000
0000
1000
0000
,
0100
0000
0010
0000
0002
0000
0000
0100
0000
0000
1003
0000
0000
0000
1000
0000
,
0001
0000
0010
0000
0200
0000
0000
0001
0000
0000
0310
0000
0000
0000
0001
0000
,
1000
0000
0010
0100
0001
0000
0000
0011
0000
0000
1100
0000
1000
0000
0001
0000
,
0100
1000
0100
0010
2000
0000
3001
1000
,
0100
0000
0001
0000
0100
0000
0010
0000
0002
0000
0000
0000
1003
0000
0000
0001
,
0100
0000
0010
0000
1000
0100
0000
0100
0010
0000
0001
0000
1000
0010
0000
0010
,
0100
0000
0001
0000
0010
0100
0000
0100
1000
0000
0001
1000
0001
0000
0100
0000
,
2000
0000
0000
0000
3100
0000
0010
0000
1000
0001
1000
0000
0001
0000
0100
0000
,
0001
0000
0010
0000
2000
0000
0000
0000
3010
0000
0100
0000
1000
0000
0000
1000
,
0100
0000
0010
0000
0001
0100
0000
0100
0010
0000
1000
0000
0100
0010
0000
0010
,
0001
0100
0220
0000
0330
0000
0200
1000
,
0310
1000
0000
0001
0200
0000
1000
0000
0310
0000
0100
0000
0001
0000
1000
0000
,
0100
0010
0000
0010
0001
0000
0100
0010
0100
0000
0000
0000
0002
0000
0010
0000
,
1003
0100
0000
0001
0000
0001
0100
0000
0010
0000
0001
0000
2000
0000
0010
0000
,
3001
0100
0000
1000
0000
0100
0010
0000
1000
0000
0001
0000
0020
0000
1000
0000
,
0130
1000
0000
0001
0020
0000
1000
0000
0130
0000
1000
0000
0002
0000
0100
0000
,
1003
0000
0010
0001
0000
0000
0010
0100
0010
0000
0000
0000
1000
0000
0010
1000
,
0000
1000
0100
0000
0110
0000
0010
0001
0000
0001
0100
0000
0010
0000
1000
0000
,
0100
0001
0000
0100
0000
0100
0010
0000
0001
0000
1000
0001
2000
0000
0000
0000
,
3001
0000
0000
1000
0010
0000
1010
0000
1001
0000
0000
0000
0001
0020
0000
0100
,
0000
0031
0000
1000
0000
0010
0200
0000
1000
0000
0310
0000
2000
0000
0000
0000
,
3001
0000
0000
1000
0001
0000
0011
0000
1001
0000
0000
0000
0001
0200
0000
0010
,
0000
0301
0000
1000
0000
0100
0020
0000
1000
0000
0130
0000
0010
0000
0001
0100
,
0000
0100
0010
0000
1000
0100
1000
0100
0000
0010
0001
0000
1001
0000
0000
0000
,
1000
0001
0100
0010
0100
0000
1000
0000
0100
0010
0000
0000
2002
0000
0000
0000
,
3003
0000
0000
0000
;

//--------------- dance-double - KAYSTAR ----------------
#NOTES:
     dance-double:
     KAYSTAR:
     Easy:
     5:
     0,0,0,0,0:
00000000
00000000
00000000
00000000
,
00000000
00000000
00000000
00000000
,
00000000
00000000
00000000
00000000
,
00010000
00000000
00001000
00000000
,
00010000
00000000
00002000
00000000
,
00003000
00000000
00000000
00010000
,
00000000
00000010
00000000
00001000
,
00001000
00001000
00000000
00000100
,
00000000
00000010
00000000
00000001
,
00000001
00000001
00000000
00000200
,
00000300
00002000
00003000
00022000
,
00000000
00033000
00000000
00010000
,
00000000
00001000
00000000
02000000
,
00000000
03000000
00000000
00010000
,
00000000
10000000
00000000
02000000
,
00000000
03000000
00000000
00100000
,
00000000
00001000
00000000
00020000
,
00000000
00030000
00000000
00000010
,
00000000
00010000
00000000
00002000
,
00000000
00003000
00000000
00010000
,
00000000
00000010
00000010
00001000
,
00000000
00000001
00000001
00000010
,
00000000
00001000
00000000
00020000
,
00000000
00030000
00000000
00001000
,
00000000
00100000
00100000
00010000
,
00000000
10000000
10000000
00100000
,
00000000
00010000
00000000
00002000
,
00000000
00000000
00000000
00013000
,
00000000
00000000
00000000
00001000
,
00000000
01000000
00000000
00010000
,
00000000
10000000
00000000
01000000
,
01000000
00010000
00000000
00001000
,
00010000
00001000
00000000
00010000
,
00000000
00000010
00000000
00001000
,
00000000
00000001
00000000
00000020
,
00000030
00002000
00003000
00010000
,
00010000
00001000
00000000
00200000
,
00000000
00000000
00000000
00300000
,
00000000
00000000
00000000
00022000
,
00000000
00000000
00000000
00033000
,
00000000
00000000
00000000
00000020
,
00000000
00000000
00000030
00002000
,
00000000
00000000
00003000
00000002
,
00000000
00000000
00000000
00000003
,
00000000
00000000
00000000
00000001
,
00000001
00000100
00000000
00000010
,
00000010
00001000
00000000
00000001
,
00000000
00000010
00000000
00001000
,
00000000
00010000
00000000
01000000
,
01000000
10000000
00000000
00010000
,
00010000
01000000
00000000
00100000
,
00000000
00010000
00000000
00000010
,
00000010
00002000
00003000
00000001
,
00000000
00000010
00000000
00001000
,
00000000
00010000
00000000
00000100
,
00000100
00010000
00000000
00001000
,
00001000
01000000
00000000
00001000
,
00000000
00010000
00000000
00100000
,
00000000
10000000
00000000
00010000
,
00010000
00100000
00000000
01000000
,
01000000
10000000
00000000
00010000
,
00010000
00010000
00000000
01000000
,
00001000
00010000
00000000
00001000
,
00001000
00001000
00000000
00010000
,
00000010
00001000
00000000
00000002
,
00000003
00000020
00000030
00002000
,
00003000
00000000
00000000
00022000
,
00033000
00000000
00000000
00000000
;

//--------------- dance-double - KAYSTAR ----------------
#NOTES:
     dance-double:
     KAYSTAR:
     Medium:
     9:
     0,0,0,0,0:
00000000
00000000
00000000
00000000
,
00000000
00000000
00000000
00000000
,
00000000
00000000
00000000
00000000
,
20000000
00000000
00000000
00000000
00000000
00000000
00000000
00000000
00000000
00000000
00000000
00000000
30000000
00000000
00000000
00000000
00000000
00000000
00000000
00000000
00000000
00000000
00000000
00000000
00020000
00000000
00000000
00000000
00000000
00000000
00000000
00000000
00000000
00000000
00000000
00000000
00000000
00030000
00000000
00000000
00000000
00000000
00000000
00000000
00000000
00000000
00000000
00000000
,
00100000
00001000
00022000
00000000
,
00033000
00000000
00000000
00010000
,
00011000
00000000
00001000
00010000
00000010
00000000
00001000
00000000
,
00000001
00000100
00001000
00010000
,
00011000
00000000
00001000
00100000
00010000
00000000
10000000
00000000
,
01000000
00000000
00000000
00000000
00010000
00000000
00000000
00000000
00001000
00000000
00000000
00000000
00100000
00000000
00000000
00100000
,
00000000
00000000
00000000
00000000
00001000
00000000
00000000
00001000
00000000
00000000
00010000
00000000
00000020
00000000
00000000
00000000
,
00000000
00000030
00000000
00001000
,
00000001
00000010
00000001
00001000
,
00000100
00010000
00000000
00001000
,
01000000
00010000
10000000
00100000
,
10000000
00000000
00010000
00000000
00000000
00000000
10000000
01000000
,
00100000
00010000
01000000
00001000
,
00010000
00000000
00000010
00000000
00000000
00000000
00001000
00000100
,
00000010
00000001
00000100
00000020
,
00000000
00000030
00000000
00000010
,
00010000
00001000
01000000
00010000
,
00100000
00001000
00010000
00000200
,
00000000
00010000
00010300
00022000
,
00000000
00033000
00000000
01000000
,
00001000
00010000
00000010
00001000
,
00000100
00010000
00001000
00200000
,
00000000
01000000
01300000
20020000
,
00000000
00000000
00000000
30030000
,
00000000
00000000
00000000
00000000
00000000
00000000
10000000
00100000
,
01000000
00000000
00010000
00000000
00100000
00000000
00001000
00010000
,
00001000
00011000
00000000
00010000
,
00000010
00001000
00000001
00000010
,
00000100
00000000
00001000
00000000
00000000
00000000
00000001
00000100
,
00000010
00000000
00001000
00000000
00000100
00000000
00010000
00001000
,
00010000
00000000
00000000
00000000
00011000
00000000
00000000
00000000
00000000
00000000
00000000
00000000
00001000
00000000
00000000
00001000
,
00000000
00000000
00000000
00000000
00010000
00000000
00000000
00010000
00000000
00000000
00000000
00000000
00100000
00000000
00000000
00000000
,
10000000
00000000
00010000
01000000
00010000
00000000
00200000
00000000
,
00000000
00000000
00000000
00000000
,
00000000
00300000
00000000
00022000
,
00000000
00000000
00000000
00000000
,
00033000
00000000
00000000
00000010
,
00001000
00000001
00000100
00000000
,
00001000
00010000
00000000
01000000
,
10000000
00010000
00100000
00000000
,
00001000
00020000
00000000
00031000
,
00100000
00000000
00010000
10000000
00010000
00000000
01000000
00000000
,
00001000
00000000
00000000
00000000
00010000
00000000
00001000
00000000
00010000
00000000
00000000
00000000
00000010
00000000
00000000
00000010
,
00000000
00000000
00000000
00000000
00001000
00000000
00000000
00001000
00000000
00000000
00000000
00000000
00000100
00000000
00000000
00000100
,
00000000
00000000
00000000
00000000
00010000
00000000
00000000
00010000
00000000
00000000
00001000
00000000
00010000
00000000
00000000
00000000
,
00000010
00000000
00001000
00000001
00001000
00000000
00000100
00000000
,
00010000
00000000
00000000
00000000
00001000
00000000
00010000
00000000
00001000
00000000
00000000
00000000
00100000
00000000
00000000
00100000
,
00000000
00000000
00000000
00000000
00010000
00000000
00000000
00010000
00000000
00000000
00000000
00000000
01000000
00000000
00000000
01000000
,
00000000
00010000
20000000
00000000
30000000
00000000
10000000
00100000
,
01000000
00000000
00010000
10000000
00010000
00000000
00100000
00001000
,
00010000
00001000
00011000
00010000
,
00000010
00001000
00000010
00000000
00000100
00000000
00000001
00000000
,
00000010
00000100
00001000
00000000
00001001
00000000
00000001
00000100
,
00000010
00000000
00001000
00000001
00001000
00000000
00000100
00010000
,
00001000
00000000
00020000
00000000
00031000
00000000
01000000
00010000
,
10000000
00000000
01000000
10000000
00010000
00000000
00100000
00000000
,
01000000
00010000
00001000
00022000
,
00033000
00000000
00010000
00000010
00001000
00000000
00000001
00000010
,
00000100
00000000
00001000
00000010
00000100
00000000
00002000
00000000
,
00013000
00000000
00001000
00100000
00010000
00000000
10000000
01000000
,
00100000
00000000
00000000
00000000
00010000
00000000
01000000
00000000
00100000
00000000
00000000
00000000
10000000
00000000
00000000
10000000
,
00000000
00000000
00000000
00000000
00010000
00000000
00000000
00010000
00000000
00000000
00000000
00000000
00100000
00000000
00000000
00000000
,
00001000
00000000
00000000
00000000
00010000
00000000
00000010
00000000
00000000
00000010
00000000
00000000
00002002
00000000
00000000
00000000
,
00003003
00000000
00000000
00000000
;

//--------------- dance-double - KAYSTAR ----------------
#NOTES:
     dance-double:
     KAYSTAR:
     Hard:
     14:
     0,0,0,0,0:
00000000
00000000
00000000
00000000
,
00000000
00000000
00000000
00000000
,
00000000
00000000
00000000
00000000
,
00010000
00000000
00000100
00010000
00000000
00000000
00000000
00000000
00001000
00000000
01000000
00001000
00000000
00000000
00000000
00000000
,
00010000
00000000
00100000
00000000
10000000
00010000
00000000
20020000
00000000
00000000
00000000
00000000
00000000
00000000
00000000
00000000
,
30030000
00000000
00000000
20010000
,
31000000
00000000
00000000
10000000
00010000
00000000
00100000
00000000
00101000
00000000
00000000
00000000
00001000
00000000
00010000
00000000
,
01000000
10000000
00100000
00010000
00001000
00000010
00000002
00000000
,
00000103
00000000
00000000
00000001
00001000
00000000
00000010
00000000
00010010
00000000
00000000
00000000
00010000
00000000
00001000
00000000
,
00000100
00000000
00000001
00000000
00000010
00000000
00001000
00000000
00010000
00000000
00100000
00000000
10000000
00000000
00000000
10010000
,
00000000
00000000
00000000
00000000
00001000
00000000
00000000
00101000
00000000
00000000
00000000
00000000
00020020
00000000
00000000
00000000
,
00030030
00000000
00000000
00000000
00000000
00000000
00000000
00000000
00000000
00000000
00000000
00000000
00010000
00000000
00000000
00000000
00001000
00000000
00000000
00000000
00000100
00000000
00000000
00000000
00000010
00000000
00000000
00000000
00000000
00000000
00000000
00000000
00000000
00000000
00000000
00000000
00001000
00000000
00000000
00000000
00000000
00000000
00000000
00000000
00000000
00001000
00000000
00000000
,
00000100
00000000
00000010
00000000
00000001
00000000
00000000
00000001
00000100
00000000
00000010
00000000
00001000
00000000
00000000
00000100
,
00000000
00000100
00010000
00000000
00000000
00000000
00000000
00000000
00011000
00000000
00000000
00000000
00001000
00000000
00000000
00001000
,
01000000
00000000
00010000
00000000
00100000
00000000
00000000
00100000
00001000
00000000
00010000
00000000
01000000
00000000
00000000
10000000
,
00000000
10000000
00010000
00000000
00000000
00000000
10000000
00000000
10010000
00000000
00000000
00000000
00010000
00000000
00000000
00010000
,
00100000
00000000
01000000
00000000
10000000
00000000
00000000
10000000
00100000
00000000
01000000
00000000
00010000
00000000
00000000
00100000
,
00000000
00100000
00001000
00000000
00000000
00000000
00000000
00000000
00011000
00000000
00000000
00000000
00010000
00000000
00000000
00010000
,
00000100
00000000
00001000
00000000
00000010
00000000
00000000
00000010
00010000
00000000
00001000
00000000
00000200
00000000
00000000
00000301
,
00000000
00000000
00001000
00000100
00000010
00000001
00002000
00000000
,
00003001
00000000
00001000
00000000
00000010
00010000
00000000
00001000
01000000
00000000
00000000
00000000
00020000
00000000
10000000
00000000
,
10030000
00000000
00010000
00000000
00100000
00001000
00000000
00010000
00000100
00000000
00000000
00000000
00001000
00000000
00000000
00001000
,
00000001
00000000
00000000
00000001
00000100
00000000
00000000
00000100
00001000
00000000
00010000
00000000
00011000
00000000
00000000
00022000
,
00000000
00033000
00000000
00001000
00011000
00000000
00200000
00001000
,
00310000
00000000
10000000
00000000
01000000
00010000
00000000
00001000
00100000
00000000
00000000
00000000
00000020
00000000
00010000
00000000
,
00001030
00000000
00000001
00000000
00000100
00001000
00000000
00010000
00000010
00000000
00001000
00000000
00200000
00000000
00000000
00000000
,
10300000
01000000
00010000
00001000
00000100
00000001
00000020
00000000
,
00000000
00000000
00000000
00000000
00000000
00000000
00000000
00000000
00000130
00000000
00000000
00000000
00001000
00000100
00001000
00000100
,
00000000
00010000
00000000
00001000
01000000
00000000
00000000
00000000
00000000
00000000
00000000
00000000
00020000
00000000
10000000
00000000
,
00130000
00001000
00000000
01000000
00020000
00000000
10000000
00000000
00130000
00000000
00001000
00000000
01000000
00000000
00010000
00000000
,
00001000
00000010
00000000
00000010
00000000
00000000
00001000
00000001
00001000
00000000
00000000
00000000
00000001
00000000
00000010
00000000
,
00001000
00010000
00000000
00000100
00001000
00000000
00000100
00000000
00010000
00000000
00011000
00000000
00001000
00000000
01000000
00000000
,
00100000
00010000
00000000
00001000
00010000
00000000
00001000
00000000
00000010
00000000
00000100
00000000
00002000
00000000
00000001
00000000
,
00003010
00010000
00000000
00000100
00002000
00000000
00000001
00000000
00003010
00000000
00010000
00000000
00000100
00000000
00001000
00000000
,
00010000
00100000
00000000
00100000
00000000
00000000
00010000
10000000
00010000
00000000
00000000
00000000
10000000
00000000
00100000
00010000
,
00000000
00000000
00011000
00000000
00010000
00000000
00001000
00000100
00000000
00000000
00000001
00000000
00000010
00000000
00001000
00000000
,
00010000
00001000
00000000
00011000
00000000
00010000
00100000
00000000
10000000
00000000
00001000
00010000
00002000
00000000
00000000
00000000
,
00000000
00000010
00013000
00021000
,
00000000
00100000
00031000
00022000
,
00000000
00000000
00000000
00033000
,
00000000
00000000
00000000
00000000
00101000
00000000
00000000
00010010
00000000
00000000
00011000
00000000
00000000
00000000
00010000
00000000
,
02000000
00000000
00000000
00000000
00010000
00000000
00000000
13000000
00000000
00000000
00000000
00000000
00010000
00000000
01000000
00000000
,
00200000
00000000
00000000
00000000
00010000
00000000
00000000
00310000
00000000
00000000
00001000
00000000
00000100
00000000
00000010
00000000
,
00000200
00000000
00000000
00000000
00001000
00000000
00000000
00000301
00000000
00000000
00000000
00000000
00001000
00000000
00000100
00000000
,
00000020
00000000
00000000
00000000
00001000
00000000
00000000
00001030
00000000
00000000
00010000
00000000
00001000
00000000
01000000
00000000
,
00100000
10000000
01000000
00010000
00002000
00000000
00013000
00000010
,
00001000
00000000
00000001
00000000
00000100
00000000
00001000
00000000
00020000
00000000
00000000
00000000
00031000
00000000
00000000
00100000
,
00010000
00000000
10000000
00000000
01000000
00010000
00000000
00010000
00001000
00000000
00100000
00000000
01000000
00010000
00000000
00010000
,
00001000
00000000
00100000
00000000
01000000
00010000
00000000
00010000
00001000
00000000
00000010
00000000
00000001
00000000
00000100
00000000
,
00002000
00000000
00000000
00000000
00013000
00000000
00100000
00000000
01000000
00010000
01000000
00000000
00010000
00000000
10000000
00000000
,
01000000
00000000
00010000
00000000
00002000
00000000
00000000
00000000
00003100
00000000
00000001
00000000
00001000
00000000
00000000
00000100
,
00000010
00000000
00000001
00000000
00000100
00001000
00000000
00001000
00010000
00000000
00000010
00000000
00000100
00001000
00000000
00001000
,
00010000
00000010
00020020
00000000
00030030
00000000
00020000
00100000
,
00031000
01000000
00000000
00001000
00020000
00000000
00100000
00000000
00031000
00000000
01000000
00000000
00010000
00000000
10000000
00000000
,
01000000
00010000
00000000
00010000
00000000
00000000
00001000
00100000
00001000
00000000
00000000
00000000
00010000
00000000
01000000
00000000
,
10000000
00010000
00000000
00100000
00001000
00000000
00010000
00000000
00000010
00000000
00010000
00000000
00001000
00000000
00000100
00000000
,
00000001
00001000
00000000
00000010
00010000
00000000
00001000
00000000
00011000
00000000
00010000
00000000
00002000
00000000
00000010
00000000
,
00013000
00000100
00000000
00010000
00002000
00000000
00000010
00000000
00013000
00000000
00000100
00000000
00001000
00000000
00000001
00000000
,
00000100
00000000
00001000
00010000
00000000
00000000
00001000
01000000
00001000
00000000
00010000
00000000
00100000
00000000
10000000
01000000
,
00000000
01000000
00010000
00000000
00011000
00000000
00001000
00000010
00000000
00000010
00000001
00000000
00000100
00000000
00001000
00000000
,
00010000
00001000
00000000
00011000
00000000
00010000
01000000
00000000
10000000
00000000
00001000
00010000
00002000
00000000
00000000
00000000
,
00013000
00000000
00000000
00001000
00020000
00000000
00100000
00000000
00031000
00000000
00000000
00000000
00010000
01000000
00000000
10000000
,
00000000
00100000
00000000
00010000
00000000
00001000
00000010
00000000
00000001
00000000
00010000
00000000
00021000
00000000
00000000
00000000
,
00031000
00000000
00000000
00010000
00002000
00000000
00000100
00000000
00013000
00000000
00000000
00000000
00001000
00000010
00000000
00000001
,
00000000
00000100
00000000
00001000
00000000
00010000
01000000
00000000
10000000
00000000
00010000
00000000
00100000
00000000
00001000
00020000
,
00000000
00000000
01030000
00000000
00010000
00001000
00010000
00002000
00000000
00000000
00003100
00000000
00000001
00000000
00001000
00000000
,
00000010
00010000
00000010
00010000
00001000
00000000
01001000
00000000
00000000
00010100
00000000
00000000
00022000
00000000
00000000
00000000
,
00033000
00000000
00000000
00000000
;
