#VERSION:0.83;
#TITLE:Th7rt13th Ave;
#SUBTITLE:;
#ARTIST:Z-I-v Sound Team "Karl with a K as [SHRED-SENSEI]" respect for Mr. Keymaster;
#TITLETRANSLIT:;
#SUBTITLETRANSLIT:;
#ARTISTTRANSLIT:;
#GENRE:;
#ORIGIN:;
#CREDIT:;
#BANNER:Th7rt13th Ave banner.png;
#BACKGROUND:Th7rt13th Ave bg.png;
#PREVIEWVID:;
#JACKET:Th7rt13th Ave jk.png;
#CDIMAGE:;
#DISCIMAGE:;
#LYRICSPATH:;
#CDTITLE:;
#MUSIC:Th7rt13th Ave.ogg;
#OFFSET:0.000000;
#SAMPLESTART:85.915497;
#SAMPLELENGTH:15.000000;
#SELECTABLE:YES;
#BPMS:0.000=213.000;
#STOPS:456.500=0.141;
#DELAYS:;
#WARPS:;
#TIMESIGNATURES:0.000=4=4;
#TICKCOUNTS:0.000=4;
#COMBOS:0.000=1;
#SPEEDS:0.000=1.000=0.000=0;
#SCROLLS:0.000=1.000;
#FAKES:;
#LABELS:0.000=Song Start;
#BGCHANGES:;
#KEYSOUNDS:;
#ATTACKS:
;

//---------------dance-single - ----------------
#NOTEDATA:;
#CHARTNAME:;
#STEPSTYPE:dance-single;
#DESCRIPTION:;
#CHARTSTYLE:;
#DIFFICULTY:Hard;
#METER:17;
#RADARVALUES:0.838072,1.295458,0.580042,0.484592,0.458894,799.000000,720.000000,79.000000,66.000000,0.000000,0.000000,0.000000,0.000000,0.000000,0.838072,1.295458,0.580042,0.484592,0.458894,799.000000,720.000000,79.000000,66.000000,0.000000,0.000000,0.000000,0.000000,0.000000;
#CREDIT:[SHRED-SENSEI];
#NOTES:
// measure 0
0000
0000
0000
0000
,  // measure 1
0000
0000
0000
0000
,  // measure 2
0000
0000
0000
0000
,  // measure 3
0000
0000
0000
0000
,  // measure 4
0000
0000
0000
0000
,  // measure 5
0000
0000
0000
0000
,  // measure 6
0000
0000
0000
0000
,  // measure 7
0000
0000
0000
0000
,  // measure 8
0000
0000
0000
0000
2100
0000
0000
0000
3001
0000
0100
0001
1000
0000
0100
0000
,  // measure 9
1000
0010
0000
0110
0000
1010
0000
0102
,  // measure 10
0000
0000
1003
0000
0100
1000
0001
0000
0100
0000
0001
0000
0010
0000
0000
0000
,  // measure 11
0110
0000
0000
0000
0011
0000
0000
0000
0012
0000
0000
0000
1003
0010
1000
0001
,  // measure 12
0010
0001
0100
0110
1000
0010
0100
0001
,  // measure 13
0100
0001
2000
0000
0001
0000
3001
0000
0010
0000
0010
0000
0100
0000
0100
0000
,  // measure 14
1000
0010
0100
0000
0001
0010
0100
0000
1000
0010
0100
0010
1000
0000
0000
0000
,  // measure 15
0010
1000
0010
1000
0001
0010
0001
0010
0000
0000
0000
0100
1000
0000
0000
0000
,  // measure 16
0001
0100
0001
0000
0000
0000
1000
0001
0000
0000
0000
0010
0001
0010
0001
1000
,  // measure 17
0010
1000
0010
0000
0100
0001
0000
0000
1000
0001
0010
0100
1000
0100
0010
0000
,  // measure 18
0220
0000
0000
0000
,  // measure 19
0000
0000
0000
0000
,  // measure 20
0000
0000
0000
0000
,  // measure 21
0030
0320
0000
0100
,  // measure 22
0000
0001
0000
0000
0100
0000
0000
0032
,  // measure 23
0000
0000
0000
1003
0000
0000
1000
1000
,  // measure 24
1000
0001
0001
0001
1000
0100
0010
0001
,  // measure 25
1000
0010
0100
0001
0100
0010
1000
0001
,  // measure 26
0010
0001
0010
0100
1000
0001
0100
0010
,  // measure 27
1000
0010
0100
0001
1000
0100
0010
1000
,  // measure 28
0010
0100
1000
0001
0100
0010
0001
0010
,  // measure 29
0100
0001
1000
0010
1000
0100
0010
0100
,  // measure 30
1000
0001
0100
0010
0100
0001
0010
0100
,  // measure 31
1000
0000
0010
0000
0100
0000
0001
0000
1000
0000
0100
0010
0001
0010
0001
0000
,  // measure 32
0010
0000
0100
0000
1000
0001
0100
0010
0100
0000
0001
0000
0100
0000
0010
0100
,  // measure 33
0001
1000
0001
0000
0010
0000
0100
0000
1000
0000
0100
0010
0001
0000
1000
0000
,  // measure 34
0010
0000
0001
0000
0010
0100
0001
0100
0001
0000
0010
0000
0001
0000
0100
0000
,  // measure 35
0010
0000
0100
0000
1000
0000
0001
0000
1000
0000
0100
0010
1000
0000
0100
0010
,  // measure 36
0001
0010
0100
1000
0100
0010
0001
1000
0001
0010
0001
0000
0100
0010
1000
0010
,  // measure 37
0100
0001
1000
0100
0010
0100
0010
0000
1100
0000
0000
0000
0100
0000
0020
0000
,  // measure 38
0000
0230
0000
1300
0010
1000
0002
1000
,  // measure 39
1003
0200
0300
0100
0020
0000
0230
0000
,  // measure 40
1300
0010
0100
1000
0100
0010
2000
0000
,  // measure 41
0000
3200
0300
0100
0000
0010
0200
0000
,  // measure 42
0320
0000
0000
0000
0031
0000
0100
0010
2000
0000
0000
0000
0001
0000
0000
0000
,  // measure 43
0100
0000
0000
0000
3001
0000
0010
0001
1000
0000
0001
0000
0010
0000
0000
0000
,  // measure 44
0002
0000
0000
0010
0000
0103
0000
0001
,  // measure 45
0010
0100
1000
0010
0100
0020
0000
0000
,  // measure 46
0001
0000
0000
0000
0100
0000
0000
0000
0100
0000
0000
0000
0000
0000
1030
0010
,  // measure 47
1000
0001
0010
1000
0010
1000
0020
0000
,  // measure 48
0030
0020
0000
0030
0002
0003
0002
0000
,  // measure 49
0003
0002
0003
0001
1000
0000
2000
0000
,  // measure 50
3000
0000
1000
0020
0000
0000
0030
0000
0120
0000
0000
0000
0100
0000
0000
0000
,  // measure 51
0100
0000
0000
0000
0130
0001
1000
0000
0100
0000
0010
0000
0001
0000
0010
0000
,  // measure 52
0100
0000
0010
0002
0000
0000
0100
0000
0000
0000
0100
0000
0000
0000
0203
0000
,  // measure 53
0000
0000
0301
0100
0020
0000
0000
0000
1030
0000
0100
0000
1200
0000
0000
0000
,  // measure 54
0010
0000
0000
0000
0010
0000
0000
0000
0310
0000
0001
0000
0010
0000
0100
1000
,  // measure 55
0001
0000
0100
0001
0000
0000
2100
0000
0000
0000
0010
0000
0000
0000
0010
0000
,  // measure 56
0000
3020
1030
0000
1001
0000
0110
0000
,  // measure 57
0001
0000
1000
0001
1001
0000
1000
0010
,  // measure 58
0000
0010
0100
0000
0100
0001
0000
1000
,  // measure 59
0001
1001
0000
1000
0100
0000
0100
0010
,  // measure 60
0000
0000
0001
0000
1000
0100
0010
0000
0001
1000
0001
0000
1001
0000
0000
0000
,  // measure 61
0001
0000
0100
0001
0100
0000
0010
0000
0100
0000
0000
0000
0010
0000
1000
0010
,  // measure 62
0100
0000
0001
1000
0001
0000
1001
0000
0000
0000
0001
0000
0010
0000
0000
0000
,  // measure 63
0010
0100
0000
0100
0010
0000
0110
0000
,  // measure 64
0110
0000
0001
0011
0000
1010
0000
0011
,  // measure 65
0000
1010
0000
0110
0000
1010
0000
1000
,  // measure 66
1100
0011
1100
1001
,  // measure 67
0110
0000
1001
0000
0110
1010
0000
0011
,  // measure 68
0000
1010
0000
0011
0000
0101
0000
0011
,  // measure 69
0000
1010
1100
0000
1010
0000
1100
0000
,  // measure 70
1001
0000
0000
0000
,  // measure 71
0000
0000
0000
0000
0000
1001
0000
0000
,  // measure 72
0000
0000
0000
0000
,  // measure 73
0000
0000
1000
0100
0010
0001
0100
0010
,  // measure 74
1000
0100
0001
1000
0010
0001
0100
2000
,  // measure 75
0001
0000
0000
0000
3001
0000
0020
0000
0000
0000
0000
0000
0130
0001
0100
0001
,  // measure 76
1000
0000
0000
0000
0100
0010
0100
0010
2000
0000
0000
0000
0000
0000
0000
0000
,  // measure 77
3010
0000
0100
0000
0000
0000
0010
2000
0000
0000
3020
0000
0000
0000
0032
0000
,  // measure 78
0000
0203
0000
0302
0000
0000
1003
1000
,  // measure 79
1000
0100
1000
0020
0000
0000
0130
0000
,  // measure 80
1001
0000
0000
0000
1000
0010
0100
0010
0002
0000
0000
0000
0000
0000
0000
0000
,  // measure 81
0013
0100
0010
0002
0000
0023
0000
2030
,  // measure 82
0000
3200
0000
0302
0000
0000
0103
0000
,  // measure 83
0110
0100
1000
0020
0000
0000
0130
0000
,  // measure 84
0110
0000
0000
0000
0100
0001
0100
0001
1000
0000
0000
0000
1100
0000
0000
0000
,  // measure 85
0001
0100
0010
0000
1000
0010
0100
0001
,  // measure 86
0010
0001
0000
0000
0010
0000
2000
0000
0000
0000
3010
0000
0001
0000
0000
0000
,  // measure 87
1000
0010
1000
0000
0100
0000
0020
0000
0000
0000
0031
0010
0001
0000
1000
0000
,  // measure 88
1000
0000
1000
0000
0010
0000
0100
0000
0001
0100
0010
0000
1000
0100
0010
0000
,  // measure 89
0001
0100
0010
0000
1000
0100
0010
0000
0001
0010
0100
0010
0001
0000
1000
0010
,  // measure 90
0100
0010
1000
0000
0001
0010
0100
0010
0001
1000
0010
0100
0001
1000
0010
0100
,  // measure 91
0001
0000
0000
1000
0001
1000
0010
1000
0100
0000
0010
0000
0100
0000
0010
0001
,  // measure 92
0100
0000
0010
1000
0100
0000
0010
0001
1000
0000
0001
0000
1000
0000
1000
0000
,  // measure 93
0100
0100
0010
0010
0001
0001
0100
0100
,  // measure 94
0010
0000
0010
0000
1000
0000
1000
0000
0001
0010
0001
0000
0000
1000
0010
0000
,  // measure 95
0000
0100
0001
0000
0000
0000
0001
0010
0100
1000
0001
1000
0100
0010
0001
1000
,  // measure 96
0001
0000
1010
0000
1001
0000
1010
0000
0012
0000
0000
0000
1003
0000
0010
1000
,  // measure 97
0001
0010
0001
0100
0000
0110
0100
0101
,  // measure 98
0000
0000
2010
0000
0000
0000
3001
0000
0010
0001
1000
0000
0010
0000
1000
0000
,  // measure 99
0100
0000
0110
0100
1100
0000
2100
0000
,  // measure 100
3001
0100
0001
0000
0010
0000
0001
0000
0100
0000
0110
0000
0000
0000
0101
0000
,  // measure 101
1000
0000
1010
0000
0000
0000
0102
0000
0000
0000
1003
0100
1000
0000
0010
0000
,  // measure 102
1000
0100
0110
0000
1100
0001
0011
0000
,  // measure 103
2001
0000
3010
1000
0010
1000
0100
0010
,  // measure 104
0000
0110
0000
0110
0000
1002
0003
0001
,  // measure 105
0010
0001
0010
0000
0001
0000
0100
0000
0010
0000
0000
0000
0110
0000
0000
0000
,  // measure 106
0110
1001
1010
1100
,  // measure 107
1020
0000
0130
0000
0001
0000
0010
0000
0001
0000
0100
0000
0001
1000
0001
0000
,  // measure 108
1000
0000
1000
0000
1000
0000
0100
0000
0100
0000
0010
0000
0001
0010
0000
0000
,  // measure 109
0010
0100
0000
0000
0100
1000
0001
0100
0001
0000
0000
0000
0010
0001
0010
0001
,  // measure 110
1000
0010
1000
0010
0000
0000
0000
0100
0001
0000
0000
0000
1000
0100
1000
0000
,  // measure 111
0000
0000
0001
1000
0000
0000
0000
0010
1000
0010
1000
0001
0010
0001
0010
0000
,  // measure 112
0100
0001
0100
0010
0001
1000
0010
0100
0001
0010
0100
0000
0110
0000
0010
0000
,  // measure 113
0001
0200
0000
2300
0000
3200
0000
0320
,  // measure 114
0000
0030
0220
0000
0000
0000
0000
0000
,  // measure 115
0000
0000
0000
0000
,  // measure 116
0000
0000
0000
0000
,  // measure 117
0000
0000
0000
0000
0000
0330
0000
0000
;

//---------------dance-single - ----------------
#NOTEDATA:;
#CHARTNAME:;
#STEPSTYPE:dance-single;
#DESCRIPTION:;
#CHARTSTYLE:;
#DIFFICULTY:Medium;
#METER:13;
#RADARVALUES:0.573749,0.734093,0.256981,0.550673,0.062410,547.000000,512.000000,35.000000,75.000000,0.000000,0.000000,0.000000,0.000000,0.000000,0.573749,0.734093,0.256981,0.550673,0.062410,547.000000,512.000000,35.000000,75.000000,0.000000,0.000000,0.000000,0.000000,0.000000;
#CREDIT:[SHRED-SENSEI];
#NOTES:
0000
0000
0000
0000
,
0000
0000
0000
0000
,
0000
0000
0000
0000
,
0000
0000
0000
0000
,
0000
0000
0000
0000
,
0000
0000
0000
0000
,
0000
0000
0000
0000
,
0000
0000
0000
0000
,
0000
2000
3200
0310
,
0100
0010
0000
0110
0000
1001
0000
0002
,
0000
0203
0000
0310
0000
0100
0010
0000
,
0110
1001
1000
1010
,
0110
0000
0010
0100
0000
0110
0000
1001
,
0000
0001
0001
0010
0010
0100
0010
0100
,
0010
0000
0010
0100
1000
0010
1000
0000
,
0001
0000
0100
0000
0001
0000
0100
0000
0000
0000
0000
0001
0000
0000
0000
0000
,
1000
0000
0100
0000
0000
0000
0000
0100
0000
0000
0000
0010
0000
0100
0000
0010
,
0000
0100
0000
0000
1000
0000
1000
0000
0000
0000
0000
0001
0000
0001
0000
0000
,
2002
0000
0000
0000
,
0000
0000
0000
0000
,
0000
0000
0000
0000
,
3003
1000
0000
0010
,
0000
1000
0000
0000
0000
0000
0000
0001
,
0000
0000
0000
0011
0000
0000
0010
0100
,
0010
0100
0010
0100
1000
0010
1000
0000
,
0100
0000
1000
0001
0010
0001
0010
0000
,
0001
0000
1000
0100
1000
0010
0000
0100
,
0001
0010
0001
0100
0000
0010
1000
0001
,
0010
0100
1000
0000
1000
0000
0001
0100
,
0010
0000
1000
0001
1000
0000
0001
0100
,
0010
0000
1000
0100
1000
0001
0010
0000
,
0001
0010
0001
0000
0100
0000
0001
1000
,
0010
1000
0010
0000
1000
0000
0001
0100
,
0001
0010
0000
0100
1000
0010
1000
0100
,
0000
0010
0001
1000
0010
0100
0001
0000
,
0001
0000
1000
0100
0010
0001
0000
0001
,
0010
0100
1000
0100
0010
0000
0001
0100
,
0010
1000
0010
0100
0001
0000
0001
0020
,
0000
0000
0030
0010
0100
0100
2000
0000
,
0000
3002
0000
0000
1003
0000
0100
0000
,
1000
0010
0100
0001
0100
0010
2000
0000
,
0000
0010
0000
0000
0000
3001
0010
0000
,
0001
0000
0100
0020
0000
0000
1000
0000
,
0000
0000
1030
0010
1000
0000
0001
0000
,
0200
0000
0000
0010
0000
0000
0000
0301
,
0010
0100
0010
0100
1000
0020
0000
0030
,
0020
0030
0020
0030
0020
0000
0000
1030
,
1000
0000
0001
0010
0001
0010
0200
0000
,
0000
2300
0000
0000
3001
0000
0002
0000
,
0003
0002
0000
0003
0002
0003
0002
0000
,
0000
0023
0000
0030
0012
0000
0100
0000
,
0100
0000
0103
0001
0100
0010
0100
0001
,
1000
0100
0020
0000
0130
0010
0100
0020
,
0000
0031
0002
0000
1003
0000
2010
0000
,
0100
0000
0100
0000
3100
1000
0000
0100
,
0010
0001
1000
0001
0000
0001
0100
0010
,
0100
0010
1000
0001
0010
0001
1000
0000
,
0010
1000
0010
1000
0100
0000
0100
0010
,
0000
0010
0001
0000
0001
0010
0001
0010
,
0001
0100
0000
0100
0010
0000
0010
1000
,
0000
1000
0100
1000
0100
1000
0010
0000
,
0010
0100
0000
0100
0001
0000
0001
0100
,
0001
0100
0001
0010
0000
0010
0100
0000
,
0100
1000
0000
1000
0002
0000
0010
0000
,
1000
0000
0013
0002
0000
0100
0000
1003
,
0000
2001
0000
0100
0000
0001
0000
3100
,
2000
0010
3001
0012
,
0100
0000
0010
0000
0103
0020
0000
0100
,
0000
1030
0000
2010
0000
0100
0000
0010
,
0000
3100
0020
0000
0100
0000
0031
0000
,
1001
0000
0000
0000
,
0000
0000
0000
0000
0000
1001
0000
0000
,
0000
0000
0000
0000
,
0000
0000
1000
0100
1000
0100
0010
0001
,
0010
0001
0000
1000
0010
0000
0100
0010
,
0100
0000
0010
0110
0000
0000
1000
0001
,
1001
0000
1000
0100
0020
0000
0000
0000
,
0130
0010
0000
0002
0000
0203
0000
0320
,
0000
0230
0000
0302
0000
0000
1000
2003
,
0000
3100
1000
0020
0000
0000
0130
0000
,
0110
0000
0001
0100
0020
0000
0000
0000
,
0130
0010
1000
2000
0000
3200
0000
0320
,
0000
0230
0000
0302
0000
0000
0000
0000
,
0103
0010
0001
0020
0000
0000
0031
0100
,
1000
0200
0302
0010
,
2003
0000
0010
0000
3001
0010
0100
0000
,
0010
0000
0100
0002
0000
0000
0103
0000
,
1000
0000
0001
0020
0000
0000
0031
0001
,
0100
0010
0110
0010
,
1000
0100
0110
0010
,
0001
0100
1000
0100
,
0001
0010
1000
0010
,
0001
0000
0100
0000
0001
1000
0001
0000
,
1000
0100
1000
0000
0100
0010
0100
0000
,
0010
0001
0100
0000
1000
0100
0001
1000
,
0100
0000
0001
0000
0000
0100
0000
0000
1000
0000
0010
0000
0001
0000
0010
0000
,
1000
0010
0010
0010
2000
0000
3020
0000
,
0130
0000
0010
0100
0000
0110
0000
1001
,
0000
0002
0000
0023
0000
0130
0000
0010
,
0100
0110
1001
2000
,
3200
0000
0310
0000
0100
0010
0000
0110
,
0000
1001
0000
0002
0000
0203
0000
0320
,
0000
0130
0010
0000
0001
0010
1000
0000
,
0002
0000
0203
0000
0310
0000
0100
0010
,
0000
0110
0000
1001
0000
2000
0000
3200
,
0000
0310
0000
0100
0010
0000
0110
0000
,
1001
0001
0011
0110
,
0010
1000
0010
0100
0010
0001
1000
0001
,
1000
0010
0010
0100
0100
0010
0100
0000
,
1000
0100
0001
1000
0001
0000
1000
0100
,
1000
0000
0100
0000
0000
0000
0000
1000
0000
0000
0000
0000
0001
0000
0100
0000
,
0000
0000
0000
0100
0000
0000
0000
0010
0000
0100
0000
0010
0000
0100
0000
0000
,
0001
0000
0001
0000
0000
0000
0000
1000
0000
1000
0000
0000
0010
0000
0001
0000
,
0010
2000
0000
3200
0000
0302
0000
0203
,
0000
0300
0220
0000
0000
0000
0000
0000
,
0000
0000
0000
0000
,
0000
0000
0000
0000
,
0000
0000
0000
0000
0000
0330
0000
0000
;
