#VERSION:0.83;
#TITLE:天嘩乱舞;
#SUBTITLE:;
#ARTIST:栗須承之介;
#TITLETRANSLIT:Tenkaranbu;
#SUBTITLETRANSLIT:;
#ARTISTTRANSLIT:Qrisjoynosuke;
#GENRE:Ongaku;
#ORIGIN:;
#CREDIT:;
#BANNER:Tenkaranbu.png;
#BACKGROUND:Tenkaranbu-bg.png;
#PREVIEWVID:;
#JACKET:Tenkaranbu-jacket.png;
#CDIMAGE:;
#DISCIMAGE:;
#LYRICSPATH:;
#CDTITLE:cdtitle.png;
#MUSIC:Tenkaranbu.ogg;
#OFFSET:-0.929590;
#SAMPLESTART:11.364373;
#SAMPLELENGTH:10.434783;
#SELECTABLE:YES;
#BPMS:0.000=184.000;
#STOPS:;
#DELAYS:;
#WARPS:;
#TIMESIGNATURES:0.000=4=4;
#TICKCOUNTS:0.000=4;
#COMBOS:0.000=1;
#SPEEDS:0.000=1.000=0.000=0;
#SCROLLS:0.000=1.000;
#FAKES:;
#LABELS:0.000=Song Start;
#BGCHANGES:;
#KEYSOUNDS:;
#ATTACKS:
;

//---------------dance-single - ----------------
#NOTEDATA:;
#CHARTNAME:;
#STEPSTYPE:dance-single;
#DESCRIPTION:;
#CHARTSTYLE:;
#DIFFICULTY:Challenge;
#METER:15;
#RADARVALUES:0.761905,0.754392,0.477477,0.027027,0.265766,592.000000,539.000000,53.000000,3.000000,25.000000,0.000000,0.000000,0.000000,0.000000,0.761905,0.754392,0.477477,0.027027,0.265766,592.000000,539.000000,53.000000,3.000000,25.000000,0.000000,0.000000,0.000000,0.000000;
#CREDIT:;
#NOTES:
// measure 0
0000
0000
0000
0000
,  // measure 1
0000
0000
0000
0000
,  // measure 2
0000
0000
0000
0000
,  // measure 3
0000
0000
0000
0000
,  // measure 4
1000
0100
1000
0100
0001
0100
0001
0100
,  // measure 5
1000
0010
1000
0010
0001
0010
0001
0010
,  // measure 6
1000
0100
0001
0100
1000
0010
0001
0010
,  // measure 7
2000
0000
0000
0000
0000
0000
0000
0000
3000
0000
0001
1000
0001
0000
0001
0000
,  // measure 8
0011
0000
0000
0000
0000
0000
0000
0000
0011
0000
0000
0000
0000
0000
0000
0000
1000
0000
0000
0000
0001
0000
0000
0000
0100
0000
0000
0000
0000
0M00
0000
0000
,  // measure 9
1000
0000
0000
0000
0001
0000
0000
0000
0100
0000
0000
0000
0000
0M00
0000
0000
1000
0000
0000
0000
0001
0000
0000
0000
0001
0000
0000
0000
0010
0000
0000
0000
,  // measure 10
1001
0000
0000
0000
0000
0000
0000
0000
1001
0000
0000
0000
0000
0000
0000
0000
1000
0000
0000
0000
0001
0000
0000
0000
0100
0000
0000
0000
0000
0M00
0000
0000
,  // measure 11
1000
0000
0000
0000
1010
0000
0000
0000
0011
0000
0001
1000
0001
0000
1000
0000
,  // measure 12
1010
0000
0000
0000
0000
0000
0000
0000
1010
0000
0000
0000
0000
0000
0000
0000
0001
0000
0000
0000
1000
0000
0000
0000
0100
0000
0000
0000
0000
0M00
0000
0000
,  // measure 13
0001
0000
0000
0000
1000
0000
0000
0000
0100
0000
0000
0000
0000
0M00
0000
0000
0001
0000
0000
0000
0100
0000
0000
0000
0100
0000
0000
0000
0010
0000
0000
0000
,  // measure 14
1010
1010
0011
0011
,  // measure 15
0001
0000
0100
0000
1000
0000
0100
0000
0001
0000
1000
0001
1000
0000
1000
0000
,  // measure 16
0001
0000
0000
0000
0010
0000
0100
0000
0010
0000
0000
0000
0100
0000
0000
0000
0000
0M00
0000
0000
0001
0000
0000
0000
0010
0000
0000
0000
0100
0000
0000
0000
,  // measure 17
0001
0100
0010
0001
1000
1001
1001
0000
,  // measure 18
1000
0000
0000
0000
0010
0000
0100
0000
0010
0000
0000
0000
0100
0000
0000
0000
0000
0M00
0000
0000
1000
0000
0000
0000
0010
0000
0000
0000
0100
0000
0000
0000
,  // measure 19
1000
0100
0010
1000
0001
1001
1001
0000
,  // measure 20
1000
0000
0000
0000
0100
0000
0010
0000
0100
0000
0000
0000
0010
0000
0000
0000
0000
00M0
0000
0000
1000
0000
0000
0000
0001
0000
0000
0000
1000
0000
0000
0000
,  // measure 21
0010
0100
0001
1000
0100
0010
0001
1000
,  // measure 22
0001
0100
1000
0100
0001
0100
1000
0100
,  // measure 23
0001
0010
0100
1000
0001
0000
0000
0000
,  // measure 24
1010
0000
0000
0000
0000
0000
0000
0000
1010
0000
0000
0000
0000
0000
0000
0000
0010
0000
0000
0000
1000
0000
0000
0000
0100
0000
0000
0000
0000
0M00
0000
0000
,  // measure 25
0010
0000
0000
0000
1000
0000
0000
0000
0100
0000
0000
0000
0000
0M00
0000
0000
0010
0000
0000
0000
0100
0000
0010
0000
1000
0000
0000
0000
0010
0000
0000
0000
,  // measure 26
1001
0000
0000
0000
0000
0000
0000
0000
1001
0000
0000
0000
0000
0000
0000
0000
0001
0000
0000
0000
1000
0000
0000
0000
0100
0000
0000
0000
0000
0M00
0000
0000
,  // measure 27
0001
0000
0011
0000
1010
1000
0100
0010
,  // measure 28
0011
0000
0000
0000
0000
0000
0000
0000
0011
0000
0000
0000
0000
0000
0000
0000
0010
0000
0000
0000
0001
0000
0000
0000
0100
0000
0000
0000
0000
0M00
0000
0000
,  // measure 29
0010
0000
0000
0000
0001
0000
0000
0000
0100
0000
0000
0000
0000
0M00
0000
0000
0010
0000
0000
0000
0100
0000
0010
0000
0001
0000
0000
0000
0010
0000
0000
0000
,  // measure 30
0011
0011
1010
1010
,  // measure 31
1000
0100
0001
0100
1000
0000
0000
0000
,  // measure 32
0001
0100
0010
0100
0001
0100
0010
0100
,  // measure 33
0001
0000
0010
0000
0001
0000
0100
0001
0100
0000
1001
0000
1001
0000
0000
0000
,  // measure 34
1000
0100
0010
0100
1000
0100
0010
0100
,  // measure 35
1000
0000
0010
0000
1000
0000
0100
1000
0100
0000
1001
0000
0000
0000
1001
0000
,  // measure 36
0001
0100
1000
0100
0001
0100
1000
0100
,  // measure 37
0001
0010
1000
0010
0001
0100
0010
1000
,  // measure 38
0001
0010
0011
0000
1000
0010
1010
0000
,  // measure 39
1001
0000
0000
0000
0000
0000
0000
0000
0000
0000
1000
0001
1000
0000
0001
0000
,  // measure 40
0010
0000
0001
0010
0001
0000
0010
0000
1000
0000
0001
0000
0100
0000
1000
0000
,  // measure 41
0001
0000
0000
0000
0010
0000
0000
0000
0010
0000
0000
0000
0010
0000
0000
0000
0010
0000
0000
0000
0000
00M0
0000
0000
1000
0000
0000
0000
0001
0000
0000
0000
,  // measure 42
0100
0000
0001
0100
0001
0000
0100
0000
1000
0000
0001
0000
0010
0000
1000
0000
,  // measure 43
0001
0000
0000
0000
0100
0000
0001
0000
0100
0000
0000
0000
0100
0000
0000
0000
0100
0000
0000
0000
0000
0M00
0000
0000
1000
0000
0000
0000
0001
0000
0000
0000
,  // measure 44
0010
0000
0100
0010
0100
0000
0010
0000
0011
0000
0000
0000
1000
0000
0001
0000
,  // measure 45
0100
0000
0010
0100
0010
0000
0100
0000
0101
0000
0000
0000
1000
0000
0001
0000
,  // measure 46
0010
1000
0010
0001
0010
1000
0010
0001
,  // measure 47
1000
0000
0001
0100
0010
0000
1010
0000
1010
0000
0000
0000
0001
0000
1000
0000
,  // measure 48
0100
0000
0000
0000
0010
0000
0100
0000
0010
0000
0000
0000
0100
0000
0000
0000
0000
0M00
0000
0000
1000
0000
0000
0000
0010
0000
0000
0000
1000
0000
0000
0000
,  // measure 49
0010
0001
1000
0001
0100
0110
0110
0000
,  // measure 50
0010
0000
0000
0000
0100
0000
0010
0000
0100
0000
0000
0000
0010
0000
0000
0000
0000
00M0
0000
0000
1000
0000
0000
0000
0100
0000
0000
0000
0001
0000
0000
0000
,  // measure 51
1000
0010
0100
0001
1000
1001
1001
0000
,  // measure 52
0001
0010
1000
0000
0011
0000
1000
0001
,  // measure 53
1000
0010
0001
0000
1010
0000
0001
1000
,  // measure 54
0100
0000
0010
0001
0010
0000
0001
0000
0100
0000
0010
1000
0010
0000
1000
0000
,  // measure 55
1002
0000
0010
0000
0013
0000
0001
1000
,  // measure 56
0010
0000
1000
0010
1000
0000
0010
0000
0001
0000
1000
0000
0100
0000
0001
0000
,  // measure 57
1000
0000
0000
0000
0010
0000
0000
0000
0010
0000
0000
0000
0010
0000
0000
0000
0010
0000
0000
0000
0000
00M0
0000
0000
0001
0000
0000
0000
1000
0000
0000
0000
,  // measure 58
0100
0000
1000
0100
1000
0000
0100
0000
0001
0000
1000
0000
0010
0000
0001
0000
,  // measure 59
1000
0000
0000
0000
0100
0000
1000
0000
0100
0000
0000
0000
0100
0000
0000
0000
0100
0000
0000
0000
0000
0M00
0000
0000
0001
0000
0000
0000
1000
0000
0000
0000
,  // measure 60
0010
0000
0100
0010
0100
0000
0010
0000
1000
0000
0001
0000
1000
0000
0100
0000
,  // measure 61
0001
0100
1000
0010
0001
0010
1000
0000
,  // measure 62
0001
0000
1000
0100
1000
0000
1000
0100
1000
0000
0001
0100
0001
0000
0001
0100
,  // measure 63
0001
0000
0000
0000
1000
0000
0100
0000
1000
0000
0000
0000
0100
0000
0000
0000
0010
0000
0000
0000
0000
00M0
0000
0000
1000
0000
0000
0000
0001
0000
0000
0000
,  // measure 64
0100
0000
0000
0000
0010
0000
0100
0000
0010
0000
0000
0000
0100
0000
0000
0000
0000
0M00
0000
0000
0001
0000
0000
0000
0010
0000
0000
0000
0001
0000
0000
0000
,  // measure 65
0010
0100
0010
1000
0001
1000
1000
0100
,  // measure 66
0010
0000
0000
0000
0100
0000
0010
0000
0100
0000
0000
0000
0010
0000
0000
0000
0000
00M0
0000
0000
0001
0000
0000
0000
0100
0000
0000
0000
0001
0000
0000
0000
,  // measure 67
0100
0010
0100
1000
0001
1001
1001
0000
,  // measure 68
0001
0100
1000
0000
0101
0000
1000
0001
,  // measure 69
1000
0100
0001
0000
1100
0000
0001
0100
,  // measure 70
0010
0000
1000
0001
1000
0000
0100
0000
0010
0000
0001
1000
0001
0000
0100
0000
,  // measure 71
0020
0000
0030
0000
,  // measure 72
1000
0000
0000
0000
0000
0000
0000
0000
1000
0000
0000
0000
0000
0000
0000
0000
0001
0000
0000
0000
1000
0000
0000
0000
0100
0000
0000
0000
0000
0M00
0000
0000
,  // measure 73
0001
0000
0000
0000
1000
0000
0000
0000
0100
0000
0000
0000
0000
0M00
0000
0000
0001
0000
0000
0000
1000
0000
0000
0000
1000
0000
0000
0000
1000
0000
0000
0000
,  // measure 74
0001
0000
0000
0000
0000
0000
0000
0000
0001
0000
0000
0000
0000
0000
0000
0000
1000
0000
0000
0000
0001
0000
0000
0000
0100
0000
0000
0000
0000
0M00
0000
0000
,  // measure 75
1000
0000
0010
0000
0100
0110
0000
1001
,  // measure 76
0001
0010
0001
0010
0100
1000
0100
1000
,  // measure 77
0001
0100
0001
0100
0010
1000
0010
1000
,  // measure 78
0100
0001
0100
1000
0010
0001
0010
1000
,  // measure 79
0100
0010
0001
1000
0100
0000
0101
0000
;

//---------------dance-single - ----------------
#NOTEDATA:;
#CHARTNAME:;
#STEPSTYPE:dance-single;
#DESCRIPTION:;
#CHARTSTYLE:;
#DIFFICULTY:Hard;
#METER:11;
#RADARVALUES:0.526384,0.574775,0.369369,0.054054,0.103604,409.000000,368.000000,41.000000,6.000000,23.000000,0.000000,0.000000,0.000000,0.000000,0.526384,0.574775,0.369369,0.054054,0.103604,409.000000,368.000000,41.000000,6.000000,23.000000,0.000000,0.000000,0.000000,0.000000;
#CREDIT:;
#NOTES:
// measure 0
0000
0000
0000
0000
,  // measure 1
0000
0000
0000
0000
,  // measure 2
0000
0000
0000
0000
,  // measure 3
0000
0000
0000
0000
,  // measure 4
1000
0100
0010
0001
,  // measure 5
1000
0010
0100
0001
,  // measure 6
1000
0100
0010
0000
0001
0100
0010
0000
,  // measure 7
2002
0000
3003
0000
,  // measure 8
0001
0000
0000
0000
0000
0000
0000
0000
0001
0000
0000
0000
0000
0000
0000
0000
1000
0000
0000
0000
0001
0000
0000
0000
0100
0000
0000
0000
0000
0M00
0000
0000
,  // measure 9
1000
0000
0000
0000
0001
0000
0000
0000
0100
0000
0000
0000
0000
0M00
0000
0000
1000
0000
0000
0000
0000
0000
0000
0000
0000
0000
0000
0000
0000
0000
0000
0000
,  // measure 10
0001
0000
0000
0000
0000
0000
0000
0000
0001
0000
0000
0000
0000
0000
0000
0000
1000
0000
0000
0000
0001
0000
0000
0000
0100
0000
0000
0000
0000
0M00
0000
0000
,  // measure 11
1000
1010
0011
0000
,  // measure 12
1000
0000
0000
0000
0000
0000
0000
0000
1000
0000
0000
0000
0000
0000
0000
0000
0001
0000
0000
0000
1000
0000
0000
0000
0100
0000
0000
0000
0000
0M00
0000
0000
,  // measure 13
0001
0000
0000
0000
1000
0000
0000
0000
0100
0000
0000
0000
0000
0M00
0000
0000
0001
0000
0000
0000
0000
0000
0000
0000
0000
0000
0000
0000
0000
0000
0000
0000
,  // measure 14
1000
1010
0001
0011
,  // measure 15
1000
0010
0100
0001
1000
0000
0000
0000
,  // measure 16
1000
0000
0000
0000
0000
0000
0000
0000
0001
0000
0000
0000
0010
0000
0000
0000
0000
00M0
0000
0000
1000
0000
0000
0000
0010
0000
0000
0000
0000
0000
0000
0000
,  // measure 17
1000
0100
0010
0000
0001
0000
1001
0000
,  // measure 18
0001
0000
0000
0000
0000
0000
0000
0000
1000
0000
0000
0000
0010
0000
0000
0000
0000
00M0
0000
0000
0001
0000
0000
0000
0010
0000
0000
0000
0000
0000
0000
0000
,  // measure 19
0001
0100
0010
0000
1000
0000
1001
0000
,  // measure 20
0001
0000
0000
0000
0000
0000
0000
0000
1000
0000
0000
0000
0100
0000
0000
0000
0000
0M00
0000
0000
0001
0000
0000
0000
0100
0000
0000
0000
0000
0000
0000
0000
,  // measure 21
0010
1000
0001
0000
0010
0001
1000
0000
,  // measure 22
1010
1001
0011
1001
,  // measure 23
0001
0100
0001
1000
0100
0000
0000
0000
,  // measure 24
1000
0000
0000
0000
0000
0000
0000
0000
1000
0000
0000
0000
0000
0000
0000
0000
0010
0000
0000
0000
1000
0000
0000
0000
0100
0000
0000
0000
0000
0M00
0000
0000
,  // measure 25
0010
0000
0000
0000
1000
0000
0000
0000
0100
0000
0000
0000
0000
0M00
0000
0000
0010
0000
0000
0000
0000
0000
0000
0000
1000
0000
0000
0000
0001
0000
0000
0000
,  // measure 26
1000
0000
0000
0000
0000
0000
0000
0000
1000
0000
0000
0000
0000
0000
0000
0000
0010
0000
0000
0000
1000
0000
0000
0000
0100
0000
0000
0000
0000
0M00
0000
0000
,  // measure 27
0001
0000
0011
0000
1010
0000
0001
1000
,  // measure 28
0001
0000
0000
0000
0000
0000
0000
0000
0001
0000
0000
0000
0000
0000
0000
0000
0010
0000
0000
0000
0001
0000
0000
0000
0100
0000
0000
0000
0000
0M00
0000
0000
,  // measure 29
0010
0000
0000
0000
0001
0000
0000
0000
0100
0000
0000
0000
0000
0M00
0000
0000
0010
0000
0000
0000
0000
0000
0000
0000
0001
0000
0000
0000
1000
0000
0000
0000
,  // measure 30
0001
0101
1000
1100
,  // measure 31
0001
0100
0010
1000
0001
0000
0000
0000
,  // measure 32
0001
0010
0001
0010
,  // measure 33
0100
0010
0001
1001
,  // measure 34
1000
0010
1000
0010
,  // measure 35
0100
0010
1000
1001
,  // measure 36
1000
0100
0001
0100
,  // measure 37
1000
0010
0001
0010
,  // measure 38
1000
0010
1000
0000
0001
0010
0001
0000
,  // measure 39
1001
0000
0000
0000
0000
0000
0001
1000
,  // measure 40
0010
0000
0010
0000
1000
0010
0001
0010
,  // measure 41
1000
0000
0000
0000
0000
0000
0000
0000
0010
0000
0000
0000
0000
0000
0000
0000
0010
0000
0000
0000
0000
00M0
0000
0000
0001
0000
0000
0000
1000
0000
0000
0000
,  // measure 42
0100
0000
0100
0000
1000
0100
0001
0100
,  // measure 43
1000
0000
0000
0000
0000
0000
0000
0000
0100
0000
0000
0000
0000
0000
0000
0000
0100
0000
0000
0000
0000
0M00
0000
0000
0001
0000
0000
0000
1000
0000
0000
0000
,  // measure 44
0010
0000
0000
0000
1000
0000
0000
0000
0010
0000
0000
0000
0000
0000
0000
0000
0100
0000
0000
0000
0000
0M00
0000
0000
1000
0000
0000
0000
0001
0000
0000
0000
,  // measure 45
0010
0000
0000
0000
0001
0000
0000
0000
0010
0000
0000
0000
0000
0000
0000
0000
0100
0000
0000
0000
0000
0M00
0000
0000
0001
0000
0000
0000
0100
0000
0000
0000
,  // measure 46
0010
1010
0011
1100
,  // measure 47
0101
0000
1000
0001
1000
0000
0000
0000
,  // measure 48
0001
0000
0000
0000
0010
0000
0000
0000
0001
0000
0000
0000
0010
0000
0000
0000
0000
00M0
0000
0000
1000
0000
0000
0000
0100
0000
0000
0000
0010
0000
0000
0000
,  // measure 49
0001
1100
0011
1000
,  // measure 50
1000
0000
0000
0000
0010
0000
0000
0000
1000
0000
0000
0000
0010
0000
0000
0000
0000
00M0
0000
0000
0001
0000
0000
0000
0100
0000
0000
0000
0010
0000
0000
0000
,  // measure 51
1000
0011
1010
0001
,  // measure 52
1000
0100
0001
0000
1100
0000
0001
0000
,  // measure 53
0001
0100
1000
0000
0101
0000
1000
0000
,  // measure 54
1000
0100
0010
0000
0001
0100
0010
0000
,  // measure 55
2002
0000
0000
0000
3003
0000
1000
0001
,  // measure 56
0010
0000
0010
0000
0001
0010
1000
0010
,  // measure 57
0001
0000
0000
0000
0000
0000
0000
0000
0010
0000
0000
0000
0000
0000
0000
0000
0010
0000
0000
0000
0000
00M0
0000
0000
1000
0000
0000
0000
0001
0000
0000
0000
,  // measure 58
0100
0000
0100
0000
0001
0100
1000
0100
,  // measure 59
0001
0000
0000
0000
0000
0000
0000
0000
0100
0000
0000
0000
0000
0000
0000
0000
0100
0000
0000
0000
0000
0M00
0000
0000
1000
0000
0000
0000
0001
0000
0000
0000
,  // measure 60
0010
0000
0011
0000
0010
0001
1000
0001
,  // measure 61
0100
0000
0101
0000
0100
0001
0010
0000
,  // measure 62
0001
0010
0001
0000
1000
0010
1000
0000
,  // measure 63
0100
0010
0100
0000
1001
0000
0000
0000
,  // measure 64
0001
0000
0000
0000
0100
0000
0000
0000
0001
0000
0000
0000
0100
0000
0000
0000
0000
0M00
0000
0000
1000
0000
0000
0000
0010
0000
0000
0000
0100
0000
0000
0000
,  // measure 65
0001
0000
0100
0001
0010
0000
0011
0000
,  // measure 66
1000
0000
0000
0000
0100
0000
0000
0000
1000
0000
0000
0000
0100
0000
0000
0000
0000
0M00
0000
0000
0001
0000
0000
0000
0010
0000
0000
0000
0100
0000
0000
0000
,  // measure 67
1000
0000
0100
1000
0010
0000
1010
0000
,  // measure 68
0001
0010
1000
0000
0011
0000
1000
0000
,  // measure 69
1000
0010
0001
0000
1010
0000
0001
0000
,  // measure 70
0001
1000
0100
0000
1000
0001
0100
0000
,  // measure 71
0220
0000
0330
0000
,  // measure 72
0001
0000
0001
0000
1000
0100
1000
0000
,  // measure 73
1000
0100
1000
0000
0001
0000
0000
0000
,  // measure 74
1000
0000
1000
0000
0001
0100
0001
0000
,  // measure 75
1000
0001
0010
0000
,  // measure 76
0100
0000
0100
0000
0010
0001
0100
0000
,  // measure 77
0010
1000
0100
0000
0010
0000
0001
0000
,  // measure 78
0011
1100
1010
0101
,  // measure 79
1000
0010
0100
0001
0010
0000
1000
0000
;

//---------------dance-single - ----------------
#NOTEDATA:;
#CHARTNAME:;
#STEPSTYPE:dance-single;
#DESCRIPTION:;
#CHARTSTYLE:;
#DIFFICULTY:Medium;
#METER:8;
#RADARVALUES:0.380952,0.429730,0.333333,0.045045,0.000000,296.000000,259.000000,37.000000,5.000000,0.000000,0.000000,0.000000,0.000000,0.000000,0.380952,0.429730,0.333333,0.045045,0.000000,296.000000,259.000000,37.000000,5.000000,0.000000,0.000000,0.000000,0.000000,0.000000;
#CREDIT:;
#NOTES:
// measure 0
0000
0000
0000
0000
,  // measure 1
0000
0000
0000
0000
,  // measure 2
0000
0000
0000
0000
,  // measure 3
0000
0000
0000
0000
,  // measure 4
1000
1000
0100
0100
,  // measure 5
0010
0010
0001
0001
,  // measure 6
0100
0010
1000
0100
,  // measure 7
0022
0000
0033
0000
,  // measure 8
0001
0001
0010
0100
,  // measure 9
0010
0100
1000
0000
,  // measure 10
0001
0001
0010
0100
,  // measure 11
0010
0110
1001
0000
,  // measure 12
1000
1000
0010
0100
,  // measure 13
0010
0100
0001
0000
,  // measure 14
0010
0010
1001
1001
,  // measure 15
0010
0100
1001
0000
,  // measure 16
1000
0100
0010
0000
,  // measure 17
0001
0010
0001
1001
,  // measure 18
0001
0100
0010
0000
,  // measure 19
1000
0010
1000
1001
,  // measure 20
1000
0100
0010
0000
,  // measure 21
0001
0100
0010
1000
,  // measure 22
0001
0001
1000
1000
,  // measure 23
0100
0010
0001
0000
,  // measure 24
1000
1000
0010
1000
,  // measure 25
0100
1000
0010
0000
,  // measure 26
1000
1000
0010
1000
,  // measure 27
0100
0110
1001
0000
,  // measure 28
0001
0001
0010
0001
,  // measure 29
0100
0001
0010
0000
,  // measure 30
0100
0100
1001
1001
,  // measure 31
0010
0100
1001
0000
,  // measure 32
1000
0000
1000
0000
,  // measure 33
1000
0000
1000
0110
,  // measure 34
0001
0000
0001
0000
,  // measure 35
0001
0000
0001
0110
,  // measure 36
1000
1000
0001
0001
,  // measure 37
1000
0100
0010
0001
,  // measure 38
0100
0010
0100
0010
,  // measure 39
0110
0000
0000
0000
,  // measure 40
0001
0010
1000
0010
,  // measure 41
0001
0011
0011
0000
,  // measure 42
0001
0100
1000
0100
,  // measure 43
0001
0101
0101
0000
,  // measure 44
0001
0001
0010
0100
,  // measure 45
1000
1000
0010
0100
,  // measure 46
0001
0001
1000
1000
,  // measure 47
1100
0101
1100
0000
,  // measure 48
0001
0010
0001
0010
,  // measure 49
0100
1000
0001
0000
,  // measure 50
1000
0010
1000
0010
,  // measure 51
0100
0001
1000
0000
,  // measure 52
0001
0010
1100
0000
,  // measure 53
1000
0010
0101
0000
,  // measure 54
0001
0010
0100
1000
,  // measure 55
0002
1000
1003
0000
,  // measure 56
1000
0010
0001
0010
,  // measure 57
1000
1010
1010
0000
,  // measure 58
1000
0100
0001
0100
,  // measure 59
1000
1100
1100
0000
,  // measure 60
1000
1000
0010
1010
,  // measure 61
0001
0001
0010
0011
,  // measure 62
1000
1000
0001
0001
,  // measure 63
0100
0010
1001
0000
,  // measure 64
1000
0010
1000
0010
,  // measure 65
1000
0100
0010
0011
,  // measure 66
0001
0010
0001
0010
,  // measure 67
0001
0100
0010
1010
,  // measure 68
0001
0010
1100
0000
,  // measure 69
1000
0010
0101
0000
,  // measure 70
1000
0100
0010
0001
,  // measure 71
2002
0000
3003
0000
,  // measure 72
1000
0001
0010
0000
,  // measure 73
0010
0001
1000
0000
,  // measure 74
0001
1000
0010
0000
,  // measure 75
0100
0001
0010
0000
,  // measure 76
0001
0001
0100
0100
,  // measure 77
0010
0010
1000
1000
,  // measure 78
0001
0010
1000
0010
,  // measure 79
0001
0100
1000
0000
;

//---------------dance-single - ----------------
#NOTEDATA:;
#CHARTNAME:;
#STEPSTYPE:dance-single;
#DESCRIPTION:;
#CHARTSTYLE:;
#DIFFICULTY:Easy;
#METER:5;
#RADARVALUES:0.256113,0.286486,0.063063,0.018018,0.000000,199.000000,192.000000,7.000000,2.000000,0.000000,0.000000,0.000000,0.000000,0.000000,0.256113,0.286486,0.063063,0.018018,0.000000,199.000000,192.000000,7.000000,2.000000,0.000000,0.000000,0.000000,0.000000,0.000000;
#CREDIT:;
#NOTES:
// measure 0
0000
0000
0000
0000
,  // measure 1
0000
0000
0000
0000
,  // measure 2
0000
0000
0000
0000
,  // measure 3
0000
0000
0000
0000
,  // measure 4
1000
0000
0100
0000
,  // measure 5
0010
0000
0001
0000
,  // measure 6
0100
0000
0010
0000
,  // measure 7
1000
0000
0000
0000
,  // measure 8
0001
0000
0001
0000
,  // measure 9
0001
0001
0001
0000
,  // measure 10
1000
0000
1000
0000
,  // measure 11
0100
1000
0010
0000
,  // measure 12
1000
0000
1000
0000
,  // measure 13
1000
1000
1000
0000
,  // measure 14
0010
1000
0100
0000
,  // measure 15
0010
0001
0100
0000
,  // measure 16
0010
0010
0010
0000
,  // measure 17
0010
1000
0100
0000
,  // measure 18
0010
0010
0010
0000
,  // measure 19
0010
0001
0100
0000
,  // measure 20
0010
0010
0010
0000
,  // measure 21
1000
0100
0010
0000
,  // measure 22
1001
0000
1001
0000
,  // measure 23
0001
0100
0010
0000
,  // measure 24
1000
0000
1000
0000
,  // measure 25
1000
1000
1000
0000
,  // measure 26
0001
0000
0001
0000
,  // measure 27
0100
0001
0010
0000
,  // measure 28
0001
0000
0001
0000
,  // measure 29
0001
0001
0001
0000
,  // measure 30
0010
0001
0100
0000
,  // measure 31
0010
1000
0100
0000
,  // measure 32
0010
0000
0000
0000
,  // measure 33
0000
0000
0000
1001
,  // measure 34
0100
0000
0000
0000
,  // measure 35
0000
0000
0000
1001
,  // measure 36
1000
0000
0001
0000
,  // measure 37
1000
0000
0001
0000
,  // measure 38
0100
0010
0100
0000
,  // measure 39
0110
0000
0000
0000
,  // measure 40
1000
1000
1000
1000
,  // measure 41
0010
0000
0010
0000
,  // measure 42
1000
1000
1000
1000
,  // measure 43
0100
0000
0100
0000
,  // measure 44
1000
1000
0010
0000
,  // measure 45
1000
1000
0100
0000
,  // measure 46
0010
0100
0010
0100
,  // measure 47
0010
0000
0001
0000
,  // measure 48
1000
1000
1000
0000
,  // measure 49
0010
1000
0001
0000
,  // measure 50
1000
1000
1000
0000
,  // measure 51
0100
0010
0001
0000
,  // measure 52
1000
0010
1000
0000
,  // measure 53
0001
0010
0001
0000
,  // measure 54
1000
0001
1000
0001
,  // measure 55
2000
0000
3000
0000
,  // measure 56
0001
0001
0001
0001
,  // measure 57
0010
0000
0010
0000
,  // measure 58
0001
0001
0001
0001
,  // measure 59
0100
0000
0100
0000
,  // measure 60
0001
0001
0010
0000
,  // measure 61
0001
0001
0100
0000
,  // measure 62
0010
0100
0010
0100
,  // measure 63
0010
0000
1000
0000
,  // measure 64
0001
0001
0001
0000
,  // measure 65
0010
0001
0100
0000
,  // measure 66
1000
1000
1000
0000
,  // measure 67
0010
1000
0100
0000
,  // measure 68
0001
0010
0001
0000
,  // measure 69
1000
0010
1000
0000
,  // measure 70
0001
1000
0001
1000
,  // measure 71
0200
0000
0300
0000
,  // measure 72
0000
0000
0000
0000
,  // measure 73
0000
0000
0000
0100
,  // measure 74
0100
0000
0000
0000
,  // measure 75
0000
0000
0000
0100
,  // measure 76
1001
0000
1001
0000
,  // measure 77
0001
1000
0001
0000
,  // measure 78
0100
0001
0010
0000
,  // measure 79
0100
1000
0010
0000
;

//---------------dance-single - ----------------
#NOTEDATA:;
#CHARTNAME:;
#STEPSTYPE:dance-single;
#DESCRIPTION:;
#CHARTSTYLE:;
#DIFFICULTY:Beginner;
#METER:2;
#RADARVALUES:0.122265,0.143243,0.000000,0.018018,0.000000,95.000000,95.000000,0.000000,2.000000,0.000000,0.000000,0.000000,0.000000,0.000000,0.122265,0.143243,0.000000,0.018018,0.000000,95.000000,95.000000,0.000000,2.000000,0.000000,0.000000,0.000000,0.000000,0.000000;
#CREDIT:;
#NOTES:
// measure 0
0000
0000
0000
0000
,  // measure 1
0000
0000
0000
0000
,  // measure 2
0000
0000
0000
0000
,  // measure 3
0000
0000
0000
0000
,  // measure 4
1000
0000
0000
0000
,  // measure 5
0100
0000
0000
0000
,  // measure 6
0010
0000
0000
0000
,  // measure 7
0001
0000
0000
0000
,  // measure 8
1000
0000
1000
0000
,  // measure 9
1000
0000
0000
0000
,  // measure 10
1000
0000
1000
0000
,  // measure 11
0010
0000
0000
0000
,  // measure 12
1000
0000
1000
0000
,  // measure 13
1000
0000
0000
0000
,  // measure 14
0010
0000
0100
0000
,  // measure 15
0001
0000
0000
0000
,  // measure 16
0010
0000
0000
0000
,  // measure 17
0100
0000
0000
0000
,  // measure 18
1000
0000
0000
0000
,  // measure 19
0001
0000
0000
0000
,  // measure 20
0100
0000
0000
0000
,  // measure 21
0010
0000
0000
0000
,  // measure 22
1000
0000
0001
0000
,  // measure 23
1000
0000
0000
0000
,  // measure 24
0001
0000
0001
0000
,  // measure 25
0001
0000
0000
0000
,  // measure 26
0001
0000
0001
0000
,  // measure 27
0010
0000
0000
0000
,  // measure 28
0001
0000
0001
0000
,  // measure 29
0001
0000
0000
0000
,  // measure 30
0010
0000
0100
0000
,  // measure 31
1000
0000
0000
0000
,  // measure 32
0010
0000
0000
0000
,  // measure 33
0000
0000
0000
0000
,  // measure 34
0100
0000
0000
0000
,  // measure 35
0000
0000
0000
0000
,  // measure 36
0001
0000
0000
0000
,  // measure 37
1000
0000
0000
0000
,  // measure 38
0100
0000
0100
0000
,  // measure 39
0100
0000
0000
0000
,  // measure 40
0010
0000
0001
0000
,  // measure 41
1000
0000
0000
0000
,  // measure 42
1000
0000
0001
0000
,  // measure 43
0100
0000
0000
0000
,  // measure 44
0010
0000
0000
0000
,  // measure 45
0100
0000
0000
0000
,  // measure 46
0010
0000
0010
0000
,  // measure 47
0010
0000
0000
0000
,  // measure 48
1000
0000
0000
0000
,  // measure 49
0100
0000
0010
0000
,  // measure 50
0001
0000
0000
0000
,  // measure 51
0100
0000
0010
0000
,  // measure 52
1000
0000
0000
0000
,  // measure 53
0001
0000
0000
0000
,  // measure 54
0010
0000
0100
0000
,  // measure 55
2000
0000
3000
0000
,  // measure 56
0010
0000
1000
0000
,  // measure 57
0001
0000
0000
0000
,  // measure 58
0001
0000
1000
0000
,  // measure 59
0100
0000
0000
0000
,  // measure 60
0010
0000
0000
0000
,  // measure 61
0001
0000
0000
0000
,  // measure 62
1000
0000
0010
0000
,  // measure 63
0100
0000
0000
0000
,  // measure 64
0001
0000
0000
0000
,  // measure 65
0100
0000
0001
0000
,  // measure 66
0010
0000
0000
0000
,  // measure 67
0100
0000
1000
0000
,  // measure 68
0010
0000
0000
0000
,  // measure 69
1000
0000
0000
0000
,  // measure 70
0001
0000
1000
0000
,  // measure 71
0200
0000
0300
0000
,  // measure 72
0000
0000
0000
0000
,  // measure 73
0000
0000
0000
0000
,  // measure 74
0100
0000
0000
0000
,  // measure 75
0000
0000
0000
0000
,  // measure 76
1000
0000
0000
0000
,  // measure 77
0001
0000
0000
0000
,  // measure 78
1000
0000
0100
0000
,  // measure 79
0010
0000
0001
0000
;
