#VERSION:0.83;
#TITLE:Technicians High;
#SUBTITLE:;
#ARTIST:HiTECH NINJA;
#TITLETRANSLIT:;
#SUBTITLETRANSLIT:;
#ARTISTTRANSLIT:;
#GENRE:;
#ORIGIN:;
#CREDIT:;
#BANNER:bn.png;
#BACKGROUND:bg.png;
#PREVIEWVID:;
#JACKET:jkt.png;
#CDIMAGE:;
#DISCIMAGE:;
#LYRICSPATH:;
#CDTITLE:;
#MUSIC:audio.ogg;
#OFFSET:-0.733000;
#SAMPLESTART:24.010000;
#SAMPLELENGTH:11.980000;
#SELECTABLE:YES;
#BPMS:0.000=165.000;
#STOPS:;
#DELAYS:;
#WARPS:;
#TIMESIGNATURES:0.000=4=4;
#TICKCOUNTS:0.000=4;
#COMBOS:0.000=1;
#SPEEDS:0.000=0.500=0.000=0,
15.000=0.790=0.250=0,
15.250=0.912=0.250=0,
15.500=0.963=0.250=0,
15.750=0.985=0.250=0,
16.000=0.994=0.250=0,
16.250=0.998=0.250=0,
16.500=0.999=0.250=0,
16.750=1.000=0.250=0,
28.250=0.999=0.250=0,
28.500=0.997=0.250=0,
28.750=0.994=0.250=0,
29.000=0.988=0.250=0,
29.250=0.979=0.250=0,
29.500=0.967=0.250=0,
29.750=0.950=0.250=0,
30.000=0.933=0.250=0,
30.250=0.921=0.250=0,
30.500=0.912=0.250=0,
30.750=0.906=0.250=0,
31.000=0.903=0.250=0,
31.250=0.901=0.250=0,
31.500=0.900=0.250=0,
60.000=0.702=0.250=0,
60.250=0.553=0.250=0,
60.500=0.446=0.250=0,
60.750=0.375=0.250=0,
61.000=0.332=0.250=0,
61.250=0.309=0.250=0,
61.500=0.301=0.250=0,
61.750=0.300=0.250=0,
62.000=0.301=0.250=0,
62.250=0.311=0.250=0,
62.500=0.337=0.250=0,
62.750=0.387=0.250=0,
63.000=0.471=0.250=0,
63.250=0.595=0.250=0,
63.500=0.769=0.250=0,
63.750=1.000=0.250=0,
94.000=0.999=0.250=0,
94.250=0.995=0.250=0,
94.500=0.984=0.250=0,
94.750=0.962=0.250=0,
95.000=0.927=0.250=0,
95.250=0.873=0.250=0,
95.500=0.799=0.250=0,
95.750=0.700=0.250=0,
136.000=0.601=0.250=0,
136.250=0.527=0.250=0,
136.500=0.473=0.250=0,
136.750=0.438=0.250=0,
137.000=0.416=0.250=0,
137.250=0.405=0.250=0,
137.500=0.401=0.250=0,
137.750=0.400=0.250=0,
140.000=0.438=0.188=0,
140.188=0.475=0.188=0,
140.375=0.512=0.188=0,
140.562=0.550=0.188=0,
140.750=0.587=0.188=0,
140.938=0.625=0.188=0,
141.125=0.663=0.188=0,
141.312=0.700=0.188=0,
141.500=0.738=0.188=0,
141.688=0.775=0.188=0,
141.875=0.812=0.188=0,
142.062=0.850=0.188=0,
142.250=0.887=0.188=0,
142.438=0.925=0.188=0,
142.625=0.962=0.188=0,
142.812=1.000=0.188=0,
254.000=0.950=0.500=0,
254.500=0.900=0.500=0,
255.000=0.850=0.500=0,
255.500=0.800=0.500=0,
264.000=0.875=1.750=0,
265.750=0.950=1.750=0,
267.500=1.025=1.750=0,
269.250=1.100=1.750=0,
271.000=1.042=0.250=0,
271.250=1.013=0.250=0,
271.500=1.002=0.250=0,
271.750=1.000=0.250=0,
286.250=0.999=0.250=0,
286.500=0.997=0.250=0,
286.750=0.994=0.250=0,
287.000=0.988=0.250=0,
287.250=0.979=0.250=0,
287.500=0.967=0.250=0,
287.750=0.950=0.250=0,
288.000=0.933=0.250=0,
288.250=0.921=0.250=0,
288.500=0.912=0.250=0,
288.750=0.906=0.250=0,
289.000=0.903=0.250=0,
289.250=0.901=0.250=0,
289.500=0.900=0.250=0,
316.000=0.668=0.375=0,
316.375=0.570=0.375=0,
316.750=0.529=0.375=0,
317.125=0.512=0.375=0,
317.500=0.505=0.375=0,
317.875=0.502=0.375=0,
318.250=0.501=0.375=0,
318.625=0.500=0.375=0,
319.000=0.995=0.125=0,
319.125=1.367=0.125=0,
319.250=1.634=0.125=0,
319.375=1.812=0.125=0,
319.500=1.921=0.125=0,
319.625=1.977=0.125=0,
319.750=1.997=0.125=0,
319.875=2.000=0.125=0;
#SCROLLS:0.000=1.000,
112.000=2.241,
112.125=1.670,
112.250=1.262,
112.375=0.988,
112.500=0.821,
112.625=0.736,
112.750=0.704,
112.875=0.700,
113.500=2.241,
113.625=1.670,
113.750=1.262,
113.875=0.988,
114.000=0.821,
114.125=0.736,
114.250=0.704,
114.375=0.700,
115.000=2.241,
115.125=1.670,
115.250=1.262,
115.375=0.988,
115.500=0.821,
115.625=0.736,
115.750=0.704,
115.875=0.700,
116.500=2.241,
116.625=1.670,
116.750=1.262,
116.875=0.988,
117.000=0.821,
117.125=0.736,
117.250=0.704,
117.375=0.700,
118.000=2.241,
118.125=1.670,
118.250=1.262,
118.375=0.988,
118.500=0.821,
118.625=0.736,
118.750=0.704,
118.875=0.700,
119.500=2.241,
119.625=1.670,
119.750=1.262,
119.875=0.988,
120.000=0.821,
120.125=0.736,
120.250=0.704,
120.375=0.700,
121.000=2.241,
121.125=1.670,
121.250=1.262,
121.375=0.988,
121.500=0.821,
121.625=0.736,
121.750=0.704,
121.875=0.700,
123.000=2.241,
123.125=1.670,
123.250=1.262,
123.375=0.988,
123.500=0.821,
123.625=0.736,
123.750=0.704,
123.875=0.700,
125.000=2.241,
125.125=1.670,
125.250=1.262,
125.375=0.988,
125.500=0.821,
125.625=0.736,
125.750=0.704,
125.875=0.700,
127.000=2.241,
127.125=1.670,
127.250=1.262,
127.375=0.988,
127.500=0.821,
127.625=0.736,
127.750=0.704,
127.875=0.700,
128.000=2.241,
128.125=1.670,
128.250=1.262,
128.375=0.988,
128.500=0.821,
128.625=0.736,
128.750=0.704,
128.875=0.700,
129.500=2.241,
129.625=1.670,
129.750=1.262,
129.875=0.988,
130.000=0.821,
130.125=0.736,
130.250=0.704,
130.375=0.700,
131.000=2.241,
131.125=1.670,
131.250=1.262,
131.375=0.988,
131.500=0.821,
131.625=0.736,
131.750=0.704,
131.875=0.700,
132.500=2.241,
132.625=1.670,
132.750=1.262,
132.875=0.988,
133.000=0.821,
133.125=0.736,
133.250=0.704,
133.375=0.700,
134.000=2.241,
134.125=1.670,
134.250=1.262,
134.375=0.988,
134.500=0.821,
134.625=0.736,
134.750=0.704,
134.875=0.700,
135.000=2.241,
135.125=1.670,
135.250=1.262,
135.375=0.988,
135.500=0.821,
135.625=0.736,
135.750=0.704,
135.875=0.700,
136.000=2.340,
136.250=1.844,
136.500=1.488,
136.750=1.250,
137.000=1.105,
137.250=1.031,
137.500=1.004,
137.750=1.000;
#FAKES:;
#LABELS:0.000=Song Start;
#BGCHANGES:;
#FGCHANGES:0.000=lua=1.000=0=0=1=====,
;
#KEYSOUNDS:;
#ATTACKS:
;

//---------------dance-single - TaroNuke----------------
#NOTEDATA:;
#CHARTNAME:TaroNuke;
#STEPSTYPE:dance-single;
#DESCRIPTION:TaroNuke;
#CHARTSTYLE:;
#DIFFICULTY:Beginner;
#METER:3;
#RADARVALUES:0.142974,0.192345,0.054732,0.211111,0.000000,128.000000,121.000000,7.000000,27.000000,0.000000,0.000000,0.000000,0.000000,0.000000,0.142974,0.192345,0.054732,0.211111,0.000000,128.000000,121.000000,7.000000,27.000000,0.000000,0.000000,0.000000,0.000000,0.000000;
#CREDIT:TaroNuke;
#OFFSET:-0.733000;
#BPMS:0.000000=165.000000
;
#STOPS:;
#DELAYS:;
#WARPS:;
#TIMESIGNATURES:0.000000=4=4
;
#TICKCOUNTS:0.000000=4
;
#COMBOS:0.000000=1
;
#SPEEDS:0.000000=1.000000=0.000000=0
;
#SCROLLS:0.000000=1.000000
;
#FAKES:;
#LABELS:0.000000=Song Start
;
#NOTES:
0000
0000
0000
0000
,
0000
0000
0000
0000
,
0000
0000
0000
0000
,
0000
0000
0000
0000
,
1000
0000
1000
0000
,
0001
0000
0001
0000
,
0100
0000
0100
0000
,
0010
0000
0010
0000
,
1000
0000
0000
0000
,
1000
0000
0000
0000
,
0001
0000
0000
0000
,
0001
0000
0000
0000
,
0100
0000
0000
0000
,
0100
0000
0000
0000
,
0010
0000
0000
0000
,
0000
0000
0000
0000
,
2000
0000
3000
0000
,
0002
0000
0003
0000
,
0200
0000
0300
0000
,
0010
0010
0010
0000
,
2000
0000
3000
0000
,
0002
0000
0003
0000
,
0020
0000
0030
0000
,
0100
0100
0100
0000
,
1000
0000
0000
0000
,
1000
0000
0000
0000
,
0001
0000
0000
0000
,
0001
0000
0000
0000
,
1000
0000
0000
1000
,
0000
0000
0001
0000
,
0000
1001
0000
0000
,
0000
1001
0000
0000
,
0001
0000
0000
0001
,
0000
0000
0100
0100
,
0100
0000
0000
0000
,
0002
0000
0000
0003
,
2000
0000
3002
0000
,
0103
0100
0100
0000
,
0002
0000
2003
0000
,
3100
0100
0100
0000
,
0020
0000
0032
0000
,
0103
0100
0100
0000
,
0020
0000
2030
0000
,
3100
0100
0100
0000
,
2000
0000
3002
0000
,
0013
0100
0010
0000
,
0002
0000
2003
0000
,
3010
0100
0010
0000
,
2000
0000
3010
0000
,
0002
0000
0013
0000
,
2000
0000
3100
0000
,
0002
0000
0103
0000
,
1000
0000
0010
0000
,
0100
0000
0001
0000
,
0010
0000
0100
0000
,
2000
0000
3002
0000
,
1003
0000
0000
0000
0000
0000
0000
1001
,
0000
0000
0000
0000
,
0100
0000
0000
0000
0000
0000
0000
0110
,
0000
0000
0000
0000
,
0001
0000
0000
0000
0000
0000
0000
1001
,
0000
0000
0000
0000
,
0010
0000
0000
0000
0000
0000
0000
0110
,
0000
0000
0000
0000
,
1000
0000
0100
0000
,
0010
0010
0010
0000
,
0001
0000
0100
0000
,
0010
0000
1000
0000
,
0001
0000
0001
0000
,
1000
0000
1000
0000
,
0100
0000
0100
0000
,
0010
0000
0010
0000
,
0001
0000
0000
0000
,
0001
0000
0000
0000
,
1000
0000
0000
0000
,
1000
0000
0000
0000
,
0100
0000
0000
0000
,
0100
0000
0000
0000
,
0010
0000
0000
0000
,
0000
0000
0000
0000
,
2002
0000
0000
0000
,
0000
0000
0000
0000
,
3003
0000
0000
0000
;

//---------------dance-single - TaroNuke----------------
#NOTEDATA:;
#CHARTNAME:TaroNuke;
#STEPSTYPE:dance-single;
#DESCRIPTION:TaroNuke;
#CHARTSTYLE:;
#DIFFICULTY:Easy;
#METER:7;
#RADARVALUES:0.306055,0.384691,0.211111,0.250205,0.000000,274.000000,247.000000,27.000000,32.000000,0.000000,0.000000,0.000000,0.000000,0.000000,0.306055,0.384691,0.211111,0.250205,0.000000,274.000000,247.000000,27.000000,32.000000,0.000000,0.000000,0.000000,0.000000,0.000000;
#CREDIT:TaroNuke;
#NOTES:
0000
0000
0000
0000
,
0000
0000
0000
0000
,
0000
0000
0000
0000
,
0000
0000
0000
0000
,
1000
0001
1000
0001
,
0100
0010
0100
0010
,
1000
0000
0001
0000
,
1000
0001
1001
0000
,
1000
0001
1000
0000
,
1000
0001
1000
0000
,
0001
1000
0001
0000
,
0001
1000
0001
0000
,
0100
0010
0100
0000
,
0100
0010
0100
0000
,
0010
0100
0010
0000
,
0000
0000
0000
0000
,
2000
3002
0103
0100
,
0002
2003
3100
0100
,
2000
3002
0103
0100
,
0001
1000
0001
0000
0010
0000
0100
0000
,
2000
3200
0310
0010
,
0002
0203
0310
0010
,
2000
3200
0310
0010
,
0001
0000
1000
0000
0010
0100
0010
0000
,
2000
0000
3010
0000
,
0002
0000
0013
0000
,
2000
0000
3100
0000
,
0002
0000
0103
0000
,
1000
0000
0000
1000
0000
0000
0001
0000
,
0000
0001
0000
0000
0100
0000
0000
0100
,
0000
0110
0000
1001
,
0000
0110
0000
1001
,
0001
0000
0000
0001
0000
0000
1000
0000
,
0000
1000
0000
0000
0001
0000
1000
0000
,
1001
0000
0000
0000
,
0002
0000
0000
0003
,
1000
1000
0001
0001
,
0100
0010
0100
0000
1001
0000
0000
0000
,
0001
0001
1000
1000
,
0100
0010
0100
0000
1001
0000
0000
0000
,
0001
0100
1000
0100
,
0001
1000
0001
0000
1001
0000
0000
0000
,
1000
0100
0001
0100
,
1000
0001
1000
0000
0110
0000
0000
0000
,
0001
0001
1000
1000
,
0100
0010
0100
0000
1001
0000
0000
0000
,
1000
1000
0001
0001
,
0100
0010
0100
0000
1001
0000
0000
0000
,
0002
1003
0010
0110
,
2000
3001
0010
0110
,
0002
1003
0100
0110
,
0001
0000
1000
0000
0010
0100
0010
0000
,
2000
3002
2003
3100
,
0002
2003
3002
0103
,
1000
1000
0001
0001
,
0200
0000
0310
0000
,
0001
0000
1000
0000
0001
0000
0000
0110
,
0000
0001
0001
1000
,
1000
0000
0001
0000
1000
0000
0000
0110
,
0000
1001
0000
0000
,
0001
0000
1000
0000
0001
0000
0000
0110
,
0000
0000
1000
0010
1000
0000
0001
0010
,
0001
0000
0100
0000
0010
0000
0000
1001
,
0000
1001
1001
0000
,
0001
0000
0010
0000
,
0100
1000
1001
0000
,
2000
0000
3020
0000
,
0230
0000
0301
0000
,
1000
0010
0100
0001
,
0010
0100
1000
0001
,
1001
0000
0110
0000
,
1000
0001
1001
0000
,
0001
1000
0001
1000
,
0001
1000
0001
0000
,
1000
0001
1000
0001
,
1000
0001
1000
0000
,
0100
0010
0100
0010
,
0100
0010
0100
0000
,
0010
0100
0010
0000
,
0000
0000
0000
0000
,
2002
0000
0000
0000
,
0000
0000
0000
0000
,
3003
0000
0000
0000
;

//---------------dance-single - TaroNuke----------------
#NOTEDATA:;
#CHARTNAME:TaroNuke;
#STEPSTYPE:dance-single;
#DESCRIPTION:TaroNuke;
#CHARTSTYLE:;
#DIFFICULTY:Medium;
#METER:11;
#RADARVALUES:0.394297,0.512921,0.156378,0.273662,0.074280,353.000000,333.000000,20.000000,35.000000,0.000000,0.000000,0.000000,0.000000,0.000000,0.394297,0.512921,0.156378,0.273662,0.074280,353.000000,333.000000,20.000000,35.000000,0.000000,0.000000,0.000000,0.000000,0.000000;
#CREDIT:TaroNuke;
#NOTES:
0000
0000
0000
0000
,
0000
0000
0000
0000
,
0000
0000
0000
0000
,
0000
0000
0000
0000
,
1000
0100
1000
0000
1000
0100
1000
0000
,
0001
0100
0001
0000
0001
0100
0001
0000
,
1100
0000
0101
0000
,
1001
1001
1001
0000
,
1000
0001
1000
0001
,
1000
1000
1000
0000
,
0001
1000
0001
1000
,
0001
0001
0001
0000
,
0100
0010
0100
0010
,
0100
0100
0100
0000
,
0010
0100
0010
0010
,
0000
0000
0000
0000
,
2000
3200
0320
0000
0031
0100
0001
0000
,
2000
3020
0230
0000
0301
0010
0001
0000
,
2000
3200
0320
0000
0031
1000
0001
0000
,
1000
0010
0100
0001
0010
0100
1000
0000
,
0002
0203
0320
0000
1030
0100
1000
0000
,
0002
0023
0230
0000
1300
0010
1000
0000
,
0002
0203
0320
0000
1030
0001
1000
0000
,
0100
0010
0100
0010
0001
1000
0002
0000
,
1003
0000
1100
0000
,
0001
0000
0000
0100
0000
0000
0010
0000
1000
0000
0000
0000
0000
0000
0000
0000
,
0001
0000
0101
0000
,
1000
0000
0000
0100
0000
0000
0010
0000
0001
0000
0000
0000
0000
0000
0000
0000
,
1000
0000
0000
0010
0000
0000
0100
0000
,
0000
0001
0000
0000
1000
0000
0000
0001
,
0000
1001
0000
1100
,
0000
1001
0000
0101
,
0001
0000
0000
0010
0000
0000
0100
0000
,
0000
1000
0000
0000
0001
0000
1000
0000
,
1001
0000
0000
0000
,
0002
0000
0000
0003
,
1000
0000
0000
0100
0000
0000
1000
0000
0001
0000
0000
0100
0000
0000
0001
0000
,
1000
0100
0010
0001
1000
0000
1001
0000
,
0001
0000
0000
0100
0000
0000
0001
0000
0010
0000
0000
0100
0000
0000
1000
0000
,
0001
0100
0010
0100
0001
0000
1001
0000
,
1000
0100
1000
0100
0010
0001
0010
0001
,
1000
0010
1000
0010
0100
0000
0000
0000
,
0001
0000
0010
0100
1000
0000
0010
0100
,
0002
0010
0100
1003
,
0001
0000
0000
0100
0000
0000
0001
0000
1000
0000
0000
0100
0000
0000
1000
0000
,
0001
0100
0010
1000
0001
0000
1001
0000
,
1000
0000
0000
0100
0000
0000
1000
0000
0010
0000
0000
0100
0000
0000
0001
0000
,
1000
0100
0010
0100
1000
0000
1001
0000
,
2000
0000
3001
0000
0100
0010
0100
0000
,
0002
0000
1003
0000
0100
0010
0100
0000
,
2000
0000
3001
0000
0100
0010
0100
0000
,
0002
0000
1003
0000
0100
0010
0100
0010
,
0002
0100
2003
0100
,
3002
0010
2003
0010
,
3001
0000
0000
0001
0000
0000
0001
0000
0100
0000
0000
0100
0000
0000
0100
0000
,
0020
0000
2030
0000
,
3001
0000
0000
0000
1000
0000
0000
0000
0001
0000
0000
0010
0000
0000
0200
0000
,
0000
0300
0010
0000
0001
0000
1000
0000
0010
0000
0000
0000
1010
0000
0000
0000
,
1000
0000
0000
0000
0001
0000
0000
0000
1000
0000
0000
0001
0000
0000
0010
0000
,
0000
0100
0100
0000
0000
0000
0000
0000
,
1000
0000
0000
0000
0001
0000
0000
0000
1000
0000
0000
0010
0000
0000
0200
0000
,
0000
0300
0010
0000
1000
0000
0001
0000
0010
0000
0000
0000
0011
0000
0000
0000
,
0001
0000
0000
0000
1000
0000
0000
0000
0010
0000
0000
0100
0000
0000
0001
0000
,
0000
0010
0010
0000
0001
1000
0001
1000
,
0001
0000
1000
0000
,
0010
0010
0010
0000
,
1000
0000
0000
0100
0000
0000
0100
0000
0010
0000
0000
0001
0000
0000
0001
0000
,
0100
0000
0000
0010
0000
0000
0010
0000
1000
0000
0000
0000
0000
0000
0000
0000
,
0001
0100
0001
1000
0001
0100
0001
0000
,
1000
0100
1000
0001
1000
0100
1000
0000
,
0001
0100
0010
1000
0010
0100
0001
0000
,
1000
0001
1001
0000
,
0001
1000
0001
1000
,
0001
0001
0001
0000
,
1000
0001
1000
0001
,
1000
1000
1000
0000
,
0100
0010
0100
0010
,
0100
0100
0100
0000
,
0010
0100
0010
0010
,
0000
0000
0000
0000
,
2002
0000
0000
0000
,
0000
0000
0000
0000
,
3003
0000
0000
0000
;

//---------------dance-single - TaroNuke----------------
#NOTEDATA:;
#CHARTNAME:TaroNuke;
#STEPSTYPE:dance-single;
#DESCRIPTION:TaroNuke;
#CHARTSTYLE:;
#DIFFICULTY:Hard;
#METER:14;
#RADARVALUES:0.575249,0.673209,0.242386,0.297119,0.340123,515.000000,484.000000,31.000000,38.000000,0.000000,0.000000,0.000000,0.000000,0.000000,0.575249,0.673209,0.242386,0.297119,0.340123,515.000000,484.000000,31.000000,38.000000,0.000000,0.000000,0.000000,0.000000,0.000000;
#CREDIT:TaroNuke;
#NOTES:
0000
0000
0000
0000
,
0000
0000
0000
0000
,
0000
0000
0000
0000
,
0000
0000
0000
0000
,
0001
0000
1000
0100
0000
0000
0010
0000
0001
0000
1000
0100
0000
0000
0000
0000
,
1000
0000
0001
0100
0000
0000
0010
0000
1000
0000
0001
0100
0000
0000
0000
0000
,
0001
0000
1000
0100
0000
0000
0000
0000
1000
0000
0001
0100
0000
0000
0000
0000
,
1000
0000
0001
0010
0000
0000
0000
0000
0001
0000
1000
0010
0000
0000
0000
0000
,
1000
0000
0000
0000
0001
0000
0000
0000
1000
0000
0000
0001
0000
0000
1000
0000
,
0000
1000
0000
0000
0001
0000
1000
0000
1000
0000
0000
0001
0000
0000
0001
0000
,
0000
0001
0000
0000
1000
0000
1000
0000
0001
0000
1000
0000
0001
0000
0001
0000
,
0000
0001
0000
0000
1000
0000
1000
0000
0001
0000
1000
0000
0001
0000
0000
0000
,
0100
0000
0000
0000
0010
0000
0000
0000
0100
0000
0000
0010
0000
0000
0100
0000
,
0000
0100
0000
0000
0010
0000
0100
0000
0100
0000
0000
0010
0000
0000
0010
0000
,
0000
0010
0000
0000
0100
0000
0100
0000
0010
0000
0100
0000
0010
0000
0010
0000
,
0000
0000
0000
0000
,
2000
0000
3200
0000
0302
0000
0103
0010
0100
0000
1000
0001
1000
0000
0100
0000
,
2000
0000
3020
0000
0032
0000
0013
0100
0010
0000
1000
0001
1000
0000
0010
0000
,
2000
0000
3200
0000
0302
0000
0103
0010
0100
0000
1000
0001
1000
0000
0010
0000
,
0100
0100
0001
0001
0010
0100
1100
0000
,
0002
0000
0203
0000
2300
0000
3100
0010
0100
0000
0001
1000
0001
0000
0100
0000
,
0002
0000
0023
0000
2030
0000
3010
0100
0010
0000
0001
1000
0001
0000
0010
0000
,
0002
0000
0203
0000
2300
0000
3100
0010
0100
0000
0001
1000
0001
0000
0010
0000
,
0100
0100
1000
1000
0001
1000
1001
0000
,
0101
0000
0000
0000
0000
0000
0000
0000
2000
0000
0000
0000
0000
0000
3100
0010
,
0002
0000
0000
0100
0000
0000
0100
0000
1003
0000
0000
0000
0000
0000
0000
0000
,
1100
0000
0000
0000
0000
0000
0000
0000
0002
0000
0000
0000
0000
0000
0103
0010
,
2000
0000
0000
0100
0000
0000
0100
0000
3001
0000
0000
0000
0000
0000
0000
0000
,
1100
0000
0000
0101
0000
0000
1010
0000
,
0000
0011
0000
0000
1001
0000
0000
0110
,
0000
2000
3001
0000
0000
2000
3100
0000
,
0000
0002
1003
0000
0000
0002
0103
0000
,
1100
0000
0000
0011
0000
0000
1010
0000
,
0000
0101
0000
0000
1001
0000
0110
0000
,
1002
0000
0000
0000
,
0203
0000
0000
0301
,
1000
0000
0100
0010
0000
0100
1000
0000
0001
0000
0100
0010
0000
0100
0001
0000
,
1000
0100
0001
0100
1000
0000
0010
0100
,
0001
0000
0010
0100
0000
0010
0001
0000
1000
0000
0010
0001
0000
0010
1000
0000
,
0001
0010
1000
0010
0001
0010
0100
1000
,
0001
0100
0010
0100
1000
0100
0010
0100
,
0001
0000
0010
0000
1000
0000
0010
0000
0011
0000
0000
0001
0100
0000
0010
0000
,
1000
0100
0010
0100
0001
0100
0010
0100
,
1000
0010
0100
0001
0010
0100
1000
0000
,
0001
0000
0100
0010
0000
0100
0001
0000
1000
0000
0100
0010
0000
0100
1000
0000
,
0001
0100
1000
0100
0001
0000
0010
0100
,
1000
0000
0010
0100
0000
0010
1000
0000
0001
0000
0010
1000
0000
0010
0001
0000
,
1000
0010
0001
0010
1000
0100
0010
0100
,
0002
0000
0103
0010
0001
1000
0010
0100
,
2000
0000
3100
0010
1000
0001
0010
0100
,
0002
0000
0103
0010
0001
1000
0010
0100
,
2000
0000
3100
0000
0010
0000
1000
0000
0100
0010
0100
0000
1000
0000
0010
0100
,
0001
0000
0010
0000
1000
0000
0010
0000
0001
0000
1000
0000
0010
0100
0010
0000
,
1000
0000
0010
0000
0001
0000
0010
0000
1000
0000
0001
0000
0010
0100
0010
0000
,
0001
0000
0100
0010
0000
0100
0010
0000
1000
0000
0100
0010
0000
0100
0010
0000
,
0002
0000
0203
0000
,
0310
0000
0000
0000
1000
0000
0000
0000
0100
0000
0000
0010
0000
0000
0002
0000
,
0000
0003
0100
0000
0010
0000
1000
0000
0001
0000
1000
0000
0100
0000
0010
0000
,
0001
0000
0000
0000
0001
0000
0000
0000
0100
0000
0000
0010
0000
0000
0100
0000
,
0000
0001
0001
0000
0000
0000
0000
0000
,
1001
0000
0000
0000
1100
0000
0000
0000
1001
0000
0000
0001
0000
0000
0200
0000
,
0000
0300
0010
0000
1000
0000
0001
0000
0010
0000
0100
0000
1000
0000
0100
0000
,
0010
0000
0000
0000
0001
0000
0000
0000
0100
0000
0000
0010
0000
0000
1000
0000
,
0000
0000
0001
0000
0001
0000
0000
0000
1000
0001
1000
0001
1000
0001
1000
0001
,
1000
0000
0001
0000
,
0110
0110
0110
0000
,
1001
0000
0001
0100
0000
0000
0001
0000
1001
0000
1000
0100
0000
0000
1000
0000
,
1001
0000
0001
0100
0000
0000
0010
0000
1010
0000
1000
0001
0000
0000
0000
0000
,
1000
0000
0100
0010
0000
0100
1000
0000
0001
0000
0100
0010
0000
0100
0001
0000
,
1000
0100
0001
0100
0010
0001
1000
0000
,
0001
0000
0100
0010
1000
0000
0000
0000
0001
0000
0010
0100
1000
0000
0000
0000
,
1100
0000
0000
0000
0101
0000
0000
0000
1000
0000
0100
0010
0000
0100
0010
0000
,
0001
0000
0000
0000
1000
0000
0000
0000
0001
0000
0000
1000
0000
0000
0001
0000
,
0000
0001
0000
0000
1000
0000
0001
0000
0001
0000
0000
1000
0000
0000
1000
0000
,
0000
1000
0000
0000
0001
0000
0001
0000
1000
0000
0001
0000
1000
0000
1000
0000
,
0000
1000
0000
0000
0001
0000
0001
0000
1000
0000
0001
0000
1000
0000
0000
0000
,
0100
0000
0000
0000
0010
0000
0000
0000
0100
0000
0000
0010
0000
0000
0100
0000
,
0000
0100
0000
0000
0010
0000
0100
0000
0100
0000
0000
0010
0000
0000
0010
0000
,
0000
0010
0000
0000
0100
0000
0100
0000
0010
0000
0100
0000
0010
0000
0010
0000
,
0000
0000
0000
0000
,
2002
0000
0000
0000
,
0000
0000
0000
0000
,
3003
0000
0000
0000
;

//---------------dance-single - TaroNuke----------------
#NOTEDATA:;
#CHARTNAME:TaroNuke;
#STEPSTYPE:dance-single;
#DESCRIPTION:TaroNuke;
#CHARTSTYLE:;
#DIFFICULTY:Challenge;
#METER:17;
#RADARVALUES:0.714872,0.897611,0.367489,0.555143,0.652879,640.000000,593.000000,47.000000,71.000000,0.000000,0.000000,1.000000,0.000000,0.000000,0.714872,0.897611,0.367489,0.555143,0.652879,640.000000,593.000000,47.000000,71.000000,0.000000,0.000000,1.000000,0.000000,0.000000;
#CREDIT:TaroNuke;
#NOTES:
0000
0000
0000
0000
,
0000
0000
0000
0000
,
0000
0000
0000
0000
,
0000
0000
0000
0000
,
0001
0010
0100
1000
0000
0000
0001
1000
0001
0100
0010
1000
0002
0000
0100
0000
,
1003
0100
0010
0001
0000
0000
1000
0001
1000
0010
0100
0001
2000
0000
0100
0000
,
3001
0010
0100
1000
0000
0000
0000
0000
1000
0010
0100
0001
0000
0000
0000
0000
,
0101
1100
1001
0000
,
1000
0000
0000
0000
0001
0000
0000
0000
1000
0000
0000
0001
0000
0000
1000
0000
,
0000
1000
0000
0000
0001
0000
1000
0000
1000
0000
0000
0001
0000
0000
0001
0000
,
0000
0001
0000
0000
1000
0000
1000
0000
0001
0000
1000
0000
0001
0000
0001
0000
,
0000
0001
0000
0000
1000
0000
1000
0000
0001
0000
1000
0000
0001
0000
0000
0000
,
0100
0000
0000
0000
0010
0000
0000
0000
0100
0000
0000
0010
0000
0000
0100
0000
,
0000
0100
0000
0000
0010
0000
0100
0000
0100
0000
0000
0010
0000
0000
0010
0000
,
0000
0010
0000
0000
0100
0000
0100
0000
0010
0000
0100
0000
0010
0000
0010
0000
,
0000
0000
0000
0000
,
2000
0000
3200
0000
0302
0000
0103
0010
0100
1000
0001
1000
0010
0000
0100
0000
,
0002
0000
0203
0000
2300
0000
3100
0010
0100
0001
1000
0001
0010
0000
0100
0000
,
2000
0000
3200
0000
0302
0000
0103
0010
0100
1000
0001
1000
0010
0000
0100
0000
,
0001
1000
0100
1000
0001
0100
0010
1000
0001
0000
0010
0000
0100
0000
0100
0000
,
2000
0000
3020
0000
0032
0000
0013
0100
0010
1000
0001
1000
0100
0000
0010
0000
,
0002
0000
0023
0000
2030
0000
3010
0100
0010
0001
1000
0001
0100
0000
0010
0000
,
2000
0000
3020
0000
0032
0000
0013
0100
0010
1000
0001
0010
0100
0000
1000
0000
,
0001
0100
0010
1000
0001
1000
0100
0010
0001
1000
0010
1000
0002
0000
0000
0000
,
0103
0000
0000
0000
1020
2030
3002
2003
,
3200
0000
0000
0010
0000
0000
0010
0000
1300
0000
0010
0000
0100
0000
0001
0000
,
0010
0000
0000
0000
0021
0032
2003
3002
,
0203
0000
0000
0010
0000
0000
0010
0000
0301
0000
0010
0000
0100
0000
1000
0000
,
1010
0000
0000
0110
0000
0000
0101
0000
,
0000
1001
0000
0000
1100
0000
0000
0110
,
0000
0010
0011
0000
0000
0001
1001
0000
,
0000
1000
1010
0000
0000
0010
0110
0000
,
0101
0000
0000
1100
0000
0000
0011
0000
,
0000
1010
0000
0000
1001
0000
0110
0000
,
1002
0000
0000
0000
,
0043
0000
0000
0130
,
1200
0300
0000
0000
0100
0000
0001
0000
0000
0000
1000
0000
0100
0000
0000
0000
0201
0300
0000
0000
0100
0000
1000
0000
0000
0000
0001
0000
0100
0000
0000
0000
,
0010
1000
0001
0000
0010
0001
1000
0000
1001
0000
0000
0000
1000
0100
0010
0001
,
0200
0300
0000
0000
0100
0000
1000
0000
0000
0000
0001
0000
0100
0000
0000
0000
1020
0030
0000
0000
0010
0000
0001
0000
0000
0000
1000
0000
0010
0000
0000
0000
,
0100
0001
1000
0000
0100
1000
0001
0000
0101
0000
0001
1000
0001
0000
0010
0000
,
0100
1000
0010
0100
1000
0100
0001
1000
,
0001
0000
0010
0000
1000
0000
0010
0000
0110
0000
0000
0010
0001
0000
1000
0000
,
0001
0000
0100
0010
1000
0000
0001
0000
0100
0000
0001
0000
1000
0100
0010
0000
,
0001
0000
0100
0010
1000
0010
0100
0001
1000
0100
0010
0001
0010
0100
1000
0001
,
0200
0300
0000
0000
0100
0000
1000
0000
0000
0000
0001
0000
0100
0000
0000
0000
1200
0300
0000
0000
0100
0000
0001
0000
0000
0000
1000
0000
0100
0000
0000
0000
,
0010
0001
1000
0000
0010
1000
0001
0000
1001
0000
0000
0000
0001
0100
0010
1000
,
0200
0300
0000
0000
0100
0000
0001
0000
0000
0000
1000
0000
0100
0000
0000
0000
0021
0030
0000
0000
0010
0000
1000
0000
0000
0000
0001
0000
0010
0000
0000
0000
,
0100
1000
0001
0000
0100
0001
1000
0000
1001
0000
0001
0000
0010
0000
0100
0000
,
0002
0003
0100
0010
0001
1000
0010
0000
0100
0001
1000
0001
0100
0010
0100
0000
,
2000
3000
0100
0010
1000
0001
0010
0000
0100
1000
0001
1000
0100
0010
0100
0000
,
0002
0003
0100
0010
0100
1000
0001
0000
0100
0010
1000
0010
0100
0001
0100
0000
,
2000
3000
0100
0010
0100
0001
1000
0000
0001
0010
0100
0010
0002
0000
0103
0010
,
2000
0000
0100
0000
3020
0000
0100
0000
2030
0000
0100
0000
3001
0010
0100
1000
,
0002
0000
0100
0000
0023
0000
0100
0000
0032
0000
0100
0000
1003
0010
0100
0001
,
1000
0000
0000
0000
0001
0000
0020
0030
0000
0000
0020
0030
1000
0000
0000
0000
0001
0000
0000
0000
1000
0000
0200
0300
0000
0000
0200
0300
0001
0000
1000
0000
,
0020
0000
0230
0300
,
1001
0000
0000
0000
1100
0000
0000
0000
0100
0000
0000
0010
0000
0000
2000
0000
,
0000
3000
0010
0000
0100
0000
1000
0000
0001
0000
0100
0000
1000
0000
0100
0000
,
0001
0000
0000
0000
0101
0000
0000
0000
1000
0000
0000
0100
0000
0000
2000
0000
,
0000
3000
0001
0000
1001
0000
0000
0000
0000
0000
0000
0000
0000
0000
0000
0000
,
0001
1000
0100
0010
0100
1000
0100
0002
,
0000
0003
0100
0000
0010
0000
0001
0000
1000
0000
0010
0000
0100
0000
0001
0000
,
1001
0000
0000
1000
0000
0000
0100
0000
0110
0000
0000
0010
0000
0000
0002
0000
,
0000
0003
1000
0000
0010
0000
0100
0000
0001
1000
0001
1000
0001
1000
0001
1000
,
0001
0000
1100
0000
,
0101
0110
1010
0000
,
1200
0300
0000
0000
0100
0000
0001
0000
0000
0000
1000
0000
0100
0000
0000
0000
0201
0300
0000
0000
0100
0000
1000
0000
0000
0000
0001
0000
0100
0000
0000
0000
,
1200
0300
0000
0000
0100
0000
0001
0000
0000
0000
1000
0000
0100
0000
0000
0000
0201
0300
0000
0000
0100
0000
1000
0000
0000
0000
0000
0000
0000
0000
0000
0000
,
0001
1000
0100
0010
0000
0010
0001
1000
0001
0100
0010
1000
0002
0000
0100
0000
,
1003
0001
0010
0100
0000
0100
1000
0001
1000
0010
0100
0001
2000
0000
0100
0000
,
3001
0010
0100
1000
0002
0000
0010
0000
1003
0010
0100
0001
2000
0000
0010
0000
,
3001
0010
0100
1000
0001
0100
0010
0100
0001
1000
0100
0010
0001
0000
1000
0000
,
0001
0000
0000
0000
1000
0000
0000
0000
0001
0000
0000
1000
0000
0000
0001
0000
,
0000
0001
0000
0000
1000
0000
0001
0000
0001
0000
0000
1000
0000
0000
1000
0000
,
0000
1000
0000
0000
0001
0000
0001
0000
1000
0000
0001
0000
1000
0000
1000
0000
,
0000
1000
0000
0000
0001
0000
0001
0000
1000
0000
0001
0000
1000
0000
0000
0000
,
0100
0000
0000
0000
0010
0000
0000
0000
0100
0000
0000
0010
0000
0000
0100
0000
,
0000
0100
0000
0000
0010
0000
0100
0000
0100
0000
0000
0010
0000
0000
0010
0000
,
0000
0010
0000
0000
0100
0000
0100
0000
0010
0000
0100
0000
0010
0000
0010
0000
,
0000
0000
0000
0000
,
2002
0000
0000
0000
,
0000
0000
0000
0000
,
3003
0000
0000
0000
;

//---------------dance-double - CHART RUSH----------------
#NOTEDATA:;
#CHARTNAME:;
#STEPSTYPE:dance-double;
#DESCRIPTION:CHART RUSH;
#CHARTSTYLE:;
#DIFFICULTY:Challenge;
#METER:15;
#RADARVALUES:0.574132,0.769381,0.195473,0.383127,0.301028,514.000000,489.000000,25.000000,49.000000,0.000000,0.000000,1.000000,0.000000,0.000000,0.574132,0.769381,0.195473,0.383127,0.301028,514.000000,489.000000,25.000000,49.000000,0.000000,0.000000,1.000000,0.000000,0.000000;
#CREDIT:;
#NOTES:
// measure 0
00000000
00000000
00000000
00000000
,  // measure 1
00000000
00000000
00000000
00000000
,  // measure 2
00000000
00000000
00000000
00000000
,  // measure 3
00000000
00000000
00000000
00000000
,  // measure 4
00000001
00000100
00001000
00010000
01000000
00100000
00010000
00000000
,  // measure 5
10000000
01000000
00010000
00001000
00000100
00000010
00001000
00000000
,  // measure 6
00000200
00001000
00010000
00000000
02000300
00010000
00001000
00000000
,  // measure 7
03000100
00010000
00001000
01000000
00001000
00010000
00000100
00000000
,  // measure 8
00010000
00000000
00000000
00000000
00001000
00000000
00000000
00000000
00010000
00000000
00000000
00001000
00000000
00000000
00010000
00000000
,  // measure 9
00000000
00010000
00000000
00000000
00001000
00000000
00010000
00000000
00010000
00000000
00000000
00001000
00000000
00000000
00001000
00000000
,  // measure 10
00000000
00001000
00000000
00000000
00010000
00000000
00010000
00000000
00001000
00000000
00010000
00000000
00001000
00000000
00001000
00000000
,  // measure 11
00000000
00001000
00000000
00000000
00010000
00000000
00010000
00000000
00001000
00000000
00010000
00000000
00001000
00000000
00000000
00000000
,  // measure 12
01000000
00000000
00000000
00000000
00000100
00000000
00000000
00000000
01000000
00000000
00000000
00000100
00000000
00000000
01000000
00000000
,  // measure 13
00000000
01000000
00000000
00000000
00000100
00000000
01000000
00000000
01000000
00000000
00000000
00000100
00000000
00000000
00000100
00000000
,  // measure 14
00000000
00000100
00000000
00000000
01000000
00000000
01000000
00000000
00000100
00000000
01000000
00000000
00000100
00000000
00000100
00000000
,  // measure 15
00000000
00000000
00000000
00000000
,  // measure 16
00020000
00000000
00032000
00000000
00003020
00000000
00000031
00001000
00000001
00000000
00000100
00000010
00000100
00000000
00001000
00000000
,  // measure 17
00020000
00000000
00032000
00000000
00003200
00000000
00000301
00001000
00000001
00000000
00000010
00000100
00000010
00000000
00001000
00000000
,  // measure 18
00020000
00000000
00032000
00000000
00003020
00000000
00000031
00001000
00000001
00000000
00000100
00000010
00000100
00000000
00000001
00000000
,  // measure 19
00000010
00001000
00010000
00001000
00000100
00001000
00010000
00010000
,  // measure 20
00002000
00000000
00023000
00000000
00230000
00000000
10300000
00010000
10000000
00000000
01000000
00100000
01000000
00000000
00010000
00000000
,  // measure 21
00002000
00000000
00023000
00000000
02030000
00000000
13000000
00010000
10000000
00000000
00100000
01000000
00100000
00000000
00010000
00000000
,  // measure 22
00002000
00000000
00023000
00000000
00230000
00000000
10300000
00010000
10000000
00000000
01000000
00100000
01000000
00000000
10000000
00000000
,  // measure 23
00100000
00010000
00001000
00010000
01000000
00100000
00020000
00000000
,  // measure 24
10030000
00000000
00000000
00000000
02000000
03020000
00032000
00003020
,  // measure 25
00000032
00000000
00000000
00000100
00000000
00000000
00000100
00000000
00001003
00000000
00000000
00000000
00000000
00000000
00000000
00000000
,  // measure 26
00000001
00000000
00000000
00000000
00000200
00002300
00023000
00230000
,  // measure 27
20300000
00000000
00000000
01000000
00000000
00000000
01000000
00000000
30010000
00000000
00000000
00000000
00000000
00000000
00000000
00000000
,  // measure 28
11000000
00000000
00000000
00110000
00000000
00000000
00011000
00000000
,  // measure 29
00000000
00001010
00000000
00000000
00000101
00000000
00000000
00001001
,  // measure 30
00000000
00010000
00011000
00000000
00000000
01000000
01001000
00000000
,  // measure 31
00000000
00001000
00011000
00000000
00000000
00000100
00010100
00000000
,  // measure 32
00000011
00000000
00000000
00001100
00000000
00000000
00011000
00000000
,  // measure 33
00000000
01010000
00000000
00000000
10100000
00000000
00110000
00000000
,  // measure 34
00021000
00000000
00000000
00000000
,  // measure 35
00030040
00000000
00000000
00000130
,  // measure 36
00000001
00000000
00001000
00000100
00000000
00010000
00001000
00000000
00100000
00000000
00010000
01000000
00000000
00001000
00010000
00000000
,  // measure 37
00001000
00000000
00000010
00000000
00000001
00000000
00000100
00000000
00002000
00000000
00000000
00000000
00003000
01000000
00100000
10000000
,  // measure 38
00010000
00000000
01000000
00001000
00000000
00010000
00000100
00000000
00000010
00000000
00000100
00010000
00000000
00001000
01000000
00000000
,  // measure 39
10000000
00000000
01000000
00000000
00010000
00000000
00100000
00000000
10000000
00000000
00100000
01000000
00100000
00000000
00010000
00000000
,  // measure 40
10000000
01000000
00010000
00001000
00100000
00001000
00010000
01000000
,  // measure 41
10000000
00000000
00100000
00000000
00010000
00000000
00001000
00000000
00000110
00000000
00000000
00000010
00000001
00000000
00001000
00000000
,  // measure 42
00000010
00000100
00001000
00010000
00000010
00010000
00001000
00000100
,  // measure 43
00000010
00000000
00010000
00000100
00001000
00000100
00010000
00000000
00001000
01000000
00010000
01000000
00001000
00010000
00001000
00000000
,  // measure 44
00100000
00000000
00010000
01000000
00000000
00001000
00010000
00000000
00000010
00000000
00001000
00000100
00000000
00010000
00001000
00000000
,  // measure 45
00010000
00000000
00100000
00000000
10000000
00000000
01000000
00000000
00020000
00000000
00000000
00000000
00030000
00000100
00000010
00000001
,  // measure 46
00001000
00000000
00000100
00010000
00000000
00001000
01000000
00000000
00100000
00000000
01000000
00001000
00000000
00010000
00000100
00000000
,  // measure 47
00000001
00000100
00001000
00000010
00000001
00000010
00001000
00000100
,  // measure 48
00000002
00000003
00000100
00001000
00000010
00001000
00010000
01000000
,  // measure 49
20000000
30000000
01000000
00010000
00100000
00010000
00001000
00000100
,  // measure 50
00000002
00000003
00000100
00001000
00000010
00010000
00001000
00100000
,  // measure 51
20000000
30100000
00010000
01000000
10000000
01000000
00010000
00100000
,  // measure 52
10000000
00000000
00100000
00000000
00010000
00000000
00001000
00000000
00000100
00000000
00000010
00000000
00000001
00001000
00000010
00000000
,  // measure 53
00000001
00000000
00000010
00000000
00001000
00000000
00010000
00000000
01000000
00000000
00100000
00000000
10000000
00010000
00200000
00000000
,  // measure 54
01300000
00000000
10000000
00010000
00000000
01000000
00001000
00000000
00100000
00000000
00001000
01000000
00000000
00010000
10000000
00000000
,  // measure 55
00200000
00000000
00320000
00000000
,  // measure 56
00031000
00000000
00000000
00000000
01000000
00000000
00000000
00000000
00001000
00000000
00000000
00010000
00000000
00000000
00200000
00000000
,  // measure 57
00000000
00310000
00001000
00000100
00000010
00000100
00001000
00010000
,  // measure 58
00001000
00000000
00000000
00000000
00011000
00000000
00000000
00000000
00010000
00000000
00000000
01000000
00000000
00000000
00020000
00000000
,  // measure 59
00000000
00001000
00031000
00000000
00000000
00000000
00000000
00000000
,  // measure 60
00010000
00000000
00000000
00000000
00000100
00000000
00000000
00000000
00010000
00000000
00000000
00001000
00000000
00000000
00000020
00000000
,  // measure 61
00000000
00001030
00010000
01000000
00100000
01000000
00010000
00001000
,  // measure 62
00010000
00000000
00000000
00000000
00011000
00000000
00000000
00000000
00001000
00000000
00000000
00000100
00000000
00000000
00002000
00000000
,  // measure 63
00000000
00000000
00010000
00000000
00013000
00000000
00000000
00000000
00001000
00010000
00001000
00010000
00001000
00010000
00001000
00010000
,  // measure 64
00001000
00000000
00011000
00000000
,  // measure 65
01010000
00011000
00001100
00000000
,  // measure 66
00000001
00000000
00000000
00000100
00000000
00000000
00000100
00000000
00001000
00000000
00000000
00010000
00000000
00000000
00010000
00000000
,  // measure 67
01000000
00000000
00000000
10000000
00000000
00000000
10000000
00000000
00100000
00000000
00000000
00100000
00000000
00000000
00000000
00000000
,  // measure 68
10000000
01000000
00010000
00001000
00000100
00001000
00010000
01000000
,  // measure 69
10000000
00100000
00010000
00001000
00000010
00001000
00010000
00100000
,  // measure 70
02000000
00010000
00001000
00000000
03000200
00001000
00010000
00000000
,  // measure 71
01000300
00010000
00100000
00001000
00010000
00000010
00010000
00001000
,  // measure 72
01000000
00000000
00000000
00000000
00000100
00000000
00000000
00000000
01000000
00000000
00000000
00000100
00000000
00000000
01000000
00000000
,  // measure 73
00000000
01000000
00000000
00000000
00000100
00000000
01000000
00000000
01000000
00000000
00000000
00000100
00000000
00000000
00000100
00000000
,  // measure 74
00000000
00000100
00000000
00000000
01000000
00000000
01000000
00000000
00000100
00000000
01000000
00000000
00000100
00000000
00000100
00000000
,  // measure 75
00000000
00000100
00000000
00000000
01000000
00000000
01000000
00000000
00000100
00000000
01000000
00000000
00000100
00000000
00000000
00000000
,  // measure 76
00100000
00000000
00000000
00000000
00000010
00000000
00000000
00000000
00100000
00000000
00000000
00000010
00000000
00000000
00100000
00000000
,  // measure 77
00000000
00100000
00000000
00000000
00000010
00000000
00100000
00000000
00100000
00000000
00000000
00000010
00000000
00000000
00000010
00000000
,  // measure 78
00000000
00000010
00000000
00000000
00100000
00000000
00100000
00000000
00000010
00000000
00100000
00000000
00000010
00000000
00000010
00000000
,  // measure 79
00000000
00000000
00000000
00000000
,  // measure 80
00022000
00000000
00000000
00000000
,  // measure 81
00000000
00000000
00000000
00000000
,  // measure 82
00033000
00000000
00000000
00000000
;
