#VERSION:0.83;
#TITLE:TWIINBLADE;
#SUBTITLE:;
#ARTIST:Shadient;
#TITLETRANSLIT:;
#SUBTITLETRANSLIT:;
#ARTISTTRANSLIT:;
#GENRE:;
#CREDIT:DRILLBOT;
#MUSIC:twiinblade.ogg;
#BANNER:twiinblade-bn.png;
#BACKGROUND:twiinblade-bg.png;
#CDTITLE:;
#SAMPLESTART:37.498;
#SAMPLELENGTH:15.469;
#SELECTABLE:YES;
#OFFSET:0.002;
#BPMS:0.000=128.000;
#STOPS:;
#SCROLLS:0.000=1.000,
112.000=0.000,
112.333=2.000,
112.667=1.000,
144.000=0.500,
160.000=0.550,
161.000=0.600,
162.000=0.650,
163.000=0.700,
164.000=0.750,
165.000=0.800,
166.000=0.850,
167.000=0.900,
168.000=0.950,
169.000=1.000,
175.000=0.000,
175.250=2.000,
175.500=1.000
;
#BGCHANGES:;
#FGCHANGES:;

//--------------- dance-single - DRILLBOT ----------------
#NOTEDATA:;
#STEPSTYPE:dance-single;
#DESCRIPTION:DRILLBOT;
#DIFFICULTY:Medium;
#METER:10;
#RADARVALUES:0,0,0,0,0;
#NOTES:
0000
0000
0000
0000
,
0000
0000
0000
0000
,
0000
0000
0000
0000
,
0000
0000
0000
0000
,
2000
3010
0100
0001
,
0200
1300
0200
0302
,
2003
3100
0010
0001
,
0020
1030
0020
0031
,
0002
0013
0100
1000
,
0200
0000
0301
0000
0200
0000
2300
3000
,
0002
0103
0010
1000
,
0020
0031
0020
2030
,
3200
0010
0000
1000
,
0000
0010
0000
1300
,
0020
0100
0000
1000
,
0000
0000
0100
0000
0030
1000
0001
0000
,
0020
0030
0000
0000
0002
0003
0000
0000
2000
3000
0000
0000
0002
0003
0000
0000
,
0200
0300
0000
0000
0002
0003
0000
0000
2000
3000
0000
0000
0002
0003
0000
0000
,
0010
0001
0010
0100
1000
0100
0010
0001
,
0010
0000
0001
0001
,
1002
0000
0000
0000
0013
0000
0000
0000
0100
0000
1000
0000
0020
0000
0000
0030
,
1020
0000
0000
0000
0130
0000
0000
0000
0001
0000
1000
0000
0200
0000
0000
0300
,
2100
0000
3010
0000
0100
0001
0020
0030
,
0021
0000
0130
0000
1000
0001
0010
0000
,
2001
0000
0000
0000
3010
0000
0000
0000
0100
0000
0001
0000
0020
0000
0000
0030
,
0021
0000
0000
0000
0130
0000
0000
0000
1000
0000
0001
0000
0200
0000
0000
0300
,
0102
0000
0013
0000
0100
1000
0020
0030
,
1020
0000
0000
0000
0130
0000
0000
0001
0000
1000
0000
0000
0100
0000
0010
0000
,
0002
0003
0202
0303
2002
3003
2200
3300
,
1000
0000
2020
3030
0220
0330
0202
0303
,
0001
0000
0022
0033
0220
0330
2200
3300
,
1000
0000
0000
0000
0000
0000
0220
0000
0330
0000
0000
0000
2002
0000
0000
3003
0000
0000
0220
0000
0000
0330
0000
0000
,
1000
0000
2200
3300
2002
3003
0202
0303
,
0001
0000
0022
0033
0220
0330
2200
3300
,
1000
0000
2020
3030
0220
0330
0202
0303
,
0001
0010
0100
0010
,
0002
0003
1000
0000
,
0010
0200
0000
0000
0310
0000
0000
0000
,
2000
3000
0001
0000
,
0010
0200
0000
0000
0310
0000
0000
0000
,
0200
0300
0000
0000
2000
3000
0000
0000
0002
0003
0000
0000
2000
3000
0000
0000
,
0020
0030
0000
0000
2000
3000
0000
0000
0002
0003
0000
0000
2000
3000
0000
0000
,
0010
1000
0010
0100
0001
0100
0010
1000
,
0010
0000
0010
0000
0010
0000
2002
3003
,
0101
0000
0001
0000
2000
3000
0000
0000
2000
3000
0000
0000
0100
0000
2000
3000
,
0100
0000
2000
3000
0001
0000
0100
0000
0101
0000
0001
0000
0100
0000
0000
0000
,
0010
0000
1000
0000
0002
0003
0000
0000
0002
0003
0000
0000
0010
0000
0002
0003
,
0010
0000
0002
0003
1000
0000
0010
0000
1010
0000
0000
1000
0000
0001
0000
0000
,
0101
0000
0001
0000
2000
3000
0000
0000
2000
3000
0000
0000
0100
0000
2000
3000
,
0100
0000
2000
3000
0001
0000
0100
0000
0102
0003
0001
0000
0100
0000
0000
0000
,
1010
0000
1000
0000
0002
0003
0000
0000
0002
0003
0000
0000
0010
0000
0002
0003
,
0010
0100
1000
0010
0100
0001
0010
0100
,
1000
0000
0020
0000
0130
0000
0000
0000
0120
0000
0000
0000
1030
0000
0200
0300
,
0010
0000
0200
0300
1000
0000
0000
0000
2002
3003
0000
0000
0001
0000
0010
0000
,
0001
0000
0020
0000
0130
0000
0000
0000
0120
0000
0000
0000
0031
0000
0200
0300
,
0010
0000
0200
0300
0001
0000
0000
0000
2002
3003
0000
1000
0000
0001
0000
0000
,
1000
0000
0200
0000
0310
0000
0000
0000
0210
0000
0000
0000
1300
0000
0020
0030
,
0100
0000
0020
0030
1000
0000
0000
0000
2002
3003
0000
0000
0001
0000
0100
0000
,
0001
0000
0200
0000
0310
0000
0000
0000
0200
0000
0000
0000
0301
0000
0020
0030
,
0100
0000
0020
0030
0001
0000
0000
0000
2000
3000
0000
0000
0002
0000
0200
0003
,
0300
0000
0000
0000
;

//--------------- dance-single - DRILLBOT ----------------
#NOTEDATA:;
#STEPSTYPE:dance-single;
#DESCRIPTION:DRILLBOT;
#DIFFICULTY:Hard;
#METER:14;
#RADARVALUES:0,0,0,0,0;
#NOTES:
0000
0000
0000
0000
,
0000
0000
0000
0000
,
0000
0000
0000
0000
,
0000
0000
0000
0000
,
2000
0000
3010
0000
0100
0000
0001
1000
,
0200
0000
1300
0001
0200
0000
0302
0000
,
2003
0000
3100
0000
0010
0000
0001
1000
,
0020
0000
1030
0001
0020
0000
0031
1000
,
0002
0000
0013
0000
0100
0000
1000
0001
,
0200
0000
0301
1000
0200
0000
2300
3000
,
0002
0000
0103
0000
0010
0000
1000
0001
,
0020
0000
0031
1000
0020
0000
2030
0000
,
3200
0310
0200
1300
,
0200
0310
0200
1300
,
0020
0130
0020
1030
,
0020
0000
0000
0000
0000
0000
0130
0000
0000
0000
0000
0000
0010
0000
0000
1000
0001
1000
0100
0000
0000
1000
0000
0000
,
0020
0030
0000
0000
2000
3000
0000
0000
0002
0003
0000
0100
0002
0013
0000
0010
,
0200
0300
1000
0000
0200
0300
1000
0000
0020
0030
0100
0001
0200
0310
0000
0010
,
2000
3000
0001
0200
0301
1000
0200
0300
2000
3000
0010
2000
3010
0100
0002
0003
,
0020
0030
0000
0000
0000
0000
0000
0000
0100
0000
1000
0000
2200
3300
0000
0000
,
M102
0000
0000
0000
0013
0000
0200
0000
2300
0000
3001
1000
0020
0001
0000
0030
,
201M
0000
0000
0000
3100
0000
0020
0000
0032
0000
1003
0001
0200
1000
0000
0300
,
M102
0000
0000
0000
0013
0000
0200
0000
2300
0000
3001
1000
0200
0001
0000
0300
,
210M
0000
0000
0000
0000
0000
0000
0000
0000
0000
0000
0000
3010
0000
0000
0000
0000
0000
0100
0000
0000
0000
0000
0000
0001
0000
0000
1000
0000
0000
0010
0000
0100
0000
0010
0000
2000
0000
0000
0000
0000
0000
0000
0000
3000
0000
0000
0000
,
2100
0000
0000
0000
3010
0000
0200
0000
0302
0000
1003
0001
0020
1000
0000
0030
,
M012
0000
0000
0000
0103
0000
0020
0000
2030
0000
3001
1000
0200
0001
0000
0300
,
210M
0000
0000
0000
3010
0000
0200
0000
0302
0000
1003
0001
0200
1000
0000
0300
,
M102
0000
0000
0000
0000
0000
0000
0000
0000
0000
0000
0000
0013
0000
0000
0000
0000
0000
0100
0000
0000
1000
0000
0000
0000
0000
0000
0000
1000
0000
0010
0000
0000
0000
0000
0000
0100
0000
0000
0000
0001
0000
1000
0000
0000
0000
0000
0000
,
0200
0000
0000
0300
0000
0000
0220
0000
0330
0001
0000
1000
0020
0000
0030
0100
0000
0000
0220
0000
0330
1000
0000
0001
,
0100
0000
0000
0010
0000
0000
0220
0000
0330
1000
0000
0001
0020
0000
0030
0100
0000
0000
0220
0000
0330
0001
0000
1000
,
0100
0000
0000
0010
0000
0000
0220
0000
0330
0001
0000
1000
0020
0000
0030
0100
0000
0000
0220
0000
0330
1000
0000
0001
,
0100
0000
0000
0000
0000
0000
0010
0000
0000
0000
0000
0000
0220
0000
0000
0000
0330
0000
1000
0000
0000
0000
0001
0000
0020
0000
0000
0000
0030
0000
0100
0000
0000
1000
0000
0000
0001
0000
0000
0200
0000
0000
0000
0000
0000
0000
0000
0000
,
0301
0000
0000
1000
0000
0000
2001
0000
0000
3010
0000
0100
0002
0000
0000
0103
0000
0000
2001
0000
0000
3100
0000
0010
,
0001
0000
0000
1000
0000
0000
1002
0000
0000
0013
0000
0100
2000
0000
0000
3100
0000
0000
1002
0000
0000
0103
0000
0010
,
1000
0000
0000
0001
0000
0000
2001
0000
0000
3010
0000
0100
0002
0000
0000
0103
0000
0000
2001
0000
0000
3100
0000
0010
,
0002
0000
0000
1003
0000
0000
0020
0000
0000
1030
0000
0001
0020
0000
0000
0031
0000
0000
0200
0000
0000
0000
0000
0000
,
M301
0000
0100
0000
0010
0000
0100
0000
2000
3000
0100
0000
0001
0000
0010
0000
,
0100
0000
1000
0000
0001
0000
0010
0000
2000
3000
0010
0000
0001
0000
0001
0000
,
1000
0000
0010
0000
0100
0000
0010
0000
0002
0003
0010
0000
1000
0000
0100
0000
,
0010
0000
0001
0000
1000
0000
0100
0000
0002
0003
0100
0000
1000
0000
1000
0000
,
0020
0030
0000
0000
2000
3000
0000
0000
2000
3000
0000
0100
2000
3010
0000
0010
,
0200
0300
0001
0000
0200
0300
0001
0000
0020
0030
0100
1000
0200
0310
0000
0010
,
0002
0003
1000
0200
1300
0001
0200
0300
0002
0003
0010
0002
0013
0100
2000
3000
,
0010
0000
0100
0000
0001
0000
0010
0000
0100
0000
1000
0000
0010
0000
0100
0000
0001
0000
1001
0000
0000
0110
0000
0000
,
1002
0000
0023
0000
2030
3000
0010
0000
0002
0003
0100
00M0
0100
0000
2000
3000
,
0100
0000
0002
0003
0100
0000
1000
0000
2002
3003
0001
0000
0100
00M0
0100
0000
,
2000
0000
3010
0000
0002
0003
0010
0000
2000
3000
0100
00M0
0100
0000
0002
0003
,
0100
0000
2000
3000
0100
0010
1000
0001
0010
0100
1000
0010
0000
0200
0000
0300
,
1002
0000
0103
0000
2000
3000
0100
0000
0002
0003
0010
0M00
0010
0000
2000
3000
,
0010
0000
0002
0003
0010
0000
1000
0000
2002
3003
0001
0000
0010
0M00
0010
0000
,
2000
0000
3100
0000
0002
0003
0100
0000
2000
3000
0010
0M00
0010
0000
0002
0003
,
1000
0000
0000
0100
0000
0000
0010
0000
0000
0001
0000
0000
1000
0000
0010
0000
0100
0000
0001
0000
0010
0000
0100
0000
,
1000
0000
0000
0000
0000
0000
0001
0000
1000
0000
0001
0000
0020
0000
0000
0030
0000
0000
0001
0000
0000
1000
0000
0000
0200
0000
0000
0300
0000
0000
1000
0000
0000
0000
0000
0000
0010
0000
0000
0000
0000
0000
0002
0000
0000
0003
0000
0000
,
0010
0000
2000
3000
0100
0000
0010
0001
0200
0300
0001
1000
0100
00M0
0100
0000
,
0001
0000
0000
0000
0000
0000
1000
0000
0001
0000
1000
0000
0020
0000
0000
0030
0000
0000
1000
0000
0000
0001
0000
0000
0200
0000
0000
0300
0000
0000
0001
0000
0000
0000
0000
0000
0010
0000
0000
0000
0000
0000
2000
0000
0000
3000
0000
0000
,
0010
0000
0002
0003
0100
0000
0010
1000
0200
0300
1000
0010
0000
0200
0000
0000
,
0301
0000
0000
0000
0000
0000
1000
0000
0001
0000
1000
0000
0200
0000
0000
0300
0000
0000
1000
0000
0000
0001
0000
0000
0020
0000
0000
0030
0000
0000
0001
0000
0000
0000
0000
0000
0100
0000
0000
0000
0000
0000
2000
0000
0000
3000
0000
0000
,
0100
0000
0002
0003
0010
0000
0100
0000
2000
3000
0001
0000
0100
00M0
0100
0000
,
1000
0000
0000
0000
0000
0000
0010
0000
0100
0000
0010
0000
2000
0000
3000
0000
0000
0000
0001
0000
0000
0000
0000
0000
0020
0000
0000
0030
0000
0000
0001
0000
0000
0000
0000
0000
1000
0000
0000
0000
0000
0000
0200
0000
0300
0000
0000
0000
,
1000
0000
0000
0000
0000
0000
0020
0000
0030
0000
0000
0000
0100
0000
0000
0000
0000
0000
0001
0000
0000
0000
0000
0000
0020
0000
0000
0030
0000
0000
0001
0000
0000
0000
0000
0000
1000
0000
0000
0000
0000
0000
0010
0000
0000
0000
0000
0000
;
