#TITLE:TRICKL4SH 220;
#SUBTITLE:;
#ARTIST:Lite Show Magic;
#MUSIC:TRICKL4SH 220.ogg;
#BANNER:;
#BACKGROUND:;
#LYRICSPATH:;
#CDTITLE:;
#SAMPLESTART:45.912;
#SAMPLELENGTH:17.455;
#OFFSET:-0.099;
#BPMS:0.000=220.000,
128.000=110.000,
148.000=220.000,
280.000=110.000,
282.000=220.000,
286.000=440.000,
292.000=220.000
;
#STOPS:;
#TIMESIGNATURES:;
#BGCHANGES:;
#FGCHANGES:;
#ATTACKS:;
#DISPLAYBPM:110.000:220.000;

//---------------dance-single - ---------------
#NOTES:
     dance-single:
     :
     Beginner:
     7:
     0,0,0,0,0:
// measure 0
0000
0000
0000
0000
,  // measure 1
0000
0000
0000
0000
,  // measure 2
0000
0000
0000
0000
,  // measure 3
0000
0000
0000
0000
0000
1000
0000
0000
,  // measure 4
0001
0000
0010
0000
,  // measure 5
0001
0000
1000
0000
,  // measure 6
0010
0010
0100
0100
,  // measure 7
0001
0000
0000
0000
0000
1001
0000
0000
,  // measure 8
2000
0000
0000
3000
,  // measure 9
0100
1000
0001
0100
,  // measure 10
0020
0000
0000
0000
,  // measure 11
0000
0000
0030
1000
,  // measure 12
0002
0000
0000
0003
,  // measure 13
0010
0001
1000
0010
,  // measure 14
0200
0000
0000
0000
,  // measure 15
0000
0000
0300
0000
,  // measure 16
0001
0001
0010
0000
,  // measure 17
0001
1000
1000
0000
,  // measure 18
0010
0000
0100
0010
,  // measure 19
0100
0000
0001
0010
,  // measure 20
0100
0100
0010
0000
,  // measure 21
0001
0100
0100
0000
,  // measure 22
0010
0000
1000
0001
,  // measure 23
2000
0000
0000
0000
,  // measure 24
3100
1000
0100
0010
,  // measure 25
0110
0000
0000
0000
,  // measure 26
0010
0001
0100
0001
,  // measure 27
1001
0000
0000
0000
,  // measure 28
1000
1000
0100
0000
,  // measure 29
1000
0010
0010
0000
,  // measure 30
1000
1000
0001
0001
,  // measure 31
2002
0000
0000
3003
,  // measure 32
0001
0000
0010
0100
,  // measure 33
1000
0000
0000
0001
0000
0000
1000
0000
0001
0000
0000
0000
0100
0000
0000
0000
,  // measure 34
0010
1000
1000
0100
,  // measure 35
0100
0010
0010
0001
,  // measure 36
2002
0000
0000
0000
0000
0000
0003
3000
,  // measure 37
0001
0100
0001
0000
,  // measure 38
1000
0100
1000
0000
,  // measure 39
0010
0000
0100
0000
,  // measure 40
0001
0010
0100
1000
,  // measure 41
1000
0010
1000
0000
,  // measure 42
0001
0010
0001
0000
,  // measure 43
1001
0000
0000
0001
0000
1000
0000
0002
,  // measure 44
0000
0000
0003
0000
,  // measure 45
1000
0100
1000
0000
,  // measure 46
0001
0100
0001
0000
,  // measure 47
0010
0000
0100
0000
,  // measure 48
1000
0010
0100
0001
,  // measure 49
0001
0010
0001
0000
,  // measure 50
1000
0010
1000
0000
,  // measure 51
1001
0000
0000
1000
0000
0001
0000
2000
,  // measure 52
0000
0000
3000
0000
,  // measure 53
0010
0000
0100
0000
,  // measure 54
0001
0001
1000
0000
,  // measure 55
0100
0000
0010
0010
,  // measure 56
0100
0000
2000
0000
,  // measure 57
3001
0000
0100
0000
,  // measure 58
0010
0010
1000
0000
,  // measure 59
0100
0000
0010
0000
,  // measure 60
0200
0000
0000
0000
,  // measure 61
1300
1000
0010
0000
,  // measure 62
1000
0100
0100
0000
,  // measure 63
0010
0000
0001
0000
,  // measure 64
0100
0010
0100
0000
,  // measure 65
0001
0001
1000
0000
,  // measure 66
0100
0010
0010
0000
,  // measure 67
0001
0001
1000
1000
,  // measure 68
0020
0000
0000
0000
,  // measure 69
0130
0001
0100
0000
,  // measure 70
0001
0010
0001
0000
1000
0000
0000
0001
,  // measure 71
0000
1000
0000
0002
2000
0000
0000
0000
,  // measure 72
0000
0000
0000
0000
,  // measure 73
3003
0001
0100
0001
,  // measure 74
0000
1000
0100
1000
,  // measure 75
0000
0010
0000
0100
,  // measure 76
0000
0001
0010
0100
,  // measure 77
1000
1000
0010
1000
,  // measure 78
0000
0001
0010
0001
,  // measure 79
0000
0000
1001
0000
0000
0001
0000
1000
,  // measure 80
0000
0002
0000
0000
0000
0000
0003
0000
,  // measure 81
0000
1000
1000
1000
,  // measure 82
1000
0000
1000
0000
1000
0001
1000
0000
,  // measure 83
1000
0100
0000
0010
,  // measure 84
0000
0001
0000
1000
,  // measure 85
0000
0001
0001
0001
,  // measure 86
0001
0000
0001
0000
0001
1000
0001
0000
,  // measure 87
0010
0000
0110
0000
0000
0100
0000
0010
,  // measure 88
0000
0200
0000
0000
0000
0000
0300
0000
,  // measure 89
0000
2000
0000
0000
,  // measure 90
3000
0001
0000
0100
,  // measure 91
0000
0020
0000
0000
,  // measure 92
0000
0000
0000
0030
,  // measure 93
0100
0002
0000
0000
,  // measure 94
0003
0000
0000
1000
,  // measure 95
0001
2002
0000
0000
,  // measure 96
0000
3003
0220
0000
0000
0000
0000
0000
,  // measure 97
0330
0000
0000
0000
;

//---------------dance-single - ---------------
#NOTES:
     dance-single:
     :
     Easy:
     11:
     0,0,0,0,0:
// measure 0
0000
0000
0000
0000
,  // measure 1
0000
0000
0000
0000
,  // measure 2
0000
0000
0000
0000
,  // measure 3
0000
0000
0000
0000
0000
0110
0000
0000
,  // measure 4
1001
0000
1000
0000
0001
0100
0000
0001
,  // measure 5
1000
0000
0100
0000
1000
0010
0000
1000
,  // measure 6
0001
0001
0010
0010
,  // measure 7
0100
0000
0000
1000
0000
2020
0000
3030
,  // measure 8
0110
0000
0000
0110
0000
0000
1001
0000
,  // measure 9
0001
0010
0001
0100
,  // measure 10
0110
0000
0000
0110
0000
0000
1010
0000
,  // measure 11
0000
1010
0000
0000
1001
0000
0001
0000
,  // measure 12
0011
0000
0000
0011
0000
0000
0110
0000
,  // measure 13
0100
1000
0010
1000
,  // measure 14
1001
0000
0000
1001
0000
0000
0011
0000
,  // measure 15
0000
0011
0000
0000
0110
0000
0000
0000
,  // measure 16
0100
1000
0001
0100
,  // measure 17
0001
0010
0100
0010
,  // measure 18
0001
1000
0001
0000
0100
0000
0100
0000
,  // measure 19
0001
0000
0000
1000
0000
0000
0001
0000
1000
0000
0000
0000
0100
0000
0000
0000
,  // measure 20
0010
0001
0100
0010
,  // measure 21
1000
0100
1000
0010
,  // measure 22
0100
0001
0100
0000
0001
0000
0001
0000
,  // measure 23
2000
0000
0002
3000
,  // measure 24
0013
0000
0010
0000
0100
0010
0100
0000
,  // measure 25
1000
0000
0000
0001
0000
0000
1000
0000
0001
0000
0000
0000
1001
0000
0000
0000
,  // measure 26
1000
0000
0010
0000
0100
0001
0100
0000
,  // measure 27
0001
0000
1000
0000
0000
0001
0000
0000
0000
1000
0001
0000
1000
0000
0000
0000
,  // measure 28
1000
0010
0100
0010
,  // measure 29
1000
0001
0010
0100
,  // measure 30
1000
0100
1000
0000
0001
0100
0001
0000
,  // measure 31
0020
0000
0000
0032
0000
0000
0103
0000
,  // measure 32
0020
0000
2030
3200
,  // measure 33
0320
0000
0000
2030
0000
0000
3020
0000
0230
0000
0000
1300
0002
0000
0203
0000
,  // measure 34
0310
1000
0001
0000
0010
0100
1000
0000
,  // measure 35
0010
0100
0001
0000
0100
0001
1000
0000
,  // measure 36
2002
0000
0000
0000
0000
0000
3000
0003
,  // measure 37
1000
0000
0001
0100
0000
0100
0010
1000
,  // measure 38
0001
1001
1000
0100
,  // measure 39
0010
0000
0100
0001
0000
0100
0010
0000
,  // measure 40
0100
1000
0010
0000
0100
0001
0010
0000
,  // measure 41
0001
0000
1000
0010
0000
0010
0100
0001
,  // measure 42
1000
1001
0001
0010
,  // measure 43
0110
0000
0000
1000
0000
0001
0000
2002
,  // measure 44
0000
0000
3003
0000
,  // measure 45
0001
0000
0100
0010
0000
0010
1000
0100
,  // measure 46
0010
0110
0100
1000
,  // measure 47
0010
0000
0100
0010
0000
0001
0010
0000
,  // measure 48
0100
0010
1000
0000
0100
0010
0001
0000
,  // measure 49
1000
0000
0010
0100
0000
0100
0001
0010
,  // measure 50
0100
0110
0010
0001
,  // measure 51
1001
0000
0000
0001
0000
0100
0000
0220
,  // measure 52
0000
0000
0330
0000
,  // measure 53
0010
1000
0001
0010
,  // measure 54
0100
0100
0010
0010
,  // measure 55
0001
0100
0001
0000
1000
0100
1000
0000
,  // measure 56
0010
0100
0001
0001
,  // measure 57
1000
0100
1000
0010
,  // measure 58
0100
0100
0001
0001
,  // measure 59
1000
0010
1000
0000
0001
0010
0001
0000
,  // measure 60
0200
0000
0020
0300
,  // measure 61
1030
0001
0010
0001
,  // measure 62
1000
0010
0100
0001
,  // measure 63
0010
0100
0010
0000
0100
0000
0100
0000
,  // measure 64
1000
0000
0000
0001
0000
0000
1000
0000
0001
0000
0000
0000
0100
0000
0000
0000
,  // measure 65
0010
1000
0001
0010
,  // measure 66
0100
0010
0001
0100
,  // measure 67
0010
1000
0010
0000
1000
0100
1000
0000
,  // measure 68
0002
0000
0023
0230
,  // measure 69
0310
0000
0001
1000
0000
1000
0010
0100
,  // measure 70
0001
0000
1000
0100
0000
0100
1000
0010
0100
0000
0000
0000
0000
0000
0110
0000
,  // measure 71
0000
1001
0000
0002
2000
0000
0000
0000
,  // measure 72
0000
0000
0000
0000
,  // measure 73
3003
0000
0001
0000
0010
0100
0000
0100
,  // measure 74
0010
0001
0100
0000
0110
0000
0010
0000
,  // measure 75
1000
0000
0100
0000
0010
0100
0000
0001
,  // measure 76
0100
0000
0010
0001
0100
0000
0010
1000
,  // measure 77
0100
0000
1000
0000
0001
0100
0000
0100
,  // measure 78
0010
1000
0100
0000
0110
0000
0010
0000
,  // measure 79
0001
0000
1001
0000
0000
1000
0000
0010
,  // measure 80
0000
0220
0000
0000
0000
0000
0330
0000
,  // measure 81
0000
0000
0001
0010
0100
1000
0001
0010
,  // measure 82
0100
1000
0001
0010
0100
1000
0010
0100
,  // measure 83
0001
1000
0000
0100
,  // measure 84
0000
0010
0000
0001
,  // measure 85
0000
0000
1000
0010
0100
0001
1000
0010
,  // measure 86
0100
0001
1000
0010
0100
0001
0010
0100
,  // measure 87
1000
0000
1001
0000
0000
0001
0000
0010
,  // measure 88
0000
0022
0000
0000
0000
0000
0033
0000
,  // measure 89
0000
0000
1001
0000
0000
1001
0000
0000
,  // measure 90
1010
0010
0100
0001
,  // measure 91
0010
0000
0110
0000
0000
0110
0000
0000
,  // measure 92
1100
0000
0000
1100
0000
0000
1001
0000
,  // measure 93
0001
0000
0101
0000
0000
0101
0000
0000
,  // measure 94
0110
0000
0010
1000
,  // measure 95
0100
0000
0110
0000
0000
0011
0000
1001
,  // measure 96
0000
2000
0002
0000
0000
0000
0000
0000
,  // measure 97
3003
0000
0000
0000
;

//---------------dance-single - ---------------
#NOTES:
     dance-single:
     :
     Medium:
     14:
     0,0,0,0,0:
// measure 0
0000
0000
0000
0000
,  // measure 1
0000
0000
0000
0000
,  // measure 2
0000
0000
0000
0000
,  // measure 3
0000
0000
0000
0000
0000
0110
0000
0000
,  // measure 4
1001
0000
0001
0000
0010
0100
0000
0001
,  // measure 5
0000
0000
0100
0000
0010
0001
0000
0000
,  // measure 6
1010
1010
0011
0011
,  // measure 7
0001
0100
0010
1000
0000
2002
0000
3003
,  // measure 8
1100
0000
0000
0110
0000
0000
0011
0000
,  // measure 9
0001
0000
0100
0000
0010
0100
0010
0000
,  // measure 10
1010
0000
0000
1001
0000
0000
1100
0000
,  // measure 11
0000
0110
0000
0000
0011
0000
1001
0000
,  // measure 12
0101
0000
0000
0110
0000
0000
1010
0000
,  // measure 13
1000
0000
0100
0000
0010
0001
0010
0000
,  // measure 14
0011
0000
0000
1001
0000
0000
1010
0000
,  // measure 15
0000
0110
0000
0000
1001
0000
0000
0000
,  // measure 16
1000
0000
0100
0000
0010
0100
0010
0000
,  // measure 17
0001
0000
0100
0000
0010
1000
0010
0000
,  // measure 18
0100
0000
0010
0000
0000
0100
0000
0000
0001
0000
0000
0000
0010
0000
0100
0000
,  // measure 19
1000
0000
0001
0000
0100
0010
0110
0000
,  // measure 20
0010
0000
1000
0000
0001
0010
0001
0000
,  // measure 21
1000
0000
0010
0000
0100
0010
0100
0000
,  // measure 22
0001
0000
1000
0000
0000
0001
0000
0000
0010
0000
0000
0000
0100
0000
1000
0000
,  // measure 23
0002
0000
0200
0003
,  // measure 24
0310
1000
0001
0000
0010
0000
0100
0000
,  // measure 25
1100
0000
0000
1100
0000
0000
1100
0000
1000
0000
0000
0000
0001
0000
0000
0000
,  // measure 26
0100
0010
1000
0000
0100
0000
0010
0000
,  // measure 27
0001
0000
1000
0000
0000
1001
0000
0000
0000
0001
1000
0000
0010
0000
0100
0000
,  // measure 28
0001
0000
0010
0000
0001
0100
0001
0000
,  // measure 29
1000
0000
0100
0000
0010
0001
0010
0000
,  // measure 30
0100
0010
0100
0010
0001
1000
0001
1000
,  // measure 31
0020
0000
0130
0002
0000
1003
0200
0000
,  // measure 32
0320
0000
0000
0000
0000
0000
0031
0010
0002
0000
0000
0000
0203
0000
0000
0000
,  // measure 33
0320
0000
0000
2030
0000
0000
3002
0000
0023
0000
0000
1030
0020
0000
0032
0000
,  // measure 34
0103
0001
0101
0000
0010
1000
1010
0000
,  // measure 35
1000
0001
1001
0000
0010
0100
0110
0000
,  // measure 36
2002
0000
0000
0000
0000
0000
3000
0003
,  // measure 37
1000
0000
0000
0000
1000
0000
0100
0000
0010
0001
0010
0000
0001
0000
0000
0000
,  // measure 38
0100
0000
0000
0000
0110
0000
0000
0000
0100
0001
0100
0000
0010
0000
0000
0000
,  // measure 39
1000
0100
0001
0100
1000
0010
0001
0010
,  // measure 40
1000
0100
0001
0100
1000
0010
0100
0000
,  // measure 41
0001
0000
0000
0000
0001
0000
0010
0000
0100
1000
0100
0000
0010
0000
0000
0000
,  // measure 42
0001
0000
0000
0000
0101
0000
0000
0000
0001
1000
0001
0000
0100
0000
0000
0000
,  // measure 43
0010
0000
0000
1010
0000
1001
0000
0021
,  // measure 44
0000
0100
0000
0000
0030
0000
0000
0000
,  // measure 45
0001
0000
0000
0000
0001
0000
0010
0000
0100
1000
0100
0000
1000
0000
0000
0000
,  // measure 46
0010
0000
0000
0000
0110
0000
0000
0000
0010
1000
0010
0000
0100
0000
0000
0000
,  // measure 47
0001
0010
1000
0010
0001
0100
1000
0100
,  // measure 48
0001
0010
1000
0010
0001
0100
0010
0000
,  // measure 49
1000
0000
0000
0000
1000
0000
0100
0000
0010
0001
0010
0000
0100
0000
0000
0000
,  // measure 50
1000
0000
0000
0000
1010
0000
0000
0000
1000
0001
1000
0000
0010
0000
0000
0000
,  // measure 51
0100
0000
0000
0101
0000
1001
0000
1200
,  // measure 52
0000
0010
0000
0000
0300
0000
0000
0000
,  // measure 53
1000
0000
0010
0000
1000
0001
1000
0000
,  // measure 54
0100
0000
0010
0000
0001
0100
0001
0000
,  // measure 55
0100
0100
0010
0010
,  // measure 56
1000
0000
0001
0010
0100
0000
0100
0000
,  // measure 57
0010
0000
0001
0000
1000
0010
1000
0000
,  // measure 58
0001
0000
0010
0000
0100
1000
0100
0000
,  // measure 59
1000
1000
0001
0001
,  // measure 60
0200
0000
0020
0300
,  // measure 61
1030
0000
0001
0000
0010
0001
0010
0000
,  // measure 62
0100
0000
0010
0000
0001
1000
0001
0000
,  // measure 63
0100
0000
0010
0000
0000
0100
0000
0000
0001
0000
0000
0000
1000
0000
0010
0000
,  // measure 64
1000
0000
0000
0100
0000
0000
0010
0000
0001
0000
0000
0000
1000
0000
0000
0000
,  // measure 65
0010
0000
0100
0000
0010
1000
0010
0000
,  // measure 66
0100
0000
0001
0000
0010
0100
0010
0000
,  // measure 67
0001
1000
0001
1000
0010
0100
0010
0100
,  // measure 68
0002
0000
0013
0100
2000
0000
0010
0000
,  // measure 69
3001
0000
0000
0000
1000
0000
0010
0000
0100
0001
0100
0000
0001
0000
0000
0000
,  // measure 70
1000
0000
0000
0000
0001
0000
0010
0000
0100
1000
0100
0000
1000
0000
0000
0000
1010
0000
0000
0000
0000
0000
0000
0000
0000
0000
0000
0000
1100
0000
0000
0000
,  // measure 71
0000
0110
0000
1001
2002
0000
0000
0000
,  // measure 72
0000
0000
0000
0000
,  // measure 73
3003
0000
0000
0000
1000
0000
0000
0000
1000
0000
0001
0000
0010
0100
0010
0000
,  // measure 74
0001
0000
0000
0000
0100
0000
0000
0000
0110
0000
0000
0000
0100
0001
0100
0000
,  // measure 75
0010
0000
1000
0100
0001
0100
1000
0010
,  // measure 76
0001
0010
1000
0100
0001
0100
1000
0010
,  // measure 77
0100
0000
0000
0000
0001
0000
0000
0000
0001
0000
0010
0000
0100
1000
0100
0000
,  // measure 78
0010
0000
0000
0000
0001
0000
0000
0000
1001
0000
0000
0000
0001
0100
0001
0000
,  // measure 79
0010
0000
0110
0000
0000
1100
0000
1010
,  // measure 80
0000
2002
0000
0000
0000
0000
3003
0000
,  // measure 81
0000
0000
0001
0001
0100
0100
0010
0010
,  // measure 82
1000
0000
1000
0000
0100
0000
0100
0000
0010
0000
0010
0001
0010
0000
0001
0000
,  // measure 83
0100
0000
0010
0000
1000
0000
0000
0100
0000
0000
1000
0000
0001
0000
0000
0100
,  // measure 84
0000
0001
0010
0001
0100
0010
1000
0000
,  // measure 85
1001
0000
1000
1000
0100
0100
0010
0010
,  // measure 86
0001
0000
0001
0000
0100
0000
0100
0000
0010
0000
0010
1000
0010
0000
0100
0000
,  // measure 87
0001
0000
0011
0000
0000
0110
0000
1100
,  // measure 88
0000
1002
0000
0100
0000
0000
0003
0000
,  // measure 89
0000
0000
0011
0000
0000
0110
0000
0000
,  // measure 90
1100
0000
1000
0000
0010
0000
0100
0001
,  // measure 91
0100
0000
0110
0000
0000
1010
0000
0000
,  // measure 92
1001
0000
0000
0011
0000
0000
0110
0000
,  // measure 93
1100
0000
1010
0000
0000
1001
0000
0000
,  // measure 94
0011
0000
0000
0001
0100
0010
1000
0100
,  // measure 95
0010
0000
0110
0000
0000
0011
0000
1001
,  // measure 96
0000
0110
0220
0000
0000
0000
0000
0000
,  // measure 97
0330
0000
0000
0000
;

//---------------dance-single - ---------------
#NOTES:
     dance-single:
     :
     Hard:
     17:
     0,0,0,0,0:
// measure 0
0000
0000
0000
0000
,  // measure 1
0000
0000
0000
0000
,  // measure 2
0000
0000
0000
0000
,  // measure 3
0000
0000
0000
0000
0000
0011
0000
0000
,  // measure 4
1010
0000
0010
1000
0001
0100
0000
1000
,  // measure 5
0100
0010
1000
0100
0010
0001
0100
0000
,  // measure 6
0110
1010
1001
0011
,  // measure 7
0010
0001
1000
0010
0000
0220
0000
0330
,  // measure 8
0101
0000
0000
1001
0000
0000
0011
0000
,  // measure 9
0010
0000
0100
0000
1000
0000
0010
0000
0100
0001
0100
0001
0100
0001
0100
0001
,  // measure 10
0100
0000
0000
1010
0000
0000
1100
0000
,  // measure 11
0000
0101
0000
0000
0110
0000
1001
0000
,  // measure 12
0011
0000
0000
0110
0000
0000
1100
0000
,  // measure 13
1000
0001
0100
0010
2000
0100
0100
3100
,  // measure 14
0110
0000
0000
0011
0000
0000
0101
0000
,  // measure 15
0000
0110
0000
0000
1010
0000
0001
0000
,  // measure 16
0010
0100
1000
0001
0100
0010
0100
0000
,  // measure 17
0001
0000
0010
0100
0010
0000
0001
0000
0100
0000
0010
0000
1000
0000
0000
0000
,  // measure 18
0001
0000
0010
0001
0000
0010
0001
0010
0001
1000
0001
1000
0001
0000
0100
0000
,  // measure 19
0010
0000
1000
0001
1000
0000
0001
0000
0010
0000
0100
0000
1000
0000
0000
0000
,  // measure 20
0001
0100
0010
0100
0001
1000
0100
0000
,  // measure 21
0010
0000
0001
1000
0001
0000
0010
0000
0100
0000
1000
0000
0010
0000
0000
0000
,  // measure 22
1000
0000
0100
1000
0000
0100
1000
0100
1000
0001
1000
0001
1000
0000
0010
0000
,  // measure 23
0200
0000
0002
0300
,  // measure 24
1003
0000
0100
0010
0100
0000
1000
0000
0001
0000
0010
0000
0100
0000
0000
0000
,  // measure 25
1100
0000
0000
1001
0000
0000
0101
0000
0100
0000
0010
0000
1000
0000
0000
0000
,  // measure 26
0001
0000
0010
0001
0010
0000
0001
0000
1000
0000
0010
0000
1000
0000
0000
0000
,  // measure 27
1010
0000
1001
0000
0000
0011
0000
0000
0000
0010
0100
0000
1000
0000
0010
0000
,  // measure 28
0100
0010
1000
0001
0010
0100
0010
0000
,  // measure 29
0001
0000
1000
0010
1000
0000
0001
0000
0010
0000
0001
0000
0100
0000
0000
0000
,  // measure 30
0010
0010
1000
1000
0001
0001
0010
0010
,  // measure 31
0200
0000
0310
0002
0000
0103
0020
0000
,  // measure 32
0230
0000
0000
0000
0000
0000
0310
1000
0200
0000
0000
0000
0302
0000
0000
0000
,  // measure 33
0203
0000
0000
0000
0000
0000
0320
0000
0000
0000
0000
0000
0032
0000
0000
0000
2003
0000
0000
0000
0000
0000
3001
0100
0002
0000
0000
0000
0013
0000
0001
0000
,  // measure 34
2000
0000
0100
0000
0001
0000
3010
0100
0002
0000
0010
0000
2003
0000
0100
0000
,  // measure 35
3020
0000
0130
0002
0010
0000
2003
0000
0010
0000
3100
0020
1000
0000
0230
0000
,  // measure 36
2000
0000
0000
0000
0000
0000
0300
3000
,  // measure 37
0001
0000
0100
0010
0100
0000
0001
0000
1000
0100
1000
0100
1000
0000
0010
0000
,  // measure 38
0100
0000
0010
0000
0001
0000
0010
0000
0100
0001
0100
0000
0010
0000
1000
0000
,  // measure 39
0001
0010
1000
0001
0100
1000
0001
0100
,  // measure 40
1000
0001
0010
1000
0100
0010
0001
0000
,  // measure 41
0100
0000
0001
1000
0001
0000
1000
0000
0010
0100
0010
0100
0010
0000
1000
0000
,  // measure 42
0100
0000
0010
0000
1000
0000
0010
0000
0100
1000
0100
0000
0010
0000
0001
0000
,  // measure 43
1001
0000
0000
1010
0000
0011
0000
0102
,  // measure 44
0000
1003
0001
0010
0000
0000
0000
0000
,  // measure 45
1000
0000
0001
0100
0001
0000
1000
0000
0010
0100
0010
0100
0010
0000
1000
0000
,  // measure 46
0001
0000
0010
0000
1000
0000
0010
0000
0001
0010
0001
0000
0100
0000
0010
0000
,  // measure 47
1000
0010
0001
1000
0100
0001
1000
0100
,  // measure 48
0001
1000
0010
0001
0100
0010
1000
0000
,  // measure 49
0001
0000
0010
0001
0010
0000
0100
0000
1000
0001
1000
0001
1000
0000
0010
0000
,  // measure 50
1000
0000
0100
0000
0001
0000
0100
0000
1000
0100
1000
0000
0001
0000
0100
0000
,  // measure 51
0110
0000
0000
0101
0000
1001
0000
1200
,  // measure 52
0000
0001
0000
0000
0300
0000
0000
0000
,  // measure 53
1000
0000
1010
0000
0001
0010
0100
0000
,  // measure 54
0010
0001
0100
0010
0001
0010
0100
0000
,  // measure 55
0001
0000
1000
0001
1000
0000
0100
0000
0010
0000
0100
0000
1000
0000
0010
0000
,  // measure 56
0100
0001
1000
0100
0010
0000
0010
0000
,  // measure 57
0001
0000
0101
0000
0100
0010
1000
0000
,  // measure 58
0100
0010
1000
0010
0100
1000
0001
0000
,  // measure 59
1000
0000
0010
1000
0010
0000
0100
0000
0001
0000
1000
0000
0100
0000
0010
0000
,  // measure 60
0002
0000
2000
0003
,  // measure 61
3100
0000
0110
0000
0010
0001
1000
0000
,  // measure 62
0010
1000
0001
0010
1000
0010
0100
0000
,  // measure 63
1000
0000
0001
1000
0000
0001
1000
0001
1000
0010
1000
0010
1000
0000
0100
0000
,  // measure 64
0010
0000
0000
0010
0000
0000
0010
0000
0001
0000
1000
0000
0010
0000
0000
0000
,  // measure 65
0100
0000
0101
0000
0001
1000
0100
0000
,  // measure 66
1000
0001
0100
1000
0100
0010
1000
0000
,  // measure 67
0001
0001
0010
0010
0100
0100
1000
1000
,  // measure 68
0002
0000
0103
0010
0002
0000
0023
0000
,  // measure 69
1030
0000
0001
0000
0010
0000
0100
0000
1000
0001
1000
0001
1000
0000
0010
0000
,  // measure 70
1000
0000
0001
0000
0010
0000
0001
0000
0100
0010
0100
0010
0100
0000
0001
0000
0011
0000
0000
0000
0000
0000
0000
0000
0001
0000
0000
0000
0101
0000
0000
0000
,  // measure 71
0000
1100
0000
0110
2002
0000
0000
0000
,  // measure 72
0000
0000
0000
0000
,  // measure 73
3003
0000
0000
0000
1000
0000
0001
0010
0001
0000
0100
0000
0010
1000
0010
1000
,  // measure 74
0010
0000
0100
0000
0001
0000
0010
0000
1000
0000
0010
0000
0001
1000
0001
0000
,  // measure 75
0100
0010
1000
0100
0001
1000
0010
0001
,  // measure 76
1000
0010
0001
1000
0100
0001
0010
0100
,  // measure 77
1000
0000
0000
0000
0001
0000
0010
0100
0010
0000
0001
0000
1000
0100
1000
0100
,  // measure 78
1000
0000
0001
0000
0010
0000
0100
0000
0001
0000
0100
0000
0010
0001
0010
0000
,  // measure 79
0100
1000
1010
0000
0000
1001
0000
0011
,  // measure 80
0000
0202
0000
0000
0000
0000
0303
0000
,  // measure 81
0000
0000
0101
0001
1001
0001
0011
0001
,  // measure 82
1001
0000
0001
0000
0101
0000
0001
0000
0011
0000
0001
1000
0001
0000
0001
0000
,  // measure 83
0101
0000
0001
0000
0011
0000
0000
0110
0000
0000
1100
0000
1010
0000
0000
0110
,  // measure 84
0000
0101
0001
1000
0100
0010
0001
0000
,  // measure 85
1001
0000
1010
1000
1001
1000
1100
1000
,  // measure 86
1001
0000
1000
0000
1010
0000
1000
0000
1100
0000
1000
0001
1000
0000
1000
0000
,  // measure 87
0100
0000
0110
0000
0000
0011
0000
0101
,  // measure 88
0000
1020
0000
0001
0000
0000
0030
0000
,  // measure 89
0000
0000
0110
0000
0000
1001
0000
0000
,  // measure 90
0011
0000
0000
0000
0001
0000
0100
0000
0010
0000
1000
0100
2000
0000
0001
0000
,  // measure 91
0001
3001
0101
0000
0000
1100
0000
0000
,  // measure 92
1010
0000
0000
0011
0000
0000
1001
0000
,  // measure 93
0110
0000
1010
0000
0000
1100
0000
0000
,  // measure 94
0110
0000
0000
0001
0100
1000
0100
0001
,  // measure 95
1000
0001
1000
0000
1100
0000
0000
0000
0000
0000
0110
0000
0000
0000
0011
0000
,  // measure 96
0000
1010
0202
0000
0000
0000
0000
0000
,  // measure 97
0303
0000
0000
0000
;
000
0000
0000
0000
0000
,  // measure 97
0303
0000
0000
0000
;
