#VERSION:0.83;
#TITLE:TIERRA BUENA;
#SUBTITLE:;
#ARTIST:WILMA DE OLIVEIRA;
#TITLETRANSLIT:;
#SUBTITLETRANSLIT:;
#ARTISTTRANSLIT:;
#GENRE:BALADA ESPANOL;
#ORIGIN:;
#CREDIT:;
#BANNER:TIERRA BUENA.png;
#BACKGROUND:TIERRA BUENA-bg.png;
#PREVIEWVID:;
#JACKET:TIERRA BUENA-jacket.png;
#CDIMAGE:;
#DISCIMAGE:;
#LYRICSPATH:;
#CDTITLE:;
#MUSIC:TIERRA BUENA.ogg;
#OFFSET:1.809166;
#SAMPLESTART:71.219948;
#SAMPLELENGTH:14.820000;
#SELECTABLE:YES;
#BPMS:0.000=115.000;
#STOPS:;
#DELAYS:;
#WARPS:;
#TIMESIGNATURES:0.000=4=4;
#TICKCOUNTS:0.000=4;
#COMBOS:0.000=1;
#SPEEDS:0.000=1.000=0.000=0;
#SCROLLS:0.000=1.000;
#FAKES:;
#LABELS:0.000=Song Start;
#BGCHANGES:0.000=TIERRA BUENA.avi=1.000=1=0=1=Centered==CrossFade==,
99999=-nosongbg-=1.000=0=0=0 // don't automatically add -songbackground-
;
#KEYSOUNDS:;
#ATTACKS:
;

//---------------dance-single - ----------------
#NOTEDATA:;
#CHARTNAME:;
#STEPSTYPE:dance-single;
#DESCRIPTION:;
#CHARTSTYLE:;
#DIFFICULTY:Hard;
#METER:14;
#RADARVALUES:0.610942,0.662766,0.287234,0.234043,0.638298,402.000000,375.000000,27.000000,22.000000,21.000000,0.000000,0.000000,0.000000,0.000000,0.610942,0.662766,0.287234,0.234043,0.638298,402.000000,375.000000,27.000000,22.000000,21.000000,0.000000,0.000000,0.000000,0.000000;
#CREDIT:BlindedVanguard573;
#NOTES:
0000
0000
0000
0000
,
0000
0000
0000
0000
,
0000
0000
0000
0000
,
0000
0000
0000
0000
,
0000
0000
0000
0000
0000
0001
1000
0001
,
1000
0000
0000
0000
0100
00M0
0100
0000
0001
0000
0000
0000
0010
0000
0000
0000
0100
0000
0000
0000
0000
0000
0000
0000
1000
0000
0000
0000
0001
0000
0000
0000
,
1000
0000
0000
0000
0010
0M00
0010
0000
0001
0000
0000
0000
0100
0000
0000
0000
0010
0000
0000
0000
0000
0000
0000
0000
1000
0000
0000
0000
0001
0000
0000
0000
,
1000
0000
0000
0000
0100
00M0
0100
0000
0001
0000
0000
0000
0010
0000
0000
0000
0001
0000
0000
0000
0100
0000
0000
0000
0010
0000
0000
0000
0100
0000
0000
0000
,
2000
0000
3200
0000
0302
0003
1000
0100
,
0010
0M00
0010
0000
1000
0000
0001
0000
0100
0000
0000
0000
0010
0000
0100
0000
,
0001
0000
0000
0000
0100
00M0
0100
0000
1000
0000
0000
0000
0001
0000
0000
0000
0100
0000
0000
0000
0000
0000
0000
0000
0010
0000
0000
0000
1000
0000
0000
0000
,
0001
0000
0000
0000
0010
0M00
0010
0000
1000
0000
0000
0000
0001
0000
0000
0000
1000
0000
0000
0000
0100
0000
0000
0000
0010
0000
0000
0000
0100
0000
0000
0000
,
0101
0000
0000
0000
1100
0000
0000
0000
1001
0000
0000
0000
0001
1000
0001
1000
,
0001
0000
0000
0000
0100
00M0
0100
0000
1000
0000
0000
0000
0010
0000
0000
0000
1000
0000
0000
0000
0100
00M0
0100
0000
0001
0000
0000
0000
0010
0000
0000
0000
,
0001
0000
0001
0100
0010
0000
0001
0000
0020
0000
1030
0000
0200
0000
1300
0000
,
0002
0000
0000
0100
0000
0000
0000
0000
0000
1003
0000
0000
0010
0000
0000
0000
0000
0000
1000
0000
0000
0000
0000
0000
0002
0000
0000
0010
0000
0000
0000
0000
0000
1003
0000
0000
0100
0000
0000
0000
1000
0000
0000
0000
0001
0000
0000
0000
,
0100
0000
0000
0000
0001
0000
0000
0000
1000
0000
0000
0000
0010
0000
0000
0000
1000
0000
0000
0000
0001
0000
0000
0000
0010
0000
0000
0000
0000
0000
0010
0000
0000
0000
0000
0000
1001
0000
0000
0000
0000
0000
0001
0000
0000
1000
0000
0000
,
0001
0000
0100
0010
1000
0000
1001
0000
1000
0000
0100
0010
0001
0000
1001
0000
,
0001
0000
0001
1000
0100
0000
1000
0000
0100
00M0
0100
0000
0001
0000
1000
0000
,
0001
0000
0010
0100
1000
0000
1001
0000
1000
0000
0010
0100
0001
0000
1001
0000
,
1000
0000
1000
0001
0100
0000
0010
0000
1010
0000
0000
0000
0101
0000
0000
0000
,
1001
0000
0000
0000
0000
0000
0010
0100
0010
0000
0000
0000
0000
0000
2000
0000
,
0100
0000
0001
0000
3010
0000
0000
0000
1001
0000
0000
0000
0001
0100
0010
1000
,
0100
1000
0001
0100
0010
1000
0020
0000
1000
0000
0000
0000
0130
0000
0010
1000
,
0001
0000
0010
0000
0100
0000
1000
0000
0010
0000
1000
0000
0010
0M00
0010
0000
0002
0000
0000
0000
0000
0000
0000
0000
0103
0000
0000
0000
0001
0000
1000
0000
,
0001
0010
0100
1000
0010
0M00
0010
0000
0001
0100
0010
1000
0100
00M0
0100
0000
,
0001
0000
1000
0000
0100
0000
0010
0000
0100
0000
1000
0000
0010
0M00
0010
0000
0001
0000
1000
0000
0100
00M0
0100
0000
0002
0000
0000
0000
0003
0000
0000
0000
,
0010
0001
1000
0010
0100
0001
0200
0000
0001
0000
0000
0000
0310
0000
0100
0001
,
1000
0000
0100
0000
0010
0000
0001
0000
0100
0000
0001
0000
0100
00M0
0100
0000
2000
0000
0000
0000
0000
0000
0000
0000
3010
0000
0000
0000
1000
0000
0000
0000
,
0001
0100
0010
1000
0100
00M0
0100
0000
0001
0010
0100
1000
0010
0M00
0010
0000
,
0001
0000
0000
0010
0000
0000
0100
0000
1000
0000
0000
0010
0000
0000
0100
0000
0001
0000
0000
0000
1001
0000
0000
0000
0000
0000
0000
0000
1000
0000
0001
0000
,
1000
0000
0000
0000
0100
00M0
0100
0000
0001
0000
0000
0000
0010
0000
0000
0000
0001
0000
0000
0000
0100
00M0
0100
0000
1000
0000
0000
0000
0010
0000
0000
0000
,
1000
0000
1000
0100
0010
0000
1000
0000
0020
0000
0031
0000
0200
0000
0301
0000
,
2000
0000
0000
0100
0000
0000
0000
0000
0000
3001
0000
0000
0010
0000
0000
0000
0000
0000
0001
0000
0000
0000
0000
0000
2000
0000
0000
0010
0000
0000
0000
0000
0000
3001
0000
0000
0100
0000
0000
0000
0001
0000
0000
0000
1000
0000
0000
0000
,
0100
0000
0000
0000
1000
0000
0000
0000
0001
0000
0000
0000
0010
0000
0000
0000
0001
0000
0000
0000
1000
0000
0000
0000
0010
0000
0000
0000
0000
0000
0010
0000
0000
0000
0000
0000
1001
0000
0000
0000
0000
0000
1000
0000
0000
0001
0000
0000
,
1000
0000
0100
0010
0001
0000
1100
0000
1000
0000
0010
0100
0001
0000
1010
0000
,
1000
0000
1000
0001
0010
0000
0100
0000
0010
0M00
0010
0000
1000
0000
0001
1000
,
0001
0000
0100
0010
1000
0000
0011
0000
1000
0000
0010
0100
0001
0000
1100
0000
,
0001
0000
1000
0001
0100
0000
0010
0000
0110
0000
0000
0000
1001
0000
0001
1000
,
0001
0000
0100
0010
0001
0000
0021
0000
1030
0000
0100
0010
1000
0000
1020
0000
,
0031
0000
0001
0100
0010
0000
1000
0000
0100
00M0
0100
0000
0001
0000
1000
0001
,
1000
0000
0010
0100
1000
0000
1200
0000
0301
0000
0010
0100
0001
0000
0201
0000
,
1300
0001
0010
0100
1000
0001
0100
0010
1000
0000
0000
0000
1001
0000
0000
0000
,
0110
0000
0000
0000
0000
0000
1000
0001
1000
0000
0000
0000
0000
0000
0002
0000
,
0010
1000
0103
0000
1001
0000
0000
0000
;

//---------------dance-single - ----------------
#NOTEDATA:;
#CHARTNAME:;
#STEPSTYPE:dance-single;
#DESCRIPTION:;
#CHARTSTYLE:;
#DIFFICULTY:Medium;
#METER:10;
#RADARVALUES:0.451368,0.473404,0.234043,0.212766,0.042553,297.000000,275.000000,22.000000,20.000000,0.000000,0.000000,0.000000,0.000000,0.000000,0.451368,0.473404,0.234043,0.212766,0.042553,297.000000,275.000000,22.000000,20.000000,0.000000,0.000000,0.000000,0.000000,0.000000;
#CREDIT:BlindedVanguard573;
#NOTES:
0000
0000
0000
0000
,
0000
0000
0000
0000
,
0000
0000
0000
0000
,
0000
0000
0000
0000
,
0000
0000
0000
0000
0000
0001
1000
0001
,
1000
0010
0100
0001
1000
0000
0001
1000
,
0100
0010
0001
0100
0010
0000
1000
0010
,
0100
0001
0010
1000
0010
0001
0100
0010
,
2000
0000
3200
0000
0302
0003
0100
0010
,
0001
0100
0010
1000
0001
0000
0010
0100
,
1000
0001
0100
0010
1000
0000
0001
0010
,
0100
1000
0010
0001
0010
0100
0001
0010
,
0011
0000
1100
0000
1001
0000
1000
0001
,
1000
0010
1000
1000
0001
0100
0001
0001
,
1000
0100
0010
1000
0020
0000
0031
0000
,
1000
0000
0000
1000
0010
0000
0100
0000
0001
0000
0000
0001
0010
0000
0100
0000
,
1000
1000
0001
0001
0100
0010
1001
0000
,
1000
0100
2000
0010
3001
1000
0002
0010
,
1003
0001
0100
0010
0100
0100
1001
0000
,
0001
0010
0002
0100
1003
0001
2000
0100
,
3001
1000
0010
0100
1010
0000
0101
0000
,
1001
0000
0000
0000
0000
0000
0010
0100
0010
0000
0000
0000
0000
0000
1000
0000
,
0100
0001
0100
0000
1001
0000
0000
0000
,
1000
0010
0100
0200
0001
0000
0310
0100
,
0001
0010
0100
1000
0020
0000
0130
0000
,
0010
1000
0100
0100
0010
0001
0100
0100
,
0010
1000
0001
1000
0100
1000
2002
3003
,
0001
0010
0100
0200
1000
0000
0310
0100
,
1000
0010
0100
0001
0020
0000
0130
0000
,
0010
0001
0100
0100
0010
1000
0100
0100
,
1000
0000
0000
1000
0001
0000
0000
0001
1000
0000
1001
0000
0000
0000
0000
0000
,
0001
0100
0001
0001
1000
0010
1000
1000
,
0001
0010
0100
0001
0200
0000
1300
0000
,
0001
0000
0000
0001
0100
0000
0010
0000
1000
0000
0000
1000
0100
0000
0010
0000
,
0001
0001
1000
1000
0010
0100
1001
0000
,
0001
0010
0002
0100
1003
0001
2000
0100
,
3001
1000
0010
0100
0010
0010
1001
0000
,
1000
0100
2000
0010
3001
1000
0002
0010
,
1003
0001
0100
0010
0101
0000
1010
0000
,
0001
0010
0100
1100
1000
0010
0100
0101
,
0001
0010
0100
1000
0001
0001
1001
0000
,
1000
0010
0100
1010
0001
0010
0100
0011
,
1000
0010
0001
0010
2000
0000
3001
0000
,
1001
0000
0000
0000
0000
0000
0100
0010
0100
0000
0000
0000
0000
0000
0001
0000
,
0100
1000
0100
0000
1001
0000
0000
0000
;

//---------------dance-single - ----------------
#NOTEDATA:;
#CHARTNAME:;
#STEPSTYPE:dance-single;
#DESCRIPTION:;
#CHARTSTYLE:;
#DIFFICULTY:Easy;
#METER:6;
#RADARVALUES:0.276596,0.331383,0.244681,0.000000,0.000000,182.000000,159.000000,23.000000,0.000000,0.000000,0.000000,0.000000,0.000000,0.000000,0.276596,0.331383,0.244681,0.000000,0.000000,182.000000,159.000000,23.000000,0.000000,0.000000,0.000000,0.000000,0.000000,0.000000;
#CREDIT:BlindedVanguard573;
#NOTES:
0000
0000
0000
0000
,
0000
0000
0000
0000
,
0000
0000
0000
0000
,
0000
0000
0000
0000
,
0000
0000
0000
0000
,
1000
0010
0100
0010
,
1000
0100
0010
0100
,
1000
0010
0001
0010
,
1000
0001
1001
0000
,
0001
0010
0100
0010
,
0001
0100
0010
0100
,
0001
0010
1000
0010
,
0001
1000
1001
0000
,
1000
1000
0100
0100
,
0010
0100
1000
0001
,
0100
0100
0010
0010
,
0100
0001
1000
1001
,
0001
0010
0100
0010
,
0001
0000
0100
0000
0010
0010
0010
0000
,
0100
0001
1000
0100
,
0010
0100
1001
1001
,
1001
0000
0110
0000
,
1001
1001
1001
0000
,
0001
0100
0010
0100
,
0001
0010
0100
0010
,
0001
0001
0001
0000
1000
1000
1000
0000
,
0010
0100
0010
1001
,
1000
0010
0100
0010
,
1000
0100
0010
0100
,
1000
1000
1000
0000
0001
0001
0001
0000
,
1001
0000
0110
0000
1000
0001
0000
0000
,
0001
0001
0100
0100
,
0010
0100
0001
1000
,
0100
0100
0010
0010
,
0100
1000
0001
1001
,
1000
0010
0100
0010
,
1000
0000
0100
0000
0010
0010
0010
0000
,
0100
1000
0001
0100
,
0010
0100
1001
1001
,
1000
0010
0001
0010
,
0100
0000
0001
0000
1000
0100
1000
0000
,
0001
0010
1000
0010
,
0001
0100
1001
1001
,
1001
0000
0110
0000
,
1001
1001
1001
0000
;

//---------------dance-single - ----------------
#NOTEDATA:;
#CHARTNAME:;
#STEPSTYPE:dance-single;
#DESCRIPTION:;
#CHARTSTYLE:;
#DIFFICULTY:Beginner;
#METER:3;
#RADARVALUES:0.164134,0.165691,0.000000,0.000000,0.000000,108.000000,108.000000,0.000000,0.000000,0.000000,0.000000,0.000000,0.000000,0.000000,0.164134,0.165691,0.000000,0.000000,0.000000,108.000000,108.000000,0.000000,0.000000,0.000000,0.000000,0.000000,0.000000,0.000000;
#CREDIT:BlindedVanguard573;
#NOTES:
0000
0000
0000
0000
,
0000
0000
0000
0000
,
0000
0000
0000
0000
,
0000
0000
0000
0000
,
0000
0000
0000
0000
,
1000
1000
1000
0000
,
0010
0010
0010
0000
,
0100
0100
0100
0000
,
0001
0001
0001
0000
,
0010
0010
0010
0000
,
0100
0100
0100
0000
,
1000
1000
1000
0000
,
0001
0001
0001
0000
,
0100
0000
0010
0000
,
1000
1000
1000
0000
,
0100
0000
0010
0000
,
0001
0001
0001
0000
,
1000
0000
0010
0000
,
0100
0100
0100
0100
,
0100
0000
0001
0000
,
0010
0010
0010
0010
,
0010
0000
0100
0000
,
1000
1000
1000
0000
,
0001
0000
0100
0000
,
0010
0010
0010
0000
,
0100
0000
0001
0000
,
1000
1000
1000
1000
,
1000
0000
0100
0000
,
0010
0010
0010
0000
,
0100
0000
1000
0000
,
0001
0001
0001
0000
,
0100
0000
0010
0000
,
1000
0000
0001
0001
,
0001
0000
0010
0000
,
0100
0000
1000
1000
,
1000
0000
0010
0000
,
0100
0000
0001
0001
,
0001
0000
0010
0000
,
0100
0100
0100
0000
,
0010
0000
0001
0000
,
1000
0000
0010
0010
,
0010
0000
0100
0000
,
0001
0001
0001
0001
,
0001
0000
0010
0000
,
0100
0100
0100
0000
;
