#VERSION:0.83;
#TITLE:Stylus;
#SUBTITLE:;
#ARTIST:HuΣeR;
#TITLETRANSLIT:;
#SUBTITLETRANSLIT:;
#ARTISTTRANSLIT:;
#GENRE:;
#CREDIT:;
#MUSIC:Stylus.ogg;
#BANNER:BR2024-bn.png;
#BACKGROUND:BR2024-bg.png;
#JACKET:;
#DISCIMAGE:;
#CDIMAGE:;
#SELECTABLE:YES;
#LYRICSPATH:;
#CDTITLE:;
#SAMPLESTART:37.817;
#SAMPLELENGTH:11.636;
#OFFSET:1.456;
#BPMS:0.000=165.000;
#STOPS:;
#WARPS:;
#DELAYS:;
#SPEEDS:;
#SCROLLS:0.000=1.000,
10.000=0.700,
10.250=0.900,
10.500=1.100,
10.750=1.300,
11.000=1.000,
42.000=0.700,
42.250=0.900,
42.500=1.100,
42.750=1.300,
43.000=1.000,
104.000=0.600,
104.500=0.700,
105.000=0.800,
105.500=0.900,
106.000=1.000,
132.000=0.800,
136.000=0.825,
136.500=0.850,
137.000=0.875,
137.500=0.900,
138.000=0.925,
138.500=0.950,
139.000=0.975,
139.500=1.000,
164.000=0.800,
168.000=0.825,
168.500=0.850,
169.000=0.875,
169.500=0.900,
170.000=0.925,
170.500=0.950,
171.000=0.975,
171.500=1.000,
200.000=0.600,
200.500=0.700,
201.000=0.800,
201.500=0.900,
202.000=1.000,
232.000=0.800,
232.500=0.850,
233.000=0.900,
233.500=0.950,
234.000=1.000,
260.000=0.800,
264.000=0.825,
264.500=0.850,
265.000=0.875,
265.500=0.900,
266.000=0.925,
266.500=0.950,
267.000=0.975,
267.500=1.000,
296.000=0.600,
296.500=0.700,
297.000=0.800,
297.500=0.900,
298.000=1.000
;
#TICKCOUNTS:;
#TIMESIGNATURES:;
#LABELS:;
#COMBOS:;
#FAKES:10.750=0.500;
#BGCHANGES:;
#FGCHANGES:;
#ATTACKS:;

//---------------dance-single - XMOD XO----------------
#NOTEDATA:;
#CHARTNAME:;
#CHARTSTYLE:;
#CREDIT:Talkion;
#STEPSTYPE:dance-single;
#DESCRIPTION:XMOD XO-;
#DIFFICULTY:Medium;
#METER:12;
#METERF:12;
#RADARVALUES:0,0,0,0,0;
#NOTES:
// measure 0
0000
0000
0000
0000
,  // measure 1
0000
0000
0000
0000
,  // measure 2
0000
0000
0000
0000
,  // measure 3
1001
1000
0100
1000
,  // measure 4
0001
0100
0010
0000
1000
0001
0010
0100
,  // measure 5
2000
0000
0010
0000
3001
0100
0002
0000
,  // measure 6
0010
0000
1003
0100
2000
0000
3001
0000
,  // measure 7
1001
1000
0010
1000
,  // measure 8
0001
0010
0100
0000
1000
0001
0100
0010
,  // measure 9
2000
3002
0023
2030
,  // measure 10
3020
0032
2003
3000
,  // measure 11
1001
0000
1000
0000
0010
0000
1000
0001
,  // measure 12
0010
0100
0010
0000
0001
1000
0010
0100
,  // measure 13
0002
0000
0010
0000
1003
0100
2000
0000
,  // measure 14
0010
0000
3001
0100
0002
0000
1003
0000
,  // measure 15
1001
0000
0001
0000
0010
0000
0001
1000
,  // measure 16
0010
0100
0010
0000
1000
0001
0010
0100
,  // measure 17
2000
3002
0203
2300
,  // measure 18
3200
0000
0302
0000
1003
0100
0010
0000
,  // measure 19
0012
0000
0000
0100
0000
0000
2003
0000
0000
0000
0010
0000
0000
0100
0000
0000
,  // measure 20
3001
0000
1000
0010
0100
0001
1000
0000
,  // measure 21
2010
0000
0000
0100
0000
0000
3002
0000
0000
0000
0010
0000
0000
0100
0000
0000
,  // measure 22
1003
0000
0001
0010
0100
1000
0010
0000
,  // measure 23
0100
0010
1000
0000
0100
0010
0001
0000
,  // measure 24
0010
0100
1000
0000
0010
0100
0001
0000
,  // measure 25
2000
3200
0320
0230
,  // measure 26
2300
0000
0000
0000
0001
0000
0000
0000
3010
0000
1000
0000
0200
0300
0000
0000
,  // measure 27
0110
0000
0000
0000
0002
0000
0000
0100
0000
0000
0000
1003
0000
0000
0100
0000
,  // measure 28
0010
0001
2000
0000
3020
0000
0230
0000
,  // measure 29
0301
0000
0001
0000
2000
0000
0000
0100
0000
0000
0000
3001
0000
0000
0100
0000
,  // measure 30
0010
1000
0000
0100
0020
0000
0230
0000
,  // measure 31
1300
0000
1000
0000
0002
0000
0000
0010
0000
0000
0000
1003
0000
0000
0010
0000
,  // measure 32
0100
0001
2000
0000
3200
0000
0320
0000
,  // measure 33
0032
2003
3020
0032
,  // measure 34
0023
0000
2030
0000
3100
0010
0001
0000
,  // measure 35
1001
0000
0000
0000
2000
0000
0000
0010
0000
0000
0000
3100
0000
0000
0010
0000
,  // measure 36
0100
2000
0100
0000
3001
0100
0010
0000
,  // measure 37
1000
0000
1000
0000
0002
0000
0000
0010
0000
0000
0000
0103
0000
0000
0010
0000
,  // measure 38
0100
0002
0100
0000
0013
0100
1000
0000
,  // measure 39
0001
0000
0001
0000
2000
0000
0000
0100
0000
0000
0000
3010
0000
0000
0100
0000
,  // measure 40
0010
2000
0001
0000
3010
1000
0001
0000
,  // measure 41
0012
2003
3200
0302
,  // measure 42
0203
0000
2300
0000
3002
0000
0103
0010
,  // measure 43
2000
0000
0000
0100
0000
0000
3001
0000
0010
0000
0100
0000
1000
0000
0000
0000
,  // measure 44
0002
0000
0000
0010
0000
0000
0103
0000
0010
0000
0100
0000
0001
0000
0000
0000
,  // measure 45
0021
0130
1020
0130
,  // measure 46
0001
0010
0100
1000
0100
0010
0001
0000
,  // measure 47
2000
0000
0000
0010
0000
0000
3001
0000
0100
0000
0010
0000
1000
0000
0000
0000
,  // measure 48
0002
0000
0000
0100
0000
0000
0013
0000
0100
0000
0010
0000
0001
0000
0000
0000
,  // measure 49
1000
1000
0002
0000
0103
0010
0000
1000
,  // measure 50
0002
0000
0003
2001
,  // measure 51
3200
0000
0000
0010
0000
0000
1300
0000
0010
0000
0100
0000
0001
0000
0000
0000
,  // measure 52
2000
0000
0000
0010
0000
0000
3100
0000
0010
0000
0100
0000
1000
0000
0000
0000
,  // measure 53
1020
0130
0021
0130
,  // measure 54
1000
0010
1000
0001
0010
0001
1000
0000
,  // measure 55
0020
0000
0000
0100
0000
0000
1030
0000
0100
0000
0010
0000
0001
0000
0000
0000
,  // measure 56
2000
0000
0000
0100
0000
0000
3010
0000
0100
0000
0010
0000
1000
0000
0000
0000
,  // measure 57
1200
0310
0201
0310
,  // measure 58
2000
0000
0001
0000
3010
1000
0100
0000
,  // measure 59
0110
0000
0000
0000
0020
0000
0000
1000
0000
0000
0000
0031
0000
0000
0100
0000
,  // measure 60
0010
2000
0001
0000
0100
0000
3002
0000
,  // measure 61
0103
0000
0100
0000
0020
0000
0000
0001
0000
0000
0000
1030
0000
0000
0100
0000
,  // measure 62
0010
0002
0010
0000
0103
0010
2000
0000
,  // measure 63
3010
0000
0010
0000
0200
0000
0000
1000
0000
0000
0000
0301
0000
0000
0010
0000
,  // measure 64
0100
1000
0100
0000
1000
0001
0100
0010
,  // measure 65
2000
3002
0023
2030
,  // measure 66
3020
0000
0032
0000
1003
0010
0100
0000
,  // measure 67
0102
0000
0000
0010
0000
0000
2003
0000
0000
0000
0100
0000
0000
0010
0000
0000
,  // measure 68
3001
0000
1000
0100
0010
0001
1000
0000
,  // measure 69
2100
0000
0000
0010
0000
0000
3002
0000
0000
0000
0100
0000
0000
0010
0000
0000
,  // measure 70
1003
0000
0001
0100
0010
1000
0100
0000
,  // measure 71
0010
0100
1000
0000
0010
0100
0001
0000
,  // measure 72
0100
0010
1000
0000
0100
0010
0001
0000
,  // measure 73
2000
3020
0230
0320
,  // measure 74
2030
0000
0001
0000
3100
0010
0100
1000
,  // measure 75
0020
0000
0000
0030
;

//---------------dance-single - XMOD GH XO DS----------------
#NOTEDATA:;
#CHARTNAME:;
#CHARTSTYLE:;
#CREDIT:Talkion;
#STEPSTYPE:dance-single;
#DESCRIPTION:XMOD GH XO DS-;
#DIFFICULTY:Hard;
#METER:14;
#METERF:14;
#RADARVALUES:0,0,0,0,0;
#NOTES:
// measure 0
0000
0000
0000
0000
,  // measure 1
0000
0000
0000
0000
,  // measure 2
0000
0000
0000
00M0
,  // measure 3
2001
0000
3100
0000
0020
0000
0031
1000
,  // measure 4
0010
0000
1000
0000
0200
0000
0000
0000
0310
0000
0001
0000
0100
0000
0020
0030
,  // measure 5
2000
0000
3002
0000
0023
0100
0032
0000
,  // measure 6
2003
0000
3020
0100
2030
0000
3100
0010
,  // measure 7
0012
0000
0103
0000
0020
0000
1030
0001
,  // measure 8
0010
0000
0001
0000
0200
0000
0000
0000
0310
0000
1000
0000
0100
0000
0020
0030
,  // measure 9
0002
2003
3020
0032
,  // measure 10
0023
0000
1030
0001
0020
0100
0031
0000
,  // measure 11
1001
1000
0010
0100
0001
0100
0010
1000
,  // measure 12
0100
0000
1000
0000
0002
0000
0000
0000
0103
0000
0001
0000
0020
0030
0001
0000
,  // measure 13
2000
0000
3010
0100
0002
0010
1003
0100
,  // measure 14
0010
0000
0100
0000
1000
0000
0001
0100
0002
0000
0000
0000
1003
0100
1000
0000
,  // measure 15
0001
0100
0010
1000
0001
0010
0100
1000
,  // measure 16
0010
0000
1000
0000
0002
0000
0000
0000
0103
0000
0001
0000
0020
0030
0001
0000
,  // measure 17
2000
0000
3010
0100
0001
0010
2000
0000
,  // measure 18
3020
0000
0000
0000
0031
1000
0001
0000
0100
0000
0010
0000
1000
0000
0000
0000
,  // measure 19
1100
0000
0000
0101
0000
0000
1020
0000
0000
0000
0001
0000
0000
0100
0000
0000
,  // measure 20
1030
0001
0000
1000
0001
0000
0010
0000
0100
0000
0010
0000
0001
0000
1000
0000
,  // measure 21
1010
0000
0000
0011
0000
0000
1200
0000
0000
0000
0001
0000
0000
0010
0000
0000
,  // measure 22
1300
0001
0000
1000
0001
0000
0100
0000
0010
0000
1000
0000
0100
0000
0010
0000
,  // measure 23
0001
1000
0010
0100
0001
1000
0010
0100
,  // measure 24
0001
1000
0100
0010
0001
1000
0100
0010
,  // measure 25
0002
2003
3020
2030
,  // measure 26
3002
0000
0000
0000
0010
0000
0000
0000
1003
0100
0010
0000
0011
0000
0000
0000
,  // measure 27
1020
0000
0000
0000
0130
0000
0004
0100
0000
0000
4003
0100
0000
0000
3001
0000
,  // measure 28
0100
0000
0010
0000
1000
0001
1000
0000
0200
0000
1000
0000
0320
0000
0000
0000
,  // measure 29
0130
0000
0100
0000
1000
0000
0004
0100
0000
0000
4003
0100
0000
0000
3001
0000
,  // measure 30
0100
0000
0010
0000
1000
0000
0100
0010
0100
0000
2000
0000
0010
0000
3002
0000
,  // measure 31
0013
0000
0010
0000
0100
0000
4000
0100
0000
0000
3004
0100
0000
0000
1003
0000
,  // measure 32
0100
0010
0002
0100
2003
0010
3002
0000
,  // measure 33
0103
0000
0000
0100
0010
0000
1000
0000
0001
0000
0010
0000
1000
0000
0010
0000
,  // measure 34
0001
0000
0000
0001
1000
0000
0010
0000
0200
0000
0010
0000
0302
0003
0000
0000
,  // measure 35
1002
0000
0000
0000
0013
0000
0400
0010
0000
0000
4300
0001
0000
0000
3010
0000
,  // measure 36
0100
0001
0000
0100
0001
0000
1000
0000
0100
0000
1000
0000
0001
0000
0100
0000
,  // measure 37
0001
0000
0001
0000
1000
0000
0400
0010
0000
0000
4300
0001
0000
0000
3010
0000
,  // measure 38
0100
0001
0000
0100
0001
0000
1000
0000
0010
0000
1000
0000
0100
0000
0010
0000
,  // measure 39
0001
0000
0001
0000
1000
0000
0040
0100
0000
0000
4030
0001
0000
0000
3100
0000
,  // measure 40
0010
0001
1000
0010
0200
0001
0320
0000
,  // measure 41
1030
0000
0001
0000
0100
0000
0000
0100
0010
0000
0100
0000
1000
0000
0100
0000
,  // measure 42
0101
0000
0000
0000
0001
2000
0000
0000
3100
0000
0010
0000
0001
0000
1000
0010
,  // measure 43
0200
0000
0000
0010
0000
0000
0301
0000
1000
0100
0000
0100
0000
0000
0010
0000
,  // measure 44
0002
0000
0000
0010
0000
0000
1003
0000
0010
0100
0000
0200
0000
0000
0320
0000
,  // measure 45
0001
0000
0000
0100
0000
0000
1030
0000
0021
0000
0000
0100
0000
0000
1030
0000
,  // measure 46
0010
0000
0100
0000
1000
0000
0001
0000
0100
0010
0000
0010
1000
0000
0001
0000
,  // measure 47
0021
0000
0000
0100
0000
0000
0031
0000
1000
0010
0000
0010
0000
0000
0100
0000
,  // measure 48
0002
0000
0000
0100
0000
0000
1003
0000
0100
0010
0000
0020
0000
0000
0230
0000
,  // measure 49
0301
0001
0100
0010
0001
0101
0000
1100
,  // measure 50
2000
0000
0000
0000
0001
0000
0000
0000
3010
0000
0100
0000
0001
0000
1000
0100
,  // measure 51
0020
0000
0000
1000
0000
0000
0130
0000
1000
0001
0000
0001
0000
0000
0100
0000
,  // measure 52
0020
0000
0000
0001
0000
0000
0130
0000
0001
1000
0000
2000
0000
0000
3200
0000
,  // measure 53
0001
0000
0000
0010
0000
0000
1300
0000
0201
0000
0000
0010
0000
0000
1300
0000
,  // measure 54
0100
0000
0010
0000
1000
0000
0001
0000
0010
0100
0000
0100
1000
0000
0001
0000
,  // measure 55
0201
0000
0000
1000
0000
0000
0310
0000
1000
0001
0000
0001
0000
0000
0010
0000
,  // measure 56
0200
0000
0000
0001
0000
0000
0310
0000
0001
1000
0000
2000
0000
0000
3020
0000
,  // measure 57
0001
0000
0000
0100
0000
0000
1030
0000
0021
0000
0000
0100
0000
0000
1030
0000
,  // measure 58
0002
0000
0203
0000
0310
0100
1000
0000
,  // measure 59
2001
0000
0000
0000
3010
0000
0400
0001
0000
0000
0340
0001
0000
0000
0130
0000
,  // measure 60
0001
1000
0000
0001
1000
0000
0100
0000
0010
0000
0001
0000
0010
0000
0100
0000
,  // measure 61
1000
0000
1000
0000
0010
0000
0400
0001
0000
0000
0340
0001
0000
0000
0130
0000
,  // measure 62
0001
1000
0000
0001
1000
0000
0100
0000
0010
0000
0001
0000
0100
0000
0010
0000
,  // measure 63
1000
0000
1000
0000
0100
0000
0040
0001
0000
0000
0430
0001
0000
0000
0310
0000
,  // measure 64
0001
1000
0000
0001
1000
0000
0010
0000
0100
0000
0001
0000
0010
0000
0100
0000
,  // measure 65
2000
3002
0203
2300
,  // measure 66
3200
0000
0000
0000
0301
2000
0000
0000
3100
0000
0010
0000
0001
0000
0000
0000
,  // measure 67
0101
0000
0000
1100
0000
0000
0021
0000
0000
0000
1000
0000
0000
0100
0000
0000
,  // measure 68
0031
1000
0000
0001
1000
0000
0010
0000
0100
0000
0010
0000
1000
0000
0001
0000
,  // measure 69
0011
0000
0000
1010
0000
0000
0201
0000
0000
0000
1000
0000
0000
0010
0000
0000
,  // measure 70
0301
1000
0000
0001
1000
0000
0100
0000
0010
0000
0001
0000
0100
0000
0010
0000
,  // measure 71
1000
0001
0010
0100
1000
0001
0010
0100
,  // measure 72
1000
0001
0100
0010
1000
0001
0100
0010
,  // measure 73
2000
3002
0023
0032
,  // measure 74
2003
0000
0000
0000
0010
0000
0000
0000
3001
0010
0100
0000
1000
0000
0010
0100
,  // measure 75
0002
0000
0000
0000
0000
0003
0000
0000
;

//---------------dance-single - XMOD FS GH DS- KS- SS- XO----------------
#NOTEDATA:;
#CHARTNAME:;
#CHARTSTYLE:;
#CREDIT:Talkion;
#STEPSTYPE:dance-single;
#DESCRIPTION:XMOD FS GH DS- KS- SS- XO-;
#DIFFICULTY:Challenge;
#METER:17;
#METERF:17;
#RADARVALUES:0,0,0,0,0;
#NOTES:
// measure 0
0000
0000
0000
0000
,  // measure 1
0000
0000
0000
0000
,  // measure 2
0000
0000
0000
00M0
,  // measure 3
2001
0000
0000
0000
3100
0000
0000
0000
1000
0001
1000
0000
0010
0100
0000
0100
,  // measure 4
0002
0000
0100
0000
1003
0000
0000
0000
0100
0010
0100
0000
1000
0010
0200
0300
,  // measure 5
0002
0000
0000
0000
0023
0000
0000
0000
0031
1000
0001
0000
0100
0010
0000
0010
,  // measure 6
2000
0000
3200
0010
2300
0000
3100
0010
,  // measure 7
0012
0000
0000
0000
0103
0000
0000
0000
0001
1000
0001
0000
0010
0100
0000
0100
,  // measure 8
2000
0000
0100
0000
3001
0000
0000
0000
0100
0010
0100
0000
0001
0010
0200
0300
,  // measure 9
2000
0000
0000
0000
3001
1000
0100
1000
0001
0000
0100
0000
2000
0000
0000
0000
,  // measure 10
3200
0000
0010
0000
0301
1000
0001
0000
0020
0000
0100
0000
0031
0000
0000
0000
,  // measure 11
1001
0000
1000
0000
0010
0000
1000
0001
0010
0001
1000
0000
0010
0100
0000
0100
,  // measure 12
0002
0000
0100
0000
1003
0000
0100
0010
0100
1000
0001
0000
0100
0001
0020
0030
,  // measure 13
0002
0000
0000
0000
1003
0010
0100
0010
2000
0000
0001
0000
3100
0010
0000
0010
,  // measure 14
0002
0000
0000
0000
1003
0000
0010
0100
0002
0000
0000
0000
0103
0010
1000
0000
,  // measure 15
1001
0000
0001
0000
0010
0000
0001
1000
0010
1000
0001
0000
0010
0100
0000
0100
,  // measure 16
2000
0000
0100
0000
3001
0000
0100
0010
0100
0001
1000
0000
0100
1000
0020
0030
,  // measure 17
2000
0000
0000
0000
3001
1000
0010
1000
0001
0000
0010
0000
2000
0000
0000
0000
,  // measure 18
3010
0000
0100
0000
1000
0001
1000
0000
0010
0100
0010
0000
0001
0000
0000
0000
,  // measure 19
1010
0000
0000
0011
0000
0000
1200
0000
0000
0000
0001
0000
0000
0010
0000
0000
,  // measure 20
1300
0001
0000
1000
0001
0000
0100
0010
1000
0001
0010
0100
1000
0001
1000
0010
,  // measure 21
0100
0000
0000
0101
0000
0000
1020
0000
0000
0000
0001
0000
0000
0100
0000
0000
,  // measure 22
1030
0001
0000
1000
0001
0000
0010
0100
1000
0010
1000
0001
0010
0100
0010
0001
,  // measure 23
0100
0010
1000
0100
0010
0001
1000
0001
0100
0010
1000
0100
0010
0001
1000
0001
,  // measure 24
0100
0010
0100
0001
0010
0100
1000
0001
0100
0010
0100
0001
0010
0100
1000
0001
,  // measure 25
0200
0320
0230
0302
,  // measure 26
2003
0000
0000
0000
0100
0000
0000
0000
3001
0010
0100
0010
0001
1000
0010
0100
,  // measure 27
2000
0000
0000
0000
3100
0000
0001
0400
00M0
1300
0010
0400
000M
1300
0001
0000
,  // measure 28
0010
0000
0100
0000
1000
0001
0100
0001
2000
0000
0100
0000
3020
0000
0000
0000
,  // measure 29
0130
0000
0100
0000
0001
0000
1000
0400
00M0
0301
0010
0400
M000
0301
1000
0000
,  // measure 30
0010
0000
0100
0000
0101
0000
0001
1000
0100
0010
0100
1000
0001
0100
0001
1000
,  // measure 31
0100
0000
0100
0000
0010
0000
0001
0040
0M00
1030
0100
0040
000M
1030
0001
0000
,  // measure 32
0100
0010
2000
0100
3002
0010
2003
0000
,  // measure 33
3100
0000
0000
0100
0010
0000
0001
0000
1000
0000
0010
0000
0001
0000
0010
0000
,  // measure 34
1000
0000
0000
0001
0010
0100
0010
0000
0002
0000
0100
0000
2003
3100
0010
0100
,  // measure 35
0002
0000
0000
0000
0103
0000
0010
0400
M000
0301
0010
0400
000M
0310
1000
0000
,  // measure 36
0001
0100
0000
0001
0100
0000
0010
1000
0001
1000
0100
0010
0001
1000
0100
1000
,  // measure 37
0001
0000
0001
0000
0100
0000
0010
0400
000M
1300
0010
0400
M000
0310
0001
0000
,  // measure 38
1000
0100
0000
1000
0100
0000
0010
0001
1000
0010
0100
0010
1000
0100
0010
0100
,  // measure 39
1000
0000
1000
0000
0001
0000
0100
0040
M000
0031
0100
0040
000M
0130
1000
0000
,  // measure 40
0001
0100
0010
0100
0001
0000
1000
0000
0002
0000
0010
0000
0203
0000
0000
0000
,  // measure 41
0310
0000
1000
0000
0100
0000
0010
0001
0010
0000
0100
0000
0001
0000
0100
0000
,  // measure 42
1100
0000
0000
0000
1000
0002
0000
0000
0103
0000
0010
0100
0001
1000
0001
0010
,  // measure 43
0100
0000
2000
0001
0000
3010
0100
0000
0010
1000
0000
1000
0000
0001
0010
0100
,  // measure 44
1000
0000
0002
0100
0000
0013
0100
1000
0001
0100
0000
0100
0000
0010
0200
0000
,  // measure 45
1300
0000
0200
0010
0000
0301
0010
0100
0001
0000
0200
0010
0000
1300
0010
0100
,  // measure 46
0001
1000
0100
1000
0001
0100
0001
0010
0100
1000
0000
1000
0001
0000
1000
0010
,  // measure 47
0100
0000
0002
1000
0000
0013
0100
0000
0010
0001
0000
0001
0000
1000
0010
0100
,  // measure 48
0001
0000
2000
0100
0000
3010
0100
0001
1000
0100
0000
0100
0000
0010
0100
0000
,  // measure 49
1001
0000
1002
0000
0103
0010
0100
0001
1000
0000
1100
0000
0000
0000
0101
0000
,  // measure 50
0002
0000
0000
0000
0010
0000
0000
0000
1003
0010
0100
0000
0001
1000
0001
0010
,  // measure 51
0100
0000
0020
0001
0030
001M
1000
0000
0010
0100
0000
0100
0000
0001
1000
0100
,  // measure 52
0010
0000
0200
1000
0300
M100
0001
1000
0100
0010
0000
0010
0000
0001
0020
0000
,  // measure 53
1030
0000
0020
0100
0000
0031
0100
0010
0001
0000
0020
0100
0000
1030
0100
0010
,  // measure 54
0001
1000
0010
1000
0001
0010
0001
0100
0010
1000
0000
1000
0001
0000
0010
0001
,  // measure 55
1000
0000
0020
1000
0030
M010
0001
0000
0010
0100
0000
0100
0000
1000
0001
0100
,  // measure 56
0010
0000
0200
0001
0300
010M
1000
0001
0100
0010
0000
0010
0000
1000
0020
0000
,  // measure 57
0031
0000
0020
0100
0000
1030
0100
0010
1000
0000
0020
0100
0000
0031
0100
0010
,  // measure 58
0002
0000
0000
0000
0023
0000
0000
0000
1030
0001
1000
0000
0200
0000
0000
0000
,  // measure 59
0302
0000
0000
0000
0103
0000
1000
0040
0M00
0031
0100
4000
000M
3010
0100
0000
,  // measure 60
0001
1000
0000
0001
1000
0000
0100
0010
0001
1000
0010
0100
0001
1000
0001
0010
,  // measure 61
0100
0000
0100
0000
1000
0000
0001
0040
0M00
1030
0100
0004
M000
0013
0100
0000
,  // measure 62
1000
0001
0000
1000
0001
0000
0100
0010
1000
0100
1000
0001
0100
0010
0100
0001
,  // measure 63
0010
0000
0010
0000
0001
0000
1000
0400
00M0
0301
0010
4000
000M
3100
0010
0000
,  // measure 64
0001
1000
0100
1000
0001
0000
0100
0000
0010
0000
1000
0000
0100
0000
0010
0000
,  // measure 65
0002
2003
3020
0032
,  // measure 66
0023
0000
0100
0000
1030
0001
1000
0000
0100
0000
0010
0000
1000
0000
0000
0000
,  // measure 67
0011
0000
0000
1010
0000
0000
0201
0000
0000
0000
1000
0000
0000
0010
0000
0000
,  // measure 68
0301
1000
0000
0001
1000
0000
0100
0010
0001
1000
0010
0100
0001
1000
0001
0010
,  // measure 69
0100
0000
0000
1100
0000
0000
0021
0000
0000
0000
1000
0000
0000
0100
0000
0000
,  // measure 70
0031
1000
0000
0001
1000
0000
0010
0100
0001
0010
0001
1000
0010
0100
0010
1000
,  // measure 71
0100
0010
0001
0100
0010
1000
0001
1000
0100
0010
0001
0100
0010
1000
0001
1000
,  // measure 72
0100
0010
0100
1000
0010
0100
0001
1000
0100
0010
0100
1000
0010
0100
0001
1000
,  // measure 73
0200
0320
0230
2300
,  // measure 74
3002
0000
0000
0000
0100
0000
0000
0000
1003
0001
0010
0001
1000
0000
0010
0100
,  // measure 75
2000
0000
0000
0000
0000
3000
0000
0000
;
