#VERSION:0.83;
#TITLE:Stone Fingers;
#SUBTITLE:;
#ARTIST:Nhato;
#TITLETRANSLIT:;
#SUBTITLETRANSLIT:;
#ARTISTTRANSLIT:;
#GENRE:;
#ORIGIN:;
#CREDIT:;
#BANNER:bn.png;
#BACKGROUND:bg.png;
#PREVIEWVID:;
#JACKET:jkt.png;
#CDIMAGE:;
#DISCIMAGE:;
#LYRICSPATH:;
#CDTITLE:;
#MUSIC:audio.ogg;
#OFFSET:-2.210000;
#SAMPLESTART:29.639999;
#SAMPLELENGTH:12.000000;
#SELECTABLE:YES;
#BPMS:0.000=105.000,
144.000=112.000,
145.000=117.000,
146.000=120.000,
147.000=116.029,
150.000=128.000;
#STOPS:;
#DELAYS:;
#WARPS:;
#TIMESIGNATURES:0.000=4=4,
144.000=6=4,
150.000=4=4;
#TICKCOUNTS:0.000=4;
#COMBOS:0.000=1;
#SPEEDS:0.000=1.000=0.000=0;
#SCROLLS:0.000=1.000;
#FAKES:;
#LABELS:0.000=Song Start;
#BGCHANGES:;
#KEYSOUNDS:;
#ATTACKS:
;

//---------------dance-single - TaroNuke----------------
#NOTEDATA:;
#CHARTNAME:TaroNuke;
#STEPSTYPE:dance-single;
#DESCRIPTION:TaroNuke;
#CHARTSTYLE:;
#DIFFICULTY:Beginner;
#METER:3;
#RADARVALUES:0.176762,0.224418,0.242614,0.064697,0.000000,153.000000,123.000000,30.000000,8.000000,0.000000,0.000000,0.000000,0.000000,0.000000,0.176762,0.224418,0.242614,0.064697,0.000000,153.000000,123.000000,30.000000,8.000000,0.000000,0.000000,0.000000,0.000000,0.000000;
#CREDIT:TaroNuke;
#NOTES:
0000
0000
0000
0000
,
0000
0000
0000
0000
,
1001
0000
0000
0000
,
0110
0000
0000
0000
,
1001
0000
0100
0000
,
1001
0000
0100
0000
,
1001
0000
0010
0000
,
1001
0000
0010
0000
,
1001
0000
1000
0000
,
0100
0000
0010
0000
,
0002
0000
0000
0000
,
2000
0000
3003
0000
,
1001
0000
0001
0010
,
0001
0000
1000
0010
,
1000
0000
0001
0010
,
0001
0001
0001
0000
,
1001
0000
1000
0100
,
1000
0000
0001
0100
,
0001
0000
1000
0100
,
1000
1000
1000
0000
,
1001
0000
0100
0000
,
1001
0000
0010
0000
,
1001
0000
0001
0010
,
0001
0001
0001
0000
,
1001
0000
0100
0000
,
1001
0000
0010
0000
,
1001
0000
1000
0100
,
1000
1000
0001
0001
,
2002
3003
0000
0000
,
0000
0000
0000
0000
,
1001
0000
0000
0000
,
0110
0000
0000
0000
,
1001
0000
0000
0000
,
0110
0000
0000
0000
,
1001
0000
0001
0000
,
0100
0000
0010
0000
,
2000
0000
0000
0000
,
0002
0000
3003
0000
,
0000
0000
1001
0000
,
1000
0010
1000
0000
,
0001
0010
0001
0000
,
1000
0010
1000
1000
,
1000
0000
1001
0000
,
0001
0100
0001
0000
,
1000
0100
1000
0000
,
0001
0100
0001
0001
,
0001
1000
1001
0000
,
0100
0100
1001
0000
,
0100
0100
1001
0000
,
0001
0010
0001
0001
,
0001
0000
1001
0000
,
0010
0010
1001
0000
,
0010
0010
1001
0000
,
1000
0100
1000
1000
,
0001
0001
2002
0000
,
0000
0000
3003
0000
;

//---------------dance-single - TaroNuke----------------
#NOTEDATA:;
#CHARTNAME:TaroNuke;
#STEPSTYPE:dance-single;
#DESCRIPTION:TaroNuke;
#CHARTSTYLE:;
#DIFFICULTY:Easy;
#METER:5;
#RADARVALUES:0.284205,0.314186,0.250702,0.113220,0.097046,246.000000,215.000000,31.000000,14.000000,0.000000,0.000000,0.000000,0.000000,0.000000,0.284205,0.314186,0.250702,0.113220,0.097046,246.000000,215.000000,31.000000,14.000000,0.000000,0.000000,0.000000,0.000000,0.000000;
#CREDIT:TaroNuke;
#NOTES:
0000
0000
0000
0000
,
0000
0000
0000
0000
,
0001
0000
1000
1000
0000
0001
0001
0000
,
0100
0000
0010
0010
0000
0100
0100
0000
,
1001
0000
0000
0000
1000
0000
0000
0100
0000
0000
1000
0000
0000
0100
0000
0000
,
1000
0000
0000
0000
0001
0000
0000
0100
0000
0000
0001
0000
0000
0100
0000
0000
,
0001
0000
0000
0000
1000
0000
0000
0010
0000
0000
1000
0000
0000
0010
0000
0000
,
1000
0000
0000
0000
0001
0000
0000
0010
0000
0000
0001
0000
0000
0010
0000
0000
,
0001
0001
1000
1000
,
0010
0010
0100
0100
,
0002
0023
0230
2300
,
3002
0000
1003
0000
,
1001
1000
0001
0010
,
0011
0001
1000
0010
,
1010
1000
0001
0010
,
0011
0001
1000
1000
,
1001
0001
1000
0100
,
1100
1000
0001
0100
,
0101
0001
1000
0100
,
1100
1000
0001
1000
,
1001
0000
0000
0000
1000
0000
0000
0100
0000
0000
0010
0000
0000
0100
0000
0000
,
1000
0000
0000
0000
0001
0000
0000
0100
0000
0000
0010
0000
0000
0100
0000
0000
,
0001
1000
0001
0010
,
0011
0001
1000
1000
,
1001
0000
0000
0000
0001
0000
0000
0010
0000
0000
0100
0000
0000
0010
0000
0000
,
0001
0000
0000
0000
1000
0000
0000
0010
0000
0000
0100
0000
0000
0010
0000
0000
,
1000
0001
1000
0100
,
1100
1000
0001
1000
,
2002
3003
0000
0000
,
0000
0000
0000
0000
,
1001
0000
1000
0001
0000
1000
0001
0000
,
0110
0000
0100
0010
0000
0100
0010
0000
,
1001
0000
0001
1000
0000
0001
1000
0000
,
0110
0000
0010
0100
0000
0010
0100
0000
,
1000
1000
0010
0010
,
0100
0100
0001
0001
,
2000
3200
0320
0032
,
2000
0000
3003
0000
,
0000
0000
1001
0001
,
1000
0010
1010
1000
,
0001
0010
0011
0001
,
1000
0010
1010
1000
,
0001
0001
1001
1000
,
0001
0100
0101
0001
,
1000
0100
1100
1000
,
0001
0100
0101
0001
,
1000
0000
0000
0000
0001
0000
0000
0000
1001
0000
0000
0000
0001
0000
0000
0100
,
0000
0000
0010
0000
0000
0100
0000
0000
0001
0000
0000
0000
1000
0000
0000
0100
,
0000
0000
0010
0000
0000
0100
0000
0000
1000
0000
0000
0000
0001
0000
0000
0000
,
1000
0010
1010
1000
,
0001
0000
0000
0000
0001
0000
0000
0000
1001
0000
0000
0000
1000
0000
0000
0010
,
0000
0000
0100
0000
0000
0001
0000
0000
1000
0000
0000
0000
0001
0000
0000
0010
,
0000
0000
0100
0000
0000
1000
0000
0000
0001
0000
0000
0000
1000
0000
0000
0000
,
0001
0100
0101
0001
,
1000
0001
2002
0000
,
0000
0000
3003
0000
;

//---------------dance-single - TaroNuke----------------
#NOTEDATA:;
#CHARTNAME:TaroNuke;
#STEPSTYPE:dance-single;
#DESCRIPTION:TaroNuke;
#CHARTSTYLE:;
#DIFFICULTY:Medium;
#METER:8;
#RADARVALUES:0.383562,0.378074,0.161743,0.404357,0.097046,332.000000,312.000000,20.000000,50.000000,0.000000,0.000000,0.000000,0.000000,0.000000,0.383562,0.378074,0.161743,0.404357,0.097046,332.000000,312.000000,20.000000,50.000000,0.000000,0.000000,0.000000,0.000000,0.000000;
#CREDIT:TaroNuke;
#NOTES:
0000
0000
0000
0000
,
0000
0000
0000
0000
,
1001
0000
1000
1000
0000
0001
0001
0000
,
0110
0000
0010
0010
0000
0100
0100
0000
,
2001
0000
0000
0000
0100
0000
0000
0100
0000
0000
0100
0000
0000
0100
0000
0000
,
3002
0000
0000
0000
0100
0000
0000
0100
0000
0000
0100
0000
0000
0100
0000
0000
,
2003
0000
0000
0000
0010
0000
0000
0010
0000
0000
0010
0000
0000
0010
0000
0000
,
3002
0000
0000
0000
0010
0000
0000
0010
0000
0000
0010
0000
0000
0010
0000
0000
,
1003
0010
1000
0010
0100
0001
0100
0001
,
1000
0100
1000
0100
0010
0001
0010
0001
,
1000
0010
0100
0001
1000
0100
0010
0001
,
2000
0010
0100
0001
3010
0000
0000
0000
,
1001
0000
1000
0001
0010
0001
1000
0010
,
2000
0100
3001
0010
0001
1000
0010
1000
,
0002
0100
1003
0010
1000
0001
0010
0001
,
2000
0100
3001
0010
0100
0100
1000
0000
,
1001
0000
0001
1000
0100
1000
0001
0100
,
0002
0010
1003
0100
1000
0001
0100
0001
,
2000
0010
3001
0100
0001
1000
0100
1000
,
0002
0010
1003
0000
0110
0000
0001
0000
,
2001
0000
0000
0000
0001
0000
0000
0100
0000
0000
0001
0000
0000
0100
0000
0000
,
3002
0000
0000
0000
1000
0000
0000
0100
0000
0000
1000
0000
0000
0100
0000
0000
,
2003
0100
3001
0010
0001
1000
0010
1000
,
0002
0100
1003
0010
0100
0100
0001
0000
,
2001
0000
0000
0000
0001
0000
0000
0100
0000
0000
0010
0000
0000
0100
0000
0000
,
3002
0000
0000
0000
1000
0000
0000
0100
0000
0000
0010
0000
0000
0100
0000
0000
,
2003
0000
3001
0100
0001
1000
0100
1000
,
0002
0010
1003
0000
0110
0000
0001
0000
,
2002
0000
3003
0000
,
0000
0000
0000
0000
,
1001
0000
1000
0100
0000
0010
0001
0000
,
1001
0000
0001
0100
0000
0010
1000
0000
,
1001
0000
1000
0010
0000
0100
0001
0000
,
1001
0000
0001
0010
0000
0100
1000
0000
,
0001
0100
0001
0100
0010
1000
0010
1000
,
0001
0010
0001
0010
0100
1000
0100
1000
,
0002
0203
0320
2030
,
0002
0000
3003
0000
,
0000
0000
0000
0000
1001
0000
0001
1000
,
0010
1000
0001
0010
0002
0100
1003
0010
,
1000
0001
0010
0001
2000
0100
3001
0010
,
0001
1000
0010
1000
0002
0100
1003
0010
,
0100
0100
0001
0000
1001
0000
1000
0001
,
0100
0001
1000
0100
2000
0010
3001
0100
,
0001
1000
0100
1000
0002
0010
1003
0100
,
1000
0001
0100
0001
2000
0100
3001
0000
,
0110
0000
0000
0000
1000
0000
0000
0000
1002
0000
0000
0000
2003
0000
0000
0100
,
0000
0000
3002
0000
0000
0100
0000
0000
2003
0000
0000
0000
3002
0000
0000
0100
,
0000
0000
2003
0000
0000
0100
0000
0000
3002
0000
0000
0000
1003
0000
0001
0000
,
0010
1000
0010
0001
2000
0100
3001
0010
,
0100
0000
0100
0000
1000
0000
0000
0000
1002
0000
0000
0000
2003
0000
0000
0100
,
0000
0000
3020
0000
0000
0100
0000
0000
2030
0000
0000
0000
3002
0000
0000
0100
,
0000
0000
0023
0000
0000
0100
0000
0000
0032
0000
0000
0000
1003
0000
0001
0000
,
0100
1000
0100
0001
2000
0010
3001
0000
,
0010
0100
0010
0000
2002
0000
0000
0000
,
3003
0000
0000
0000
;

//---------------dance-single - TaroNuke----------------
#NOTEDATA:;
#CHARTNAME:TaroNuke;
#STEPSTYPE:dance-single;
#DESCRIPTION:TaroNuke;
#CHARTSTYLE:;
#DIFFICULTY:Hard;
#METER:12;
#RADARVALUES:0.501403,0.550937,0.194092,0.703582,0.509490,434.000000,410.000000,24.000000,87.000000,0.000000,0.000000,0.000000,0.000000,0.000000,0.501403,0.550937,0.194092,0.703582,0.509490,434.000000,410.000000,24.000000,87.000000,0.000000,0.000000,0.000000,0.000000,0.000000;
#CREDIT:TaroNuke;
#NOTES:
0000
0000
0000
0000
,
0000
0000
0000
0000
,
1001
0000
0000
1000
0100
0000
1100
0000
0000
0001
0100
0000
0101
0000
0000
0000
,
1001
0000
0000
1000
0010
0000
1010
0000
0000
0001
0010
0000
0011
0000
0000
0000
,
2000
0000
0000
0000
0001
0000
0000
0010
0000
0000
0100
0000
0000
0010
0000
0000
,
3002
0000
0000
0000
1000
0000
0000
0010
0000
0000
0100
0000
0000
0010
0000
0000
,
2003
0000
0000
0000
0001
0000
0000
0100
0000
0000
0010
0000
0000
0100
0000
0000
,
3002
0000
0000
0000
1000
0000
0000
0100
0000
0000
0010
0000
0000
0100
0000
0000
,
1003
0000
0010
0000
0100
0000
0001
0100
0001
0000
0010
0000
0100
1000
0100
0000
,
1001
0000
0000
0000
0001
0000
1000
0100
1000
0000
0010
0000
0100
0001
0100
0000
,
0001
0001
0010
0010
0100
0100
1000
1000
,
0001
1000
0001
1000
0001
1000
0001
1000
0002
0000
0000
0000
0003
0000
0000
0000
,
1001
0000
0000
0000
0001
0000
1000
0010
1000
0000
0002
0000
1003
0010
1000
0000
,
0002
0000
0010
0000
2003
0000
3001
0010
0001
0000
2000
0000
3001
0010
0001
0000
,
2000
0000
0010
0000
3002
0000
1003
0010
1000
0000
0002
0000
1003
0010
1000
0000
,
0002
0000
0010
0000
1003
0000
0001
0010
0100
0000
0100
0000
1000
0000
1000
0000
,
1001
0000
0000
0000
1000
0000
0001
0100
0001
0000
2000
0000
3001
0100
0001
0000
,
2000
0000
0100
0000
3002
0000
1003
0100
1000
0000
0002
0000
1003
0100
1000
0000
,
0002
0000
0100
0000
2003
0000
3001
0100
0001
0000
2000
0000
3001
0100
0001
0000
,
2000
0000
0100
0000
3001
0000
0000
0010
0000
0100
0000
0000
0110
0000
0000
0000
,
1001
0000
0000
0000
2000
0000
0000
3200
0000
0000
0302
0000
0000
0023
0000
0000
,
1030
0000
0000
0000
0002
0000
0000
0203
0000
0000
2300
0000
0000
3020
0000
0000
,
0031
0000
0000
0000
2000
0000
3001
0010
0001
0010
0002
0000
1003
0010
1000
0010
,
2000
0000
0010
0000
3002
0000
1003
0010
0100
0000
0100
0000
0001
0000
0001
0000
,
1001
0000
0000
0000
0002
0000
0000
0203
0000
0000
2300
0000
0000
3020
0000
0000
,
0031
0000
0000
0000
2000
0000
0000
3200
0000
0000
0302
0000
0000
0023
0000
0000
,
1030
0000
0000
0000
0002
0000
1003
0100
1000
0100
2000
0000
3001
0100
0001
0100
,
0002
0000
0100
0000
1003
0000
0000
0010
0000
0100
0000
0000
0110
0000
0000
0000
,
2002
0000
3003
0000
,
0000
0000
0000
0000
,
2001
0000
0000
0000
3100
0000
0000
0010
0000
0100
0000
1000
0001
0000
0000
0100
,
0000
0010
0000
1000
0001
0000
0000
0010
0000
0100
0000
1000
0001
0000
1000
0000
,
1002
0000
0000
0000
0103
0000
0000
0010
0000
0100
0000
0001
1000
0000
0000
0100
,
0000
0010
0000
0001
1000
0000
0000
0010
0000
0100
0000
0001
1000
0000
0001
0000
,
1001
0000
1000
0000
0001
0000
0100
0010
0000
0100
0000
0001
1000
0000
0100
0010
,
0000
0100
0000
1000
0001
0000
0100
0010
0000
0100
0000
0001
1000
0000
0001
0000
,
1000
1000
0010
0010
0100
0100
0001
0001
,
2000
0000
3001
0110
,
1001
0000
0000
0000
0001
0000
1000
0001
1000
0000
0000
0000
0002
0000
1003
0010
,
1000
0010
2000
0000
3001
0010
0001
0010
0002
0000
0010
0000
1003
0000
0001
1000
,
0010
1000
0002
0000
1003
0001
0010
0001
2000
0000
0010
0000
3002
0000
1003
0010
,
1000
0001
2000
0000
3001
0010
0001
1000
0002
0000
0010
0000
2003
0000
3001
0010
,
0100
0000
0100
0000
1000
0000
1000
0000
1001
0000
0000
0000
2000
0000
3001
0100
,
0001
0100
0002
0000
1003
0100
1000
0100
2000
0000
0100
0000
3001
0000
1000
0001
,
0100
0001
2000
0000
3001
1000
0100
1000
0002
0000
0100
0000
2003
0000
3001
0100
,
0001
1000
0002
0000
1003
0100
1000
0001
2000
0000
0100
0000
3001
0000
0000
0010
,
0000
0100
0000
0000
0110
0000
0000
0000
1001
0000
0000
0000
2000
0000
0000
3200
,
0000
0000
0302
0000
0000
0023
0000
0000
1030
0000
0000
0000
0002
0000
0000
0203
,
0000
0000
2300
0000
0000
3020
0000
0000
0031
0000
0000
0000
2000
0000
3010
1000
,
0001
0010
0001
0000
0010
0001
1000
0010
2000
0000
0010
0000
3002
0000
0013
0001
,
1000
0000
1000
0000
0010
0000
0010
0000
1001
0000
0000
0000
0002
0000
0000
0203
,
0000
0000
2300
0000
0000
3020
0000
0000
0031
0000
0000
0000
2000
0000
0000
3200
,
0000
0000
0302
0000
0000
0023
0000
0000
1030
0000
0000
0000
0002
0000
0103
0001
,
1000
0100
1000
0000
0100
1000
0001
0100
0002
0000
0100
0000
1003
0000
1000
0000
,
0010
0010
0100
0100
1001
0000
0000
0000
;

//---------------dance-single - TaroNuke----------------
#NOTEDATA:;
#CHARTNAME:TaroNuke;
#STEPSTYPE:dance-single;
#DESCRIPTION:TaroNuke;
#CHARTSTYLE:;
#DIFFICULTY:Challenge;
#METER:14;
#RADARVALUES:0.672388,0.695697,0.234527,1.043242,0.869368,582.000000,553.000000,29.000000,129.000000,0.000000,0.000000,0.000000,0.000000,0.000000,0.672388,0.695697,0.234527,1.043242,0.869368,582.000000,553.000000,29.000000,129.000000,0.000000,0.000000,0.000000,0.000000,0.000000;
#CREDIT:TaroNuke;
#NOTES:
// measure 0
0000
0000
0000
0000
,  // measure 1
0000
0000
0000
0000
,  // measure 2
2000
0000
0000
0010
0010
0000
3002
0000
0000
0010
0010
0000
2003
0000
0000
0000
,  // measure 3
3002
0000
0000
0100
0100
0000
2003
0000
0000
0100
0100
0000
3002
0000
0000
0000
,  // measure 4
1003
0000
0100
0000
1000
0001
0000
0100
0000
0010
0000
0100
0000
0001
1000
0001
,  // measure 5
0000
0010
0000
0100
0000
1000
0001
1000
0000
0010
0000
0100
0000
0001
1000
0001
,  // measure 6
0100
0000
0010
0000
1000
0100
0000
0010
0000
0001
0000
1000
0000
0010
0100
0010
,  // measure 7
0000
1000
0000
0001
0000
0010
0100
0010
0000
0001
0000
1000
0000
0001
0100
0010
,  // measure 8
1000
0000
0100
0000
0020
0000
0001
0032
0000
1000
2003
0000
0010
3020
0000
0100
,  // measure 9
0230
0000
0300
0000
0002
0000
0010
0023
0000
0130
0200
0000
1300
2000
0000
3001
,  // measure 10
0001
0100
0001
0100
0010
1000
0010
1000
0001
0010
0001
0010
0100
1000
0100
1000
,  // measure 11
0002
0000
0100
0000
0010
0000
1000
0000
0103
0010
0100
0010
1000
0000
0001
1000
,  // measure 12
1001
0000
1000
0001
0020
0000
0031
1000
0010
1000
0002
0000
1003
0001
0010
0001
,  // measure 13
2000
0000
0000
0000
0020
0030
0000
0000
3002
0000
0000
0000
1003
0000
0010
0000
1000
0000
0001
0000
2000
0000
0000
0000
3001
0000
0010
0000
0001
0000
1000
0000
,  // measure 14
0002
0000
0000
0000
0020
0030
0000
0000
2003
0000
0000
0000
3001
0000
0010
0000
0001
0000
1000
0000
0020
0000
0000
0000
1030
0000
0001
0000
0010
0000
0001
0000
,  // measure 15
2000
0000
0000
0000
0020
0030
0000
0000
3002
0000
0000
0000
1003
0000
0001
0000
0010
0000
0100
0000
0010
0000
0100
0000
2000
0000
0000
0000
3001
0000
0000
0000
,  // measure 16
1001
0000
0001
1000
0200
0000
1300
0001
0100
0001
2000
0000
3001
1000
0100
1000
,  // measure 17
0002
0000
0000
0000
2000
3000
0000
0000
0103
0000
0001
0000
1000
0000
0100
0000
1000
0000
0001
0000
0100
0000
0001
0000
1000
0000
0100
0000
1000
0000
0001
0000
,  // measure 18
2000
0000
0000
0000
0200
0300
0000
0000
3002
0000
0000
0000
1003
0000
0100
0000
1000
0000
0001
0000
0200
0000
0000
0000
0301
0000
1000
0000
0100
0000
1000
0000
,  // measure 19
0002
0000
0000
0000
0200
0300
0000
0000
1003
0000
0000
0000
0000
0000
0010
0000
0000
0000
0100
0000
0000
0000
0001
0000
0010
0000
0100
0000
1000
0000
0000
0000
,  // measure 20
1001
0000
1000
0001
0200
0000
0010
0001
0000
0010
0302
0000
0100
1000
0000
0100
,  // measure 21
2003
0000
0000
0000
0020
0030
0000
0000
3002
0000
0000
0000
0010
0000
1000
0000
0000
0000
0010
0000
2003
0000
0000
0000
3001
0000
0100
0000
0010
0000
1000
0000
,  // measure 22
0002
0000
0000
0000
0020
0030
0000
0000
2003
0000
0000
0000
3001
0000
0010
0000
1000
0000
0010
0000
0002
0000
0000
0000
1003
0000
0001
0000
0010
0000
0001
0000
,  // measure 23
2000
0000
0000
0000
0020
0030
0000
0000
3002
0000
0000
0000
1003
0000
0010
0000
0100
0000
0001
0000
0100
0000
0001
0000
2000
0000
0000
0000
3001
0000
0000
0000
,  // measure 24
1001
0000
0001
1000
0200
0000
0010
1000
0000
0010
2300
0000
0100
0001
0000
0100
,  // measure 25
3002
0000
0000
0000
0020
0030
0000
0000
2003
0000
0000
0000
0010
0000
0001
0000
0000
0000
0010
0000
3002
0000
0000
0000
0100
0000
1000
0000
0000
0000
0100
0000
,  // measure 26
2003
0000
0000
0000
0020
0030
0000
0000
3002
0000
0000
0000
1003
0000
0100
0000
0001
0000
0100
0000
2000
0000
0000
0000
3001
0000
1000
0000
0100
0000
1000
0000
,  // measure 27
0002
0000
0000
0000
0200
0300
0000
0000
1003
0000
0000
0000
0000
0000
0010
0000
0000
0000
0100
0000
0000
0000
0001
0000
0010
0000
0100
0000
1000
0000
0000
0000
,  // measure 28
2002
0000
3003
0000
,  // measure 29
0000
0000
0000
0000
,  // measure 30
2001
0000
0000
0100
3100
0000
1200
0000
0000
0010
0310
0000
0110
0000
0001
0000
,  // measure 31
1002
0000
0000
0100
0103
0000
0201
0000
0000
0010
0310
0000
0110
0000
0001
1000
,  // measure 32
1002
0000
0000
0010
0013
0000
0021
0000
0000
0100
0130
0000
0110
0000
0000
0000
,  // measure 33
2001
0000
0000
0010
3010
0000
1020
0000
0000
0100
0130
0000
0110
0000
0001
1000
,  // measure 34
1001
0000
0001
1000
0100
0000
1100
0000
1000
0001
0100
0000
0101
0000
0100
0010
,  // measure 35
1010
0000
1000
0001
0010
0000
0011
0000
0001
0010
0100
0000
1100
0000
1000
0001
,  // measure 36
1000
0100
1000
0100
1000
0001
1000
0001
0100
0001
0100
0001
0100
0010
0100
0010
,  // measure 37
2000
0000
3001
0110
,  // measure 38
1001
0000
0000
0000
0000
0000
0000
0000
0000
0000
0000
0000
0001
0000
0000
0000
0000
0000
1000
0000
0000
0001
0000
0000
1001
0000
0000
0000
0000
0000
0001
0000
0100
0000
0010
0000
2000
0000
0000
0000
0000
0000
3001
0000
0000
0010
0000
0000
,  // measure 39
1000
0000
0010
0000
0002
0000
0000
0000
1003
0000
0001
0000
0010
0000
0001
0000
2000
0000
0000
0000
0020
0030
0000
0000
3002
0000
0000
0000
1003
0000
0010
0000
,  // measure 40
0001
0000
0010
0000
2000
0000
0000
0000
3001
0000
1000
0000
0010
0000
1000
0000
0002
0000
0000
0000
0020
0030
0000
0000
2003
0000
0000
0000
3001
0000
0010
0000
,  // measure 41
1000
0000
0010
0000
0002
0000
0000
0000
1003
0000
0010
0000
0001
0000
0010
0000
2000
0000
0000
0000
0020
0030
0000
0000
3002
0000
0000
0000
1003
0000
0001
0000
,  // measure 42
0100
0000
0000
0010
0000
0000
0100
0000
0000
0010
0000
0000
2000
0000
0000
0000
0000
0000
3001
0000
0000
0000
0000
0000
1001
0000
0000
0000
0000
0000
1000
0000
0100
0000
0010
0000
0002
0000
0000
0000
0000
0000
1003
0000
0000
0100
0000
0000
,  // measure 43
0001
0000
0100
0000
2000
0000
0000
0000
3001
0000
1000
0000
0100
0000
1000
0000
0002
0000
0000
0000
0200
0300
0000
0000
2003
0000
0000
0000
3001
0000
0100
0000
,  // measure 44
1000
0000
0100
0000
0001
0000
1000
0000
0001
0000
0100
0000
1000
0000
0100
0000
0001
0000
0000
0000
0200
0300
0000
0000
0001
0000
0000
0000
1000
0000
0100
0000
,  // measure 45
0001
0000
0100
0000
2000
0000
0000
0000
3001
0000
0100
0000
1000
0000
0100
0000
0002
0000
0000
0000
0200
0300
0000
0000
2003
0000
0000
0000
0000
0000
3010
0000
,  // measure 46
0000
0000
0000
0100
0000
0000
0000
0000
0000
0001
0000
0000
0010
0000
0000
0100
0000
0000
1000
0000
0000
0000
0000
0000
1001
0000
0000
0000
0000
0000
1000
0000
0001
0000
0010
0000
0200
0000
0000
0000
0000
0000
1000
0000
0000
0010
0000
0000
,  // measure 47
0000
0000
1000
0000
0320
0000
0000
0000
0100
0000
0001
0000
0000
0000
0100
0000
0032
0000
0000
0000
2000
3000
0000
0000
0203
0000
0000
0000
0001
0000
0010
0000
,  // measure 48
0000
0000
0001
0000
0320
0000
0000
0000
1030
0000
0100
0000
0010
0000
0001
0000
2000
0000
0000
0000
0020
0030
0000
0000
3002
0000
0000
0000
0013
0000
1000
0000
,  // measure 49
0010
0000
0001
0000
2000
0000
0000
0000
3010
0000
0001
0000
0010
0000
1000
0000
0002
0000
0000
0000
0020
0030
0000
0000
2003
0000
0000
0000
3001
0000
0010
0000
,  // measure 50
1000
0000
0000
0010
0000
0000
0100
0000
0000
0010
0000
0000
0002
0000
0000
0000
0000
0000
1003
0000
0000
0000
0000
0000
1001
0000
0000
0000
0000
0000
0001
0000
1000
0000
0010
0000
0200
0000
0000
0000
0000
0000
0001
0000
0000
0010
0000
0000
,  // measure 51
0000
0000
0001
0000
0320
0000
0000
0000
0100
0000
1000
0000
0000
0000
0100
0000
2030
0000
0000
0000
0002
0003
0000
0000
3200
0000
0000
0000
1000
0000
0010
0000
,  // measure 52
0000
0000
1000
0000
0320
0000
0000
0000
0031
0000
0100
0000
0010
0000
1000
0000
0002
0000
0000
0000
0200
0300
0000
0000
2003
0000
0000
0000
3100
0000
0001
0000
,  // measure 53
0100
0000
1000
0000
0002
0000
0000
0000
0103
0000
1000
0000
0100
0000
0001
0000
2000
0000
0000
0000
0200
0300
0000
0000
3001
0000
0000
0000
0100
0000
0001
0000
,  // measure 54
0010
0100
0010
0100
2000
0000
3001
0100
0020
0000
0000
0000
0000
0000
0000
0000
,  // measure 55
0000
0000
0030
0000
;

//---------------dance-double - TaroNuke----------------
#NOTEDATA:;
#CHARTNAME:TaroNuke;
#STEPSTYPE:dance-double;
#DESCRIPTION:TaroNuke;
#CHARTSTYLE:;
#DIFFICULTY:Hard;
#METER:14;
#RADARVALUES:0.630797,0.605929,0.105133,0.695495,0.776366,546.000000,533.000000,13.000000,86.000000,0.000000,0.000000,0.000000,0.000000,0.000000,0.630797,0.605929,0.105133,0.695495,0.776366,546.000000,533.000000,13.000000,86.000000,0.000000,0.000000,0.000000,0.000000,0.000000;
#CREDIT:TaroNuke;
#NOTES:
00000000
00000000
00000000
00000000
,
00000000
00000000
00000000
00000000
,
00011000
00000000
00000000
00010000
00000100
00000000
00000010
00000000
00000000
00000100
00010000
00000000
00011000
00000000
00000000
00000000
,
00011000
00000000
00000000
00001000
01000000
00000000
00100000
00000000
00000000
01000000
00001000
00000000
00011000
00000000
00010000
00000100
,
00000010
00000000
00000001
00000000
00001000
00000000
00000001
00000100
00000000
00000001
00001000
00000000
00000010
00010000
00000000
00001000
,
00100000
00000000
00000000
00000000
00010000
00000000
10000000
01000000
00000000
10000000
00010000
00000000
00100000
00001000
00000000
00010000
,
00000010
00000000
00000000
00000000
00001000
00000000
00000001
00000010
00000000
00000001
00001000
00000000
00000100
00010000
00000000
00001000
,
01000000
00000000
00000000
00000000
00010000
00000000
10000000
01000000
00000000
10000000
00010000
00000000
01000000
00001000
00000000
00010000
,
00000100
00000010
00001000
00010000
00100000
01000000
00001000
00010000
,
00000010
00000100
00001000
00010000
01000000
00100000
00001000
00010000
,
00000001
00000100
00000001
00000000
00010000
00000100
00010000
00000000
00001000
01000000
00001000
00000000
10000000
01000000
10000000
00000000
,
02000000
00000000
03020000
00000000
00032000
00000000
00003200
00000000
00000310
00010000
00000010
00010000
00001000
00100000
00001000
00100000
,
00020000
00000000
00000001
00000000
00030020
00000000
00001030
00000010
00001000
00000010
00020000
00000000
00031000
00100000
00001000
00100000
,
00002000
00000000
10000000
00000000
00203000
00000000
00310000
00100000
00010000
00100000
00002000
00000000
00013000
00000010
00010000
00000010
,
00020000
00000000
00000001
00000000
00030020
00000000
00001030
00000010
00001000
00000010
00020000
00000000
00031000
00100000
00001000
00100000
,
00002000
00000000
10000000
00000000
00203000
00000000
00301000
00100000
00001000
00010000
00000100
00010000
00002000
00000000
00023000
00000000
,
00032000
00000000
10000000
00000000
02003000
00000000
03010000
01000000
00010000
01000000
00002000
00000000
00013000
00000100
00010000
00000100
,
00020000
00000000
00000001
00000000
00031000
00010000
00001000
01000000
00001000
00010000
00000100
00010000
00001000
01000000
00010000
01000000
,
00002000
00000000
10000000
00000000
02003000
00000000
03010000
01000000
00010000
01000000
00002000
00000000
00013000
00000100
00010000
00000100
,
00020000
00000000
00000001
00000000
00030200
00000000
00000000
00000310
00000000
00000001
00000000
00000100
00000010
00010000
00002000
00000000
,
01003000
00000000
00100000
01000000
00010000
00000000
10000000
00100000
00000000
01000000
00001000
00000000
00010000
00000100
00000000
00001000
,
00000002
00000000
00000010
00000000
00001003
00000000
00000001
00000010
00000000
00000100
00010000
00000000
00001000
00100000
00010000
00100000
,
00002000
00000000
10000000
00000000
00203000
00000000
00310000
00100000
00010000
00100000
00002000
00000000
00013000
00000010
00010000
00000010
,
00020000
00000000
00000001
00000000
00030020
00000000
00001030
00000010
00010000
00001000
01000000
00001000
00020000
00000000
00032000
00000000
,
00003200
00000000
00000302
00000000
00001003
00000000
00000001
00000010
00000000
00000100
00010000
00000000
00001000
01000000
00000000
00010000
,
20000000
00000000
00100000
00000000
30010000
00000000
10000000
00100000
00000000
01000000
00001000
00000000
00010000
00000010
00000000
00000010
,
00020000
00000000
00000001
00000000
00030200
00000000
00001300
00000100
00001000
00000100
00020000
00000000
00031000
01000000
00001000
01000000
,
00002000
00000000
10000000
00000000
02003000
00000000
00000000
03100000
00000000
10000000
00000000
01000000
00100000
00001000
00010000
00000000
,
00022000
00000000
00033000
00000000
,
00000000
00000000
00000000
00000000
,
00011000
00000000
00000000
00010000
00100000
00000000
00000000
01000000
00000000
00001000
00000000
00010000
01000000
00000000
00000000
00100000
,
00000000
00001000
00000000
00010000
00100000
00000000
00000000
01000000
00000000
00001000
00000000
00010000
01000000
00000000
00100000
00001000
,
00011000
00000000
00000000
00001000
00000010
00000000
00000000
00000100
00000000
00010000
00000000
00001000
00000100
00000000
00000000
00000010
,
00000000
00010000
00000000
00001000
00000010
00000000
00000000
00000100
00000000
00010000
00000000
00001000
00000100
00000000
00000010
00010000
,
00011000
00000000
00001000
00100000
00010000
00000000
01000000
00000000
00100000
00010000
00001000
00000000
01001000
00000000
01000000
00001000
,
00011000
00000000
00010000
00000010
00001000
00000000
00000100
00000000
00000010
00001000
00010000
00000000
00011000
00000000
01000000
00010000
,
10000000
01000000
10000000
00000000
00001000
01000000
00001000
00000000
00010000
00000100
00010000
00000000
00000001
00000100
00000001
00000000
,
00020000
00000000
00031000
00001100
,
00000101
00000000
00000000
00000000
00000100
00000000
00000010
00010000
00002000
00000000
10000000
00000000
00203000
00000000
00310000
00100000
,
00001000
00010000
00002000
00000000
00013000
00000010
00001000
00000010
00020000
00000000
00000001
00000000
00030020
00000000
00001030
00000010
,
00010000
00001000
00020000
00000000
00031000
00100000
00010000
00100000
00002000
00000000
10000000
00000000
00203000
00000000
00310000
00100000
,
00001000
00010000
00002000
00000000
00013000
00000010
00001000
00000010
00020000
00000000
00000001
00000000
00030020
00000000
00010030
00000010
,
00010000
00001000
01000000
00001000
00020000
00000000
00032000
00000000
00023000
00000000
00000001
00000000
00030200
00000000
00001300
00000100
,
00010000
00001000
00020000
00000000
00031000
01000000
00010000
01000000
00002000
00000000
10000000
00000000
00013000
00001000
00010000
00000100
,
00001000
00000100
00010000
00001000
01000000
00010000
01000000
00001000
00020000
00000000
00000001
00000000
00030200
00000000
00001300
00000100
,
00010000
00001000
00020000
00000000
00031000
01000000
00010000
01000000
00002000
00000000
10000000
00000000
02003000
00000000
00000000
03100000
,
00000000
10000000
00000000
01000000
00100000
00001000
00020000
00000000
00030200
00000000
00000001
00000000
00001300
00000000
00000001
00000010
,
00000000
00000100
00010000
00000000
00001000
01000000
00000000
00010000
20000000
00000000
00100000
00000000
30010000
00000000
10000000
00100000
,
00000000
01000000
00001000
00000000
00010000
00001000
00000010
00001000
00020000
00000000
00000001
00000000
00030020
00000000
00010030
00001000
,
00100000
00001000
00020000
00000000
00031000
00010000
00000010
00010000
00002000
00000000
10000000
00000000
00203000
00000000
00310000
00100000
,
00001000
00010000
01000000
00010000
00002000
00000000
00023000
00000000
02030000
00000000
23000000
00000000
30010000
00000000
10000000
00100000
,
00000000
01000000
00001000
00000000
00010000
00000100
00000000
00001000
00000002
00000000
00000010
00000000
00001003
00000000
00000001
00000010
,
00000000
00000100
00010000
00000000
00001000
00100000
00000000
00100000
00002000
00000000
10000000
00000000
02003000
00000000
03001000
00010000
,
00000100
00010000
00002000
00000000
00013000
00001000
01000000
00001000
00020000
00000000
00000001
00000000
00030100
00000000
00010000
00001000
,
01000000
00001000
01000000
00001000
00010000
00000100
00010000
00000100
00000020
00000000
00000000
00000000
00000000
00000000
00000000
00000000
,
00000000
00000000
00000030
00000000
;

//---------------dance-double - Ama-tan as "STONE HIPS"----------------
#NOTEDATA:;
#CHARTNAME:Ama-tan as "STONE HIPS";
#STEPSTYPE:dance-double;
#DESCRIPTION:Ama-tan as "STONE HIPS";
#CHARTSTYLE:;
#DIFFICULTY:Challenge;
#METER:16;
#RADARVALUES:0.653904,0.695697,0.194092,0.905760,0.780410,566.000000,542.000000,24.000000,112.000000,0.000000,0.000000,0.000000,0.000000,0.000000,0.653904,0.695697,0.194092,0.905760,0.780410,566.000000,542.000000,24.000000,112.000000,0.000000,0.000000,0.000000,0.000000,0.000000;
#CREDIT:Ama-tan as "STONE HIPS";
#NOTES:
00000000
00000000
00000000
00000000
,
00000000
00000000
00000000
00000000
,
00020010
00000000
00000000
00001000
00001000
00000000
00030200
00000000
00000000
00001000
00001000
00000000
00010300
00000000
00000000
00000000
,
00102000
00000000
00000000
00010000
00010000
00000000
02003000
00000000
00000000
00010000
00010000
00000000
03001000
00000000
00000000
00000000
,
00010000
00000000
00000100
00000000
00000010
00000000
00000010
00000001
00000000
00000001
00000100
00000000
00000100
00000010
00000000
00000010
,
00010000
00000000
00000000
00000000
00100000
00000000
00100000
10000000
00000000
10000000
01000000
00000000
01000000
00100000
00000000
00100000
,
00001000
00000000
00000000
00000000
00000100
00000000
00000100
00000001
00000000
00000001
00000010
00000000
00000010
00000100
00000000
00000100
,
00010000
00000000
00000000
00000000
00001000
00000000
00001000
01000000
00000000
01000000
00100000
00000000
10000000
00010000
00000000
00010000
,
10000000
00000000
01000000
00000000
00010000
00000000
00001000
00000000
00000010
00000000
00000100
00000000
00001000
00000001
00001000
00000000
,
00000001
00000000
00000100
00000000
00001000
00000000
00010000
00000000
00100000
00000000
01000000
00000000
00001000
01000000
00001000
00000000
,
00010000
00000100
00010000
00000100
00001000
00000010
00001000
00000010
00100000
00010000
00100000
00010000
01000000
00001000
01000000
00001000
,
00020000
00000000
00000100
00000000
00001000
00000000
00030001
00000000
00000010
00010000
00000010
00010000
00001000
00100000
00001000
00100000
,
00010000
00000000
00100000
00010000
20000000
00000000
30100000
00010000
00100000
10000000
00020000
00000000
00130000
10000000
00100000
00001000
,
00020000
00000000
00001000
00000000
00030002
00000000
00000013
00001000
00000010
00000001
00002000
00000000
00003010
00000001
00000010
00010000
,
00002000
00000000
00010000
00000000
20003000
00000000
30100000
00010000
00100000
10000000
00020000
00000000
00130000
10000000
00100000
00001000
,
00020000
00000000
00001000
00000000
00030002
00000000
00001003
00000010
00010000
00001000
00000010
00001000
00020000
00000000
00030100
00000000
,
00001000
00000000
00000100
00001000
00000002
00000000
00000103
00001000
00000100
00000001
00002000
00000000
00003100
00000001
00000100
00010000
,
00002000
00000000
00010000
00000000
20003000
00000000
31000000
00010000
01000000
10000000
00020000
00000000
01030000
10000000
01000000
00001000
,
00020000
00000000
00001000
00000000
00030002
00000000
00000103
00001000
00000100
00000001
00002000
00000000
00003100
00000001
00000100
00010000
,
00002000
00000000
00100000
00000000
02003000
00000000
00000000
03100000
00000000
10000000
00000000
00010000
00100000
00001000
00020000
00000000
,
00032000
00000000
00000010
00000000
00023000
00000000
00100000
00230000
00000000
10000000
20300000
00000000
01000000
32000000
00000000
00010000
,
03020000
00000000
01000000
00000000
00032000
00000000
00000100
00003200
00000000
00000001
00000302
00000000
00000013
00000100
00000010
00000100
,
00020000
00000000
00001000
00000000
00030020
00000000
00100030
00001000
00000010
00001000
00200000
00000000
00300010
00010000
00100000
00010000
,
00000020
00000000
00010000
00000000
00200030
00000000
00301000
00010000
00000100
00000010
00000100
00010000
00001000
00000000
00010000
00000000
,
00021000
00000000
00100000
00000000
00032000
00000000
00000010
00003020
00000000
00000001
00000032
00000000
00000100
00000203
00000000
00001000
,
00002300
00000000
00000100
00000000
00023000
00000000
01000000
02030000
00000000
10000000
23000000
00000000
00100000
30200000
00000000
00001000
,
00302000
00000000
00000010
00000000
00003200
00000000
01000300
00001000
00000100
00001000
02000000
00000000
03000100
00010000
01000000
00010000
,
00000200
00000000
00001000
00000000
02000300
00000000
00000000
03100000
00000000
10000000
00000000
01000000
00100000
00001000
00010000
00000000
,
00022000
00000000
00033000
00000000
,
00000000
00000000
00000000
00000000
,
00101000
00000000
00000000
00001000
00010000
00000000
00010100
00000000
00000000
00000100
00000010
00000000
00000011
00000000
00000000
00000000
,
00001001
00000000
00000000
00001000
00000100
00000000
00010100
00000000
00000000
00010000
00001000
00000000
00101000
00000000
00000000
00000000
,
00010010
00000000
00000000
00010000
00001000
00000000
01001000
00000000
00000000
01000000
00100000
00000000
10100000
00000000
00000000
00000000
,
10010000
00000000
00000000
00010000
01000000
00000000
01001000
00000000
00000000
00001000
00010000
00000000
00010010
00000000
00000000
00000000
,
01001000
00000000
01000000
00100000
10000000
00000000
10010000
00000000
00010000
00100000
00001000
00000000
00011000
00000000
00010000
00000000
,
00010100
00000000
00000100
00000010
00000001
00000000
00001001
00000000
00001000
00000010
00010000
00000000
00011000
00000000
00001000
00010000
,
00001000
00100000
00001000
00100000
00000010
00010000
00000010
00010000
00001000
01000000
00001000
01000000
00000100
00010000
00000100
00010000
,
00002000
00023000
00030010
00011000
,
00201000
00000000
00000000
00000000
00000000
00000000
00000000
00000000
00000000
00000000
00000000
00000000
01300000
00000000
00000000
00000000
00000000
00000000
00100000
00000000
00000000
00001000
00000000
00000000
00010000
00000000
00000000
00000000
00000000
00000000
00000010
00000000
00001000
00000000
00000010
00000000
00020000
00000000
00000000
00000000
00000000
00000000
00031000
00000000
00000000
00000010
00000000
00000000
,
00000001
00000010
00002000
00000000
00013000
00000010
00001000
00000010
00020000
00000000
00100000
00000000
00032000
00000000
00013000
00100000
,
10000000
00010000
00100000
10000000
00100000
00010000
10000000
00100000
00020000
00000000
00100000
00000000
00030020
00000000
00010030
00100000
,
10000000
00100000
00020000
00000000
00031000
00100000
00010000
00100000
00002000
00000000
00000010
00000000
00023000
00000000
00031000
00100000
,
00010000
00000000
00000000
10000000
00000000
00000000
00100000
00000000
00000000
01000000
00000000
00000000
00200000
00000000
00000000
00000000
00000000
00000000
00320000
00000000
00000000
00000000
00000000
00000000
00031000
00000000
00000000
00000000
00000000
00000000
01000000
00000000
00010000
00000000
01000000
00000000
00002000
00000000
00000000
00000000
00000000
00000000
00013000
00000000
00000000
01000000
00000000
00000000
,
10000000
01000000
00020000
00000000
00031000
01000000
00010000
01000000
00002000
00000000
00000100
00000000
00023000
00000000
00031000
00000100
,
00000001
00001000
00000100
00000001
00000100
00001000
00000001
00000100
00002000
00000000
00000100
00000000
00023000
00000000
00031000
00000100
,
00000001
00000100
00002000
00000000
00013000
00000100
00001000
00000100
00020000
00000000
00100000
00000000
00032000
00000000
00000000
00013000
,
00000000
00000000
00000000
00000100
00000000
00000000
00000000
00000000
00000000
00000010
00000000
00000000
00000001
00000000
00000000
00001000
00000000
00000000
00000020
00000000
00000000
00000000
00000000
00000000
00010030
00000000
00000000
00000000
00000000
00000000
00001000
00000000
00010000
00000000
00001000
00000000
00200000
00000000
00000000
00000000
00000000
00000000
00000100
00000000
00000000
00300200
00000000
00000000
,
00000000
00010000
00020300
00000000
00000010
00030020
00000000
00100000
00200030
00000000
00001000
00000000
00300020
00000000
00010000
00020030
,
00000000
00000100
00030200
00000000
00000310
00001000
00010000
01000000
00200000
00000000
00010000
00000000
00302000
00000000
00013000
00100000
,
10000000
00100000
00020000
00000000
00031000
00000010
00000001
00000010
00002000
00000000
00100000
00000000
00023000
00000000
00030010
00000100
,
00000001
00000000
00000000
00000010
00000000
00000000
00000100
00000000
00000000
00010000
00000000
00000000
00002000
00000000
00000000
00000000
00000000
00000000
00023000
00000000
00000000
00000000
00000000
00000000
00031000
00000000
00000000
00000000
00000000
00000000
00010000
00000000
00001000
00000000
00010000
00000000
00000200
00000000
00000000
00000000
00000000
00000000
00100000
00000000
00000000
00200300
00000000
00000000
,
00000000
00001000
00302000
00000000
01003000
02000000
00000000
00000100
03000200
00000000
00010000
00000000
02000300
00000000
00001000
03002000
,
00000000
00100000
00203000
00000000
00000100
00300200
00000000
01000000
02000300
00000000
00010000
00000000
03002000
00000000
00013000
01000000
,
10000000
01000000
00020000
00000000
00031000
00000100
00000001
00000100
00002000
00000000
01000000
00000000
00023000
00000000
00030010
00001000
,
00000100
00010000
00000100
00010000
00001000
01000000
00001000
01000000
00200000
00000000
00000000
00000000
00000000
00000000
00000000
00000000
,
00000000
00000000
00300000
00000000
;
