#VERSION:0.83;
#TITLE:Spin Cycle;
#SUBTITLE:;
#ARTIST:Skybreak, BilliumMoto & Miyolophone;
#TITLETRANSLIT:;
#SUBTITLETRANSLIT:;
#ARTISTTRANSLIT:;
#GENRE:;
#CREDIT:;
#MUSIC:Spin Cycle.ogg;
#BANNER:BR2024-bn.png;
#BACKGROUND:BR2024-bg.png;
#CDTITLE:;
#SAMPLESTART:64.000;
#SAMPLELENGTH:12.800;
#SELECTABLE:YES;
#OFFSET:1.600;
#BPMS:0.000=150.000;
#STOPS:;
#JACKET:;
#DISCIMAGE:;
#CDIMAGE:;
#BGCHANGES:;
#FGCHANGES:;

//--------------- dance-single - JA XO JU- ----------------
#NOTEDATA:;
#STEPSTYPE:dance-single;
#DESCRIPTION:JA XO JU-;
#DIFFICULTY:Hard;
#METER:13;
#RADARVALUES:0,0,0,0,0;
#CHARTNAME:;
#CHARTSTYLE:;
#CREDIT:Talkion;
#METERF:13;
#NOTES:
0000
0000
0000
0000
,
0000
0000
0000
0000
,
0000
0000
0000
0000
,
0000
0000
0000
0000
,
0000
0000
0000
0000
,
2000
0000
0000
3200
0000
0000
0320
0000
0000
0000
0030
0001
1000
0000
0010
0000
,
0200
0000
0000
0320
0000
0000
2030
0000
0000
0000
3000
0001
0010
0000
0001
0000
,
2000
0000
0000
3020
0000
0000
0230
0000
0000
0000
0300
0001
1000
0000
0100
0000
,
0010
0000
0000
0010
0000
0000
0010
0000
0000
0001
0000
0000
0100
0000
0010
0000
,
2000
0000
0000
3001
0010
0000
0210
0000
0000
0000
1300
0000
0100
0000
0010
0000
,
0001
0000
0000
0100
0000
0100
0000
0000
2010
0000
0000
3100
0000
0000
0010
0000
,
0002
0000
0000
1003
0010
0000
0210
0000
0000
0000
0302
0003
0010
0000
0001
0000
,
2000
3000
0010
0000
1000
0000
0002
0003
0000
0010
0000
0000
0100
0000
0010
0000
,
0002
0000
0000
1003
0010
0000
0210
0000
0000
0000
0301
0000
0100
0000
0010
0000
,
1000
0000
0000
0100
0000
0100
0000
0000
0012
0000
0000
1003
0000
0000
0010
0000
,
0200
0000
0000
0310
0001
0000
0021
0000
0000
0000
2030
3000
0001
0000
0010
0000
,
0400
0300
4000
3000
0004
0003
0100
0000
,
2001
0000
0100
0000
3001
0100
0001
0020
,
0100
0000
0000
0000
1000
0000
0000
0000
0100
0000
0000
0000
0031
0000
0010
0100
,
2000
0000
0000
0000
3001
0100
0020
0000
0000
0000
1030
0000
0001
0000
0020
0000
,
0000
0130
1000
0001
0100
0010
1000
0100
,
0020
0000
0000
0000
0100
0000
0000
0000
0031
1000
0001
0000
0100
0000
2000
0000
,
0000
0000
3001
0000
0010
0000
2000
0010
0000
0000
3001
0000
1000
0000
0100
0010
,
0002
0000
0000
2003
0000
0000
3010
0000
0100
0000
0000
0001
0000
0000
0010
0000
,
0011
1100
0101
1010
,
0011
0010
0010
0000
0010
0000
0000
0100
,
0010
0010
0010
0000
0010
0001
0400
0300
,
0001
0000
0001
0000
0001
0000
0000
0000
0001
0000
0000
1000
0000
0000
0100
0000
,
0100
0010
0010
0000
0001
2000
0000
0000
,
3010
0010
0010
0000
0010
0000
0000
0100
,
0010
0010
0010
0100
0010
1000
0400
0300
,
2000
0000
0000
0000
,
0000
3020
0230
0302
,
0013
0000
0010
0000
0010
0000
0000
0100
0010
0000
0100
0000
1000
0000
0001
0000
,
0100
0000
0100
0000
0100
0000
0000
0010
0100
0000
0001
0000
0040
0000
0030
0000
,
0100
0000
0100
0000
0100
0000
0000
1000
0010
0000
0100
0000
0001
0000
0100
0000
,
0010
0000
0010
0000
0010
0000
0000
1000
0100
0000
2000
0000
0000
0000
0000
0000
,
3001
0001
0001
0100
0010
1000
0100
0010
,
0001
0001
0001
0010
0100
1000
0010
0100
,
0001
1000
0100
0010
0001
0100
0010
0100
,
2000
0000
3002
0000
0000
0023
0000
0000
2030
0000
3010
0100
0002
0003
0000
0000
,
1001
0000
1000
0000
1000
0000
0000
0000
1100
0000
0100
0010
0100
0000
1000
0000
,
0001
0000
0001
0000
0001
0000
0000
0000
0101
0000
0100
0010
2000
0000
3000
0000
,
1001
0000
0001
0000
0001
0000
0000
0000
0011
0000
0010
0100
0010
0000
0001
0000
,
0001
0001
2000
0000
3020
0000
0130
0010
,
1000
0000
1000
0000
1000
0000
0000
0000
1100
0000
0100
0010
0100
0000
1000
0000
,
0001
0000
0001
0000
0001
0000
0000
0000
0101
0000
0100
0010
2000
0000
3000
0000
,
1001
0000
0001
0000
0001
0000
0000
0000
0011
0000
0010
0100
0010
0000
0000
0001
,
0100
0010
0000
1000
0000
0001
0000
0010
0000
0001
0000
1000
0000
0010
0100
0000
,
1000
0000
1000
0000
1000
0000
0000
0000
1100
0000
0100
0010
0100
0000
0001
0000
,
1000
0000
1000
0000
1000
0000
0000
0000
1100
0000
0100
0010
0001
0000
0020
0000
,
1030
0000
1000
0000
1000
0000
0000
0000
1010
0000
0010
0100
0010
0000
0002
0000
,
0000
0103
0020
0000
2030
0000
3100
0010
,
0001
0000
0001
0000
0001
0000
0000
0000
0101
0000
0100
0010
0100
0000
0001
0000
,
1000
0000
1000
0000
1000
0000
0000
0000
1100
0000
0100
0010
0002
0000
0003
0000
,
1001
0000
1000
0000
1000
0000
0000
0000
1010
0000
0010
0100
0010
0000
1000
0000
,
0001
0000
0010
0000
1000
0000
0001
0000
0200
0000
0000
2300
0000
0000
3001
0000
,
0101
0100
0100
0000
2100
3000
0011
0010
,
0010
0000
1001
0000
1010
0010
0010
0000
,
0101
0100
0100
0000
2100
3000
0001
0001
,
0001
0000
0001
0000
0100
0001
0100
0000
0020
0000
0000
0000
2030
0000
0000
0000
,
3100
0100
0100
0000
0102
0003
1010
0010
,
0010
0000
1001
0000
0011
0010
0010
0000
,
1001
0001
0001
0100
0001
0001
0001
1000
,
0100
0010
0000
0001
0000
1000
0000
0010
0000
1000
0000
0001
0000
0010
0100
0000
,
2000
0100
3001
0000
0101
0100
0000
1001
,
1000
0000
1000
0000
1000
0000
1000
0000
0100
0000
0010
0100
0010
0000
0001
1000
,
0002
0000
0100
0000
1003
0000
0000
0000
1200
0000
0000
0010
0000
0000
1300
0000
,
0001
0100
0020
0000
2030
0000
3002
0000
,
0013
0010
0010
0000
1001
0000
0100
0100
,
0100
0000
0000
0000
1001
0000
0000
0000
1000
0000
0010
0100
0020
0000
1030
0000
,
0001
0001
0001
0000
0110
0000
1000
2001
,
0000
0000
0000
0000
0000
0000
0000
0000
0000
3010
0000
0000
0200
0300
0001
0000
,
1002
0000
0000
0013
0100
0000
2100
0000
0000
0000
3010
0100
0002
0000
0000
0000
,
1003
0100
0010
0001
0100
0001
0010
0100
,
1200
0000
0000
0310
1000
0000
1020
0000
0000
0000
0031
0100
0010
0000
1000
0000
,
0001
0001
0001
0000
0001
0010
0100
1000
,
2001
0000
0000
3010
0100
0000
0102
0000
0000
0000
0013
0100
1000
0000
0001
0000
,
0100
0010
0000
0000
1000
0001
0000
0000
0010
0000
0100
0000
1000
0000
0100
0000
,
0020
0000
0000
0130
0001
0000
0201
0000
0000
0000
0310
0000
0001
0000
0100
0000
,
0010
0000
1000
0001
0000
1000
0001
0000
0000
0010
0000
0000
0001
0000
1000
0000
,
0020
0130
0000
0000
,
0000
0000
0000
0000
0000
0000
0000
0000
0000
0000
0000
0000
0002
0000
0000
1003
;

//--------------- dance-single - BU- DS- FS- JU- ----------------
#NOTEDATA:;
#STEPSTYPE:dance-single;
#DESCRIPTION:BU- DS- FS- JU-;
#DIFFICULTY:Challenge;
#METER:16;
#RADARVALUES:0,0,0,0,0;
#CHARTNAME:;
#CHARTSTYLE:;
#CREDIT:Talkion;
#METERF:16;
#NOTES:
0000
0000
0000
0000
,
0000
0000
0000
0000
,
0000
0000
0000
0000
,
0000
0000
0000
0000
,
0000
0000
0000
0000
,
1000
0000
0001
0000
1000
0100
0000
1000
0000
0001
0000
0001
0100
0000
0010
0000
,
1000
0000
0001
0000
0010
0001
0000
1000
0000
0010
0000
0010
0100
0000
0010
0000
,
1000
0000
0001
0000
1000
0100
0000
1000
0000
0001
0000
0001
0100
0000
0010
0000
,
1000
0001
0000
1000
0100
0000
1000
0001
0000
1000
0010
0100
0010
1000
0001
0010
,
0200
0000
0000
0000
0000
0000
0000
0000
1300
0000
0001
0000
1000
0000
0000
0000
0000
0000
0020
0000
0000
0000
0000
0000
0000
0000
0000
0130
0000
0000
0000
0000
0000
0100
0000
0000
0001
0000
0000
0000
0000
0000
1000
0000
0000
0000
0000
0000
,
0100
0010
0000
0100
0000
2000
0000
0000
3001
0000
0100
0010
0000
1000
0001
0010
,
0200
0000
0000
0000
0000
0000
0000
0000
1300
0000
0001
0000
1000
0000
0000
0000
0000
0000
0020
0000
0000
0000
0000
0000
0000
0000
0000
0000
0000
0000
0230
0000
0000
0300
0000
0000
0001
0000
0000
0000
0000
0000
1000
0000
0000
0000
0000
0000
,
0200
0300
1000
0000
0001
0000
0200
0300
0001
1000
0100
0010
0100
1000
0001
0100
,
0020
0000
0000
0000
0000
0000
0000
0000
1030
0000
0001
0000
1000
0000
0000
0000
0000
0000
0200
0000
0000
0000
0000
0000
0000
0000
0000
0310
0000
0000
0000
0000
0000
0010
0000
0000
0001
0000
0000
0000
0000
0000
1000
0000
0000
0000
0000
0000
,
0010
0100
0000
0010
0000
2000
0000
0000
3001
0000
0010
0100
0000
0100
1000
0010
,
0200
0000
0000
0000
0000
0000
0000
0000
0301
0000
1000
0000
0001
0000
0000
0000
0000
0000
0020
0000
0000
0000
0000
0000
0000
0000
0000
0000
0000
0000
0230
0000
0000
0300
0000
0000
0010
0000
0000
0000
0000
0000
0001
0000
0000
0000
0000
0000
,
4000
3000
0004
0003
0400
0300
0110
0000
,
2001
0000
0000
0000
3100
0010
0000
0010
0001
0000
1000
0000
0010
0000
0210
0000
,
0000
0000
0301
0000
1000
0100
0000
0100
0010
0000
0001
1000
0001
0100
0010
0100
,
0002
0000
0000
0000
1003
0100
0020
0000
0000
0000
0031
0000
0100
0000
0120
0000
,
0000
0000
1030
0100
0010
0001
1000
0001
0100
0001
1000
0100
1000
0001
1000
0010
,
0200
0000
0000
0000
0301
1000
0000
1000
0100
0010
0100
0000
1000
0000
1020
0000
,
0000
0000
0130
0000
0001
0000
0010
0200
0000
0000
1300
0001
1000
0010
0100
0010
,
1000
0000
0000
0000
0000
0000
0001
0000
0010
0000
0002
0000
0000
0000
0000
0000
0000
0000
1003
0000
0000
0000
0000
0000
0010
0000
0000
0100
0000
0000
0000
0000
0000
0001
0000
0000
0000
0000
0000
1000
0000
0000
0100
0000
0000
1000
0000
0000
,
0001
0000
0000
0000
0101
0000
0000
0000
1100
0000
0000
0000
1001
0000
0001
0010
,
0100
0100
0100
M000
0100
0000
0000
0001
,
0100
0100
0100
00M0
0100
1000
0040
0030
,
0100
0000
0100
0000
0100
0000
0M00
1000
0100
0000
1000
0001
0000
0001
0010
0000
,
0010
0000
0100
0000
0100
0000
1000
0100
0010
0000
0004
0000
0000
0000
0000
0000
,
0103
0100
0100
00M0
0100
0000
0000
1000
,
0100
0100
0100
1000
M100
0001
0040
0030
,
0200
0340
0032
4003
,
0000
3020
0230
0302
,
0013
0000
0010
0000
0010
0000
00M0
1000
0010
0000
0100
0010
0100
0001
1000
0000
,
0010
0000
0010
0000
0010
0000
00M0
0001
0010
0000
0100
0010
0004
0000
0003
0000
,
1000
0000
1000
0000
1000
0000
M000
0100
0010
0000
0100
0001
0100
0010
1000
0000
,
0001
0000
0001
0000
0001
0000
000M
0100
0010
0000
0001
1000
0001
1000
0001
1000
,
0010
0000
0010
0000
0010
0000
1000
0001
0010
0000
0100
0010
0002
0000
1000
0000
,
0103
0000
0100
0000
0100
0000
0001
1000
0100
0000
0010
0100
1000
0000
0001
0000
,
0100
0100
0010
0010
1000
1000
0001
0001
,
0010
0001
0100
0010
1000
0001
0010
0001
1000
0010
0100
0001
0020
0030
0000
0000
,
1100
0000
0100
0000
0100
0000
00M0
0000
0101
0000
0100
0010
2000
0000
0001
0000
,
3100
0000
0100
0000
0100
0000
00M0
0000
0101
0000
0100
0001
0020
0000
0030
0000
,
0100
0000
0100
0000
0100
0000
M000
0000
0101
0000
0100
0010
1000
0000
0001
0000
,
0001
0001
0020
0000
0230
0000
2300
0000
,
3010
0000
0010
0000
0010
0000
0M00
0000
0011
0000
0010
0100
2000
0000
0001
0000
,
3010
0000
0010
0000
0010
0000
0M00
0000
0011
0000
0010
0001
0200
0000
0300
0000
,
0010
0000
0000
0000
0000
0000
0010
0000
0000
0000
0000
0000
0010
0000
0000
0000
0000
0000
M000
0000
0000
0000
0000
0000
0011
0000
0000
0000
0000
0000
0010
0000
0000
0100
0000
0000
1000
0000
0000
0000
0000
0000
0001
0000
0100
0000
0001
0000
,
0100
0010
0000
1000
0000
0001
0000
0010
0000
0001
0000
1000
0000
0010
0200
0000
,
0310
0000
0010
0000
0010
0000
M000
0000
0110
0000
0010
0100
2000
0000
0001
0000
,
3010
0000
0010
0000
0010
0000
0M00
0000
0011
0000
0010
0001
0200
0000
0300
0000
,
0010
0000
0010
0000
0010
0000
M000
0000
0110
0000
0010
0100
1000
0000
2001
0000
,
0000
3010
0200
0000
0320
0000
2030
0000
,
3100
0000
0100
0000
0100
0000
00M0
0000
0101
0000
0100
0010
2000
0000
0001
0000
,
3100
0000
0100
0000
0100
0000
00M0
0000
0101
0000
0100
0001
0020
0000
0030
0000
,
0100
0000
0100
0000
0100
0000
M000
0000
0101
0000
0100
0010
2000
0000
3001
0010
,
0100
1000
0001
0100
0020
0000
1030
0100
1000
0001
0010
0001
0100
0010
1000
0000
,
0100
0100
0100
1000
M201
0300
0010
0010
,
0010
0000
1001
1000
0100
0100
0100
0000
,
0010
0010
0010
0001
102M
0030
0100
0100
,
0100
0000
0100
0000
0001
0100
0010
0000
2000
0000
0000
0000
3002
0000
0000
0000
,
0013
0010
0010
0001
102M
0030
0100
0100
,
0100
0000
1001
0001
0010
0010
0010
0000
,
0100
0000
0100
0000
0100
0000
0010
0001
0100
0000
0100
0000
0100
0000
0010
1000
,
0100
0010
0000
0001
0000
1000
0000
0010
0000
1000
0000
0001
0000
0010
0100
0000
,
1000
1000
1000
0000
1001
0001
0000
0102
,
1000
0000
1003
0000
0012
0000
1003
0000
1001
0000
0001
0100
0010
0000
0100
0010
,
1000
0000
0001
0000
0010
0000
0100
0000
2100
0000
0000
0001
0000
0000
3010
0000
,
0100
0010
2010
0000
3002
0000
0023
0000
,
0130
0100
0100
1000
M201
0300
0010
0010
,
0010
0000
0000
0000
1001
0000
1000
0000
0100
0000
0010
0100
1000
0000
0001
0100
,
0010
0010
0010
1000
M021
0030
0100
0210
,
0000
0000
4300
0000
0000
0000
0000
0000
3000
0001
0010
0001
0100
0010
1000
0001
,
0020
0000
0000
0000
0000
0000
0000
0000
0130
0000
1000
0000
0100
0000
0000
0000
0000
0000
1002
0000
0000
0000
0000
0000
0000
0000
0000
0000
0000
0000
0103
0000
0000
0010
0000
0000
2000
0000
0000
0000
0000
0000
0000
0000
0000
0000
0000
0000
,
3001
0010
0100
0000
1000
0001
0100
0010
1000
0000
0001
0010
0100
1000
0100
0010
,
0002
0000
0000
0000
0000
0000
0000
0000
0103
0000
0010
0000
0100
0000
0000
0000
0000
0000
2010
0000
0000
0000
0000
0000
0000
0000
0000
0000
0000
0000
3100
0000
0000
0010
0000
0000
0002
0000
0000
0000
0000
0000
1000
0000
0000
0000
0000
0000
,
0103
0000
0100
0010
0100
0001
0000
1000
0100
0010
0001
1000
0010
0100
0010
1000
,
0200
0000
0000
0000
0000
0000
0000
0000
0310
0000
0001
0000
0010
0000
0000
0000
0000
0000
2001
0000
0000
0000
0000
0000
0000
0000
0000
0000
0000
0000
3010
0000
0000
0100
0000
0000
0001
0000
0000
0000
0000
0000
1000
0000
0000
0000
0000
0000
,
0100
0010
0000
0000
0002
0100
0000
0000
2003
0000
0001
0000
3100
0000
0100
0010
,
0001
0000
0010
0100
1000
0000
0001
0100
0010
1000
0000
0100
2000
0000
0010
0000
,
3001
0000
0010
0100
1000
0010
0100
0001
0000
0010
0001
0100
0010
1000
0001
1000
,
0400
0310
0000
0000
,
0000
0000
0000
0000
0000
0000
0000
0000
0000
0000
0000
0000
0004
0000
0000
MMM3
;
