#TITLE:Sledger;
#SUBTITLE:(Lockout Sledgehammer Remix);
#ARTIST:Porn Kings;
#TITLETRANSLIT:;
#SUBTITLETRANSLIT:;
#ARTISTTRANSLIT:;
#GENRE:;
#CREDIT:;
#BANNER:Sledger.png;
#BACKGROUND:Sledger-bg.png;
#LYRICSPATH:;
#CDTITLE:;
#MUSIC:Sledger.ogg;
#OFFSET:-0.009600;
#SAMPLESTART:26.492001;
#SAMPLELENGTH:13.242000;
#SELECTABLE:YES;
#BPMS:0.000000=145.119003
;
#STOPS:
;
#BGCHANGES:;
#KEYSOUNDS:;
#ATTACKS:;

//---------------dance-single - ----------------
#NOTES:
     dance-single:
     :
     Hard:
     15:
     0.650741,0.732048,0.100556,0.321779,0.874838,453.000000,443.000000,10.000000,32.000000,6.000000,0.000000,0.650741,0.732048,0.100556,0.321779,0.874838,453.000000,443.000000,10.000000,32.000000,6.000000,0.000000:
0000
0000
0000
0000
,
0000
0000
0000
0000
,
0000
0000
0000
0000
,
0000
0000
0000
0000
,
1000
0000
1000
0200
0000
0000
0000
0000
0000
0000
0000
0000
0300
0000
0000
0000
,
1000
0000
0001
0010
0000
0020
0000
0000
0000
0000
0000
0000
0030
0000
0000
0000
,
0001
0000
0001
0100
0000
0001
0200
0000
0000
0000
0000
0000
0300
0000
0000
0000
,
0001
0000
0001
1000
0000
1000
0010
0000
0020
0000
0000
0000
0130
0000
0000
0000
,
0002
0000
0000
0010
0000
0000
0013
0000
0002
0000
0000
0100
0000
0000
0103
0000
,
0010
0000
1000
0001
0000
1000
0001
0000
0100
0000
0001
1000
0000
0001
1000
0000
,
0200
0000
0000
1000
0000
0000
1300
0000
0200
0000
0000
0010
0000
0000
0310
0000
,
0001
0100
0010
1000
0000
0001
0010
0000
0020
0000
0000
0000
0130
0000
0000
0000
,
2000
0000
0000
0010
0000
0000
3010
0000
2000
0000
0000
0100
0000
0000
3100
0000
,
0010
0000
0001
1000
0000
0001
1000
0000
0100
1000
0100
1000
0000
0001
0100
0000
,
0200
0000
0000
0001
0000
0000
0301
0000
0200
0000
0000
0010
0000
0000
0310
0000
,
1000
0100
0010
0001
0000
1000
0010
0000
0020
0000
0000
0000
0130
0000
0000
0000
,
0001
0010
0001
0010
0M00
0010
1000
0000
0001
0100
0001
0100
0000
0010
1000
0000
,
0100
0000
1000
0010
0000
1000
0010
0000
1000
0100
1000
0100
0000
0010
0001
0000
,
1000
0010
1000
0010
0M00
0010
0001
0000
1000
0100
1000
0100
0000
0010
0001
0000
,
0100
0001
0100
0001
0000
1000
0100
0000
0200
0000
0000
0000
0310
0000
0000
0000
,
0001
0100
0010
0100
0000
0010
0100
0000
0001
0100
0010
0100
0000
0010
0100
0000
,
0010
0000
1000
0010
0000
1000
0010
0000
1000
0100
1000
0100
0000
0010
0001
0000
,
1000
0100
0010
0100
0000
0010
0100
0000
1000
0100
0010
0100
0000
0010
0100
0000
,
0010
0000
0001
0010
0000
0001
0010
0000
0001
0100
0001
0100
0000
0010
1000
0000
,
0001
1000
0001
0010
0000
0001
0010
0000
0001
1000
0001
0010
0000
0001
0010
0000
,
0100
0000
1000
0010
0000
1000
0010
0000
0100
0001
0100
0001
0000
1000
0100
0000
,
1000
0001
1000
0010
0000
1000
0010
0000
1000
0001
1000
0010
0000
1000
0010
0000
,
0100
0001
0100
0001
0000
1000
0100
0000
0200
0000
0000
0000
0310
0000
0000
0000
,
0001
0100
0010
1000
0000
0001
0010
0000
0001
0100
0010
1000
0000
0001
0010
0000
,
0100
0000
1000
0100
0000
0010
0100
0000
1000
0001
1000
0001
0000
0100
0010
0000
,
1000
0100
0010
0001
0000
1000
0010
0000
1000
0100
0010
0001
0000
1000
0010
0000
,
0100
0010
0100
0001
0000
1000
0100
0000
0110
0000
0000
0000
1001
0000
0000
0000
,
0002
0000
0000
0010
0000
0000
0010
0000
0023
0000
0000
1000
0000
0000
1000
0000
,
2030
0000
0000
0001
0000
0000
0001
0000
3002
0000
0000
0100
0000
0000
0100
0000
,
0203
0000
0000
1000
0000
0000
1000
0000
2300
0000
0000
0001
0000
0000
0001
0000
,
3001
0100
0010
1000
0000
0100
0010
0000
0110
0000
0000
0000
1001
0000
0000
0000
,
2000
0000
0000
0010
0000
0000
0010
0000
3020
0000
0000
0001
0000
0000
0001
0000
,
0032
0000
0000
1000
0000
0000
1000
0000
2003
0000
0000
0100
0000
0000
0100
0000
,
3200
0000
0000
0001
0000
0000
0001
0000
0302
0000
0000
1000
0000
0000
1000
0000
,
1003
0100
0010
0001
0000
0100
0010
0000
0110
0000
0000
0000
1001
0000
0000
0000
,
1000
0010
1000
0010
0M00
0010
0001
0000
0000
0000
0010
0000
0100
0000
1000
0000
,
0001
0000
0100
1000
0000
0100
0001
0000
0000
0000
0010
0000
0001
0000
0010
0000
,
0001
0100
0001
0100
00M0
0100
1000
0000
0000
0000
0100
0000
0010
0000
0001
0000
,
1000
0010
0100
0001
0000
1000
0100
0000
0200
0000
0000
0000
0310
0000
0000
0000
,
0001
0010
0001
0010
0M00
0010
1000
0000
0000
0000
0010
0000
0100
0000
0001
0000
,
1000
0000
0100
0001
0000
0100
1000
0000
0000
0000
0010
0000
1000
0000
0010
0000
,
1000
0100
1000
0100
00M0
0100
0001
0000
0000
0000
0100
0000
0010
0000
1000
0000
,
0001
0010
0100
1000
0000
0001
0100
0000
0200
0000
0000
0000
0310
0000
0000
0000
,
1000
0001
1000
0010
0000
1000
0010
0000
0000
0000
0100
0000
0001
0000
0100
0000
,
0010
0000
1000
0001
0000
0010
0100
0000
0000
0000
1000
0000
0100
0000
1000
0000
,
0001
1000
0001
0010
0000
0001
0010
0000
0000
0000
0100
0000
1000
0000
0100
0000
,
0010
0001
1000
0001
0000
0100
0010
0000
0110
0000
0000
0000
1001
0000
0000
0000
,
1000
0100
0010
0001
0000
0010
0001
0000
0000
0000
1000
0000
0001
0000
0100
0000
,
0010
0000
1000
0001
0000
0010
0100
0000
0000
0000
1000
0000
0100
0000
1000
0000
,
0001
0100
0010
1000
0000
0010
1000
0000
0000
0000
0001
0000
1000
0000
0100
0000
,
0010
0001
1000
0001
0000
0100
0010
0000
0110
0000
0000
0000
2002
0000
0000
0000
,
3003
0000
0000
0000
;

//---------------dance-single - ----------------
#NOTES:
     dance-single:
     :
     Medium:
     11:
     0.443883,0.506803,0.120667,0.241335,0.165918,309.000000,297.000000,12.000000,24.000000,10.000000,0.000000,0.443883,0.506803,0.120667,0.241335,0.165918,309.000000,297.000000,12.000000,24.000000,10.000000,0.000000:
// measure 0
0000
0000
0000
0000
,  // measure 1
0000
0000
0000
0000
,  // measure 2
0000
0000
0000
0000
,  // measure 3
0000
0000
0000
0000
,  // measure 4
1000
0000
0000
2000
0000
0000
0000
0000
0000
0000
0000
0000
3000
0000
0000
0000
,  // measure 5
0001
0000
0000
0020
0000
0000
0000
0000
0000
0000
0000
0000
0030
0000
0000
0000
,  // measure 6
0001
0000
0000
0002
0000
0000
0000
0000
0000
0000
0000
0000
0003
0000
0000
0000
,  // measure 7
1000
0100
0010
0001
0200
0000
0300
0000
,  // measure 8
1010
0000
0000
1000
0000
0000
1000
0000
0100
0000
0000
1000
0000
0000
1000
0000
,  // measure 9
0010
0000
0000
0100
0000
0000
0001
0000
0010
0000
0000
0001
0000
0000
1000
0000
,  // measure 10
0001
0000
0000
0100
0000
0000
0100
0000
0001
0000
0000
0010
0000
0000
0010
0000
,  // measure 11
0001
0100
0010
1000
0200
0000
0300
0000
,  // measure 12
0011
0000
0000
0001
0000
0000
0001
0000
0100
0000
0000
0001
0000
0000
0001
0000
,  // measure 13
0010
0000
0000
0100
0000
0000
1000
0000
0010
0000
0000
1000
0000
0000
0001
0000
,  // measure 14
1000
0000
0000
0100
0000
0000
0100
0000
1000
0000
0000
0010
0000
0000
0010
0000
,  // measure 15
1000
0100
0010
0001
0200
0000
0300
0000
,  // measure 16
0001
0010
0001
0M10
0010
1000
0010
1000
,  // measure 17
0001
0100
0001
0000
0010
0100
1000
0000
,  // measure 18
0001
0100
0001
01M0
0100
1000
0100
1000
,  // measure 19
0001
0100
0010
1000
0200
0000
0300
0000
,  // measure 20
1000
0100
0010
0M10
1000
0100
0010
0M10
,  // measure 21
1000
0010
1000
0000
1000
0100
1000
0000
,  // measure 22
0001
0100
0010
0M10
0001
0100
0010
0M10
,  // measure 23
0001
0010
0001
0000
0001
0100
0001
0000
,  // measure 24
1000
0001
0010
0M10
1000
0001
0010
0M10
,  // measure 25
1000
0100
0010
0000
0010
0100
1000
0000
,  // measure 26
0001
1000
0010
0M10
0001
1000
0010
0M10
,  // measure 27
0001
0100
0010
1000
0200
0000
0300
0000
,  // measure 28
1000
0100
0010
0100
1000
0100
0010
0100
,  // measure 29
1000
0001
0010
0000
0010
0001
1000
0000
,  // measure 30
0001
0100
0010
0100
0001
0100
0010
0100
,  // measure 31
0001
1000
0100
0010
0110
0000
1001
0000
,  // measure 32
2000
0000
3020
0000
,  // measure 33
0230
0000
0302
0000
,  // measure 34
2003
0000
3200
0000
,  // measure 35
0310
0100
0010
0100
0110
0000
1001
0000
,  // measure 36
0002
0000
0023
0000
,  // measure 37
0230
0000
2300
0000
,  // measure 38
3002
0000
0203
0000
,  // measure 39
0310
0100
0010
0100
0110
0000
1001
0000
,  // measure 40
1000
0000
0000
1000
0000
0000
0010
0000
0000
0000
1000
0000
0100
0000
1000
0000
,  // measure 41
0001
0000
0000
0001
0000
0000
0010
0000
0000
0000
0001
0000
0100
0000
0001
0000
,  // measure 42
0100
0000
0000
0100
0000
0000
0010
0000
0000
0000
1000
0000
0001
0000
0010
0000
,  // measure 43
0001
1000
0001
0100
0020
0000
0030
0000
,  // measure 44
1000
0000
0000
1000
0000
0000
0001
0000
0000
0000
0100
0000
0010
0000
0100
0000
,  // measure 45
0001
0000
0000
0001
0000
0000
1000
0000
0000
0000
0100
0000
1000
0000
0100
0000
,  // measure 46
0010
0000
0000
0010
0000
0000
0001
0000
0000
0000
1000
0000
0001
0000
0100
0000
,  // measure 47
0001
1000
0001
0010
0200
0000
0300
0000
,  // measure 48
1000
0000
0001
0100
0000
0001
0100
0000
0000
0000
0010
0000
1000
0000
0001
0000
,  // measure 49
0010
0000
0100
1000
0000
0100
1000
0000
0000
0000
0100
0000
0001
0000
1000
0000
,  // measure 50
0010
0000
0001
1000
0000
0001
1000
0000
0000
0000
0010
0000
0100
0000
0001
0000
,  // measure 51
1000
0100
0010
0001
1001
0000
0110
0000
,  // measure 52
0001
0000
0100
0010
0000
0100
0001
0000
0000
0000
0100
0000
0010
0000
1000
0000
,  // measure 53
0100
0000
0010
0100
0000
1000
0100
0000
0000
0000
0010
0000
0001
0000
1000
0000
,  // measure 54
0001
0000
0100
0010
0000
1000
0001
0000
0000
0000
0010
0000
0100
0000
1000
0000
,  // measure 55
0001
0100
0010
1000
1001
0000
0220
0000
,  // measure 56
0330
0000
0000
0000
;
