#VERSION:0.83;
#TITLE:Skyfall;
#SUBTITLE:;
#ARTIST:chronon;
#TITLETRANSLIT:;
#SUBTITLETRANSLIT:;
#ARTISTTRANSLIT:;
#GENRE:TECHCORE;
#CREDIT:chronon;
#MUSIC:Skyfall.ogg;
#BANNER:Skyfall.png;
#BACKGROUND:Skyfall-bg.png;
#CDTITLE:;
#SAMPLESTART:102.859;
#SAMPLELENGTH:21.943;
#SELECTABLE:YES;
#OFFSET:1.372;
#BPMS:0.000=175.000;
#STOPS:;
#SPEEDS:0.000=1.000=0.000=0,
168.000=0.990=0.000=0,
168.250=0.980=0.000=0,
168.500=0.970=0.000=0,
168.750=0.960=0.000=0,
169.000=0.950=0.000=0,
169.250=0.940=0.000=0,
169.500=0.930=0.000=0,
169.750=0.920=0.000=0,
170.000=0.910=0.000=0,
170.250=0.900=0.000=0,
170.500=0.850=0.000=0,
170.750=0.840=0.000=0,
171.000=0.830=0.000=0,
171.250=0.820=0.000=0,
171.500=0.810=0.000=0,
171.750=0.800=0.000=0,
172.000=0.790=0.000=0,
172.250=0.780=0.000=0,
172.500=0.770=0.000=0,
172.750=0.760=0.000=0,
173.000=0.750=0.000=0,
173.250=0.740=0.000=0,
173.500=0.730=0.000=0,
173.750=0.720=0.000=0,
174.000=0.710=0.000=0,
174.250=0.700=0.000=0,
174.500=0.690=0.000=0,
174.750=0.680=0.000=0,
175.000=0.670=0.000=0,
175.250=0.660=0.000=0,
175.500=0.650=0.000=0,
175.750=0.640=0.000=0,
176.000=0.600=0.000=0,
200.000=0.800=0.000=0,
232.000=0.810=0.000=0,
232.500=0.820=0.000=0,
233.000=0.830=0.000=0,
233.500=0.840=0.000=0,
234.000=0.850=0.000=0,
234.500=0.860=0.000=0,
235.000=0.870=0.000=0,
235.500=0.880=0.000=0,
236.000=0.900=0.000=0,
266.000=0.950=0.000=0,
272.000=1.000=0.000=0
;
#BGCHANGES:;
#FGCHANGES:;

//--------------- dance-single - chronon ----------------
#NOTEDATA:;
#STEPSTYPE:dance-single;
#DESCRIPTION:chronon;
#DIFFICULTY:Beginner;
#METER:4;
#RADARVALUES:0,0,0,0,0;
#NOTES:
0000
0000
0000
0000
,
0000
0000
0000
0000
,
0000
0000
0000
0000
,
0000
0000
0000
0000
,
0000
0000
0000
0000
,
0000
0000
0000
0000
,
0000
0000
0000
0000
,
0000
0000
0000
0000
,
0000
0000
0000
0000
,
0000
0000
0000
0000
,
0002
0000
0000
0000
,
0000
0000
0000
0003
,
0200
0000
0000
0300
,
0020
0000
0000
0030
,
2000
0000
0000
0000
,
0000
0000
0000
3000
,
0200
0000
0000
0300
,
0020
0000
0000
0030
,
0002
0000
0000
0003
,
1001
0000
0000
0000
,
2000
0000
0000
3000
,
1001
0000
0000
0000
,
0001
0000
0100
0000
,
0001
0000
0000
0000
,
1000
0000
0100
0000
,
1000
0000
0000
0000
,
1000
0000
0100
0000
,
0010
0010
0010
0000
,
0001
0000
0100
0000
,
0010
0000
0000
0000
,
1000
0000
0010
0000
,
0100
0100
0100
0000
,
0001
0000
0010
0000
,
0100
0000
1000
0000
,
0001
0000
0100
0000
,
0010
0010
0010
0000
,
1000
0000
0100
0000
,
0010
0000
0000
0000
,
0001
0000
0010
0000
,
0100
0100
0100
0000
,
1000
0000
0010
0000
,
0100
0000
0000
0000
,
2002
0000
0000
0000
,
0000
0000
0000
0000
,
3003
0000
0000
0000
,
0000
0000
0000
0000
,
0000
0000
0000
0000
,
0000
0000
0000
0000
,
0000
0000
0000
0000
,
0000
0000
0000
0000
,
0000
0000
0000
0000
,
0000
0000
0000
0000
,
1000
0000
1000
0000
,
0000
0000
0000
0000
,
0001
0000
0001
0000
,
0000
0000
0000
0000
,
0010
0000
0010
0000
,
0000
0000
0000
0000
,
0100
0000
0100
0000
,
0000
0000
0000
0000
,
1000
0000
1000
0000
,
1000
0000
0000
0000
,
0001
0000
0001
0000
,
0001
0000
0000
0000
,
0100
0000
0100
0000
,
0100
0000
0000
0000
,
0010
0000
0010
0000
,
0010
0000
0000
0000
,
2002
0000
0000
0000
,
0000
0000
3003
0000
,
2002
0000
0000
0000
,
0000
0000
3003
0000
,
0001
1000
0001
0000
,
1000
0001
1000
0000
,
0100
0000
0010
0000
,
0002
0000
0000
0003
,
1000
0000
0010
0000
,
0100
0000
0001
0000
,
1000
0000
0100
0000
,
0010
0000
0001
0000
,
1000
0000
0010
0000
,
0100
0000
0001
0000
,
1000
0000
0001
0000
,
1000
0001
1000
0000
,
0002
0000
0000
0003
,
2002
0000
0000
3003
,
1000
0000
0100
0000
,
0010
0100
0010
0000
,
0001
0000
0100
0000
,
0010
0100
0010
0000
,
1000
0000
0100
0000
,
0010
0100
0010
0000
,
0002
0000
0003
1001
,
0000
1000
0001
0000
,
2000
0000
3000
1001
,
0000
0001
1000
0000
,
0002
0000
0003
1001
,
0000
1000
0001
0000
,
0010
0000
0100
0000
,
1000
0001
1000
0000
,
1001
0000
0000
0000
;

//--------------- dance-single - chronon ----------------
#NOTEDATA:;
#STEPSTYPE:dance-single;
#DESCRIPTION:chronon;
#DIFFICULTY:Easy;
#METER:8;
#RADARVALUES:0,0,0,0,0;
#NOTES:
0000
0000
0000
0000
,
0000
0000
0000
0000
,
0000
0000
0000
0000
,
0000
0000
0000
0000
,
0000
0000
0000
0000
,
0000
0000
0000
0000
,
0000
0000
0000
0000
,
0000
0000
0000
0000
,
0000
0000
0000
0000
,
0000
0000
0000
0000
,
1000
0000
0010
0000
0200
0300
0000
0000
,
0010
0000
0200
0300
0000
0000
0001
0000
,
0000
0000
0010
0000
0200
0300
0000
0000
,
1000
0000
0000
0001
0000
0000
0100
0000
,
0001
0100
0010
0000
,
1000
0100
0010
0000
,
0001
0000
0000
0010
0000
0000
0100
0000
,
1000
0001
1000
0000
,
1001
0000
0000
1001
0000
0110
0000
0000
,
0220
0000
0000
0330
,
1001
0000
0000
1001
0000
0110
0000
0000
,
0220
0000
0000
0330
,
1001
0000
0000
1000
0000
0010
0000
0100
,
0001
0000
0000
1000
0000
0100
0000
0010
,
0001
0000
1000
0000
0001
1000
0001
1000
,
0001
0000
0000
0000
,
2000
0000
3010
0000
0100
0000
0010
0100
,
0010
1000
0001
0000
,
0002
0000
0013
0000
0100
0000
0010
0100
,
0010
0000
0000
1001
,
0002
0000
0103
0000
0010
0000
0100
0010
,
0100
0001
1000
0000
,
2000
0000
3100
0000
0010
0000
0100
0010
,
0100
0010
0001
1000
,
0002
0000
1003
0000
0010
0000
0100
0001
,
0100
0001
1000
0000
,
2000
0000
3100
0000
0010
0000
0100
1000
,
0100
0000
0000
1001
,
2000
0000
3010
0000
0100
0000
0010
1000
,
0010
1000
0001
0000
,
0002
0000
0013
0000
0100
0000
0010
0001
,
0010
0100
1000
0001
,
2002
0000
0000
0000
,
0000
0000
0000
0000
,
3003
0000
0000
0000
,
0000
0000
0000
0000
,
2000
0000
0000
0000
,
3020
0000
0000
0000
,
0130
0000
0000
0000
,
0000
0000
0000
0000
,
0002
0000
0000
0000
,
0023
0000
0000
0000
,
0130
0000
1000
0000
,
0001
0000
0000
0000
,
0010
0000
0001
0000
,
1000
0000
0000
0000
,
0010
0000
1000
0000
,
0001
0000
0000
0000
,
0100
0000
0001
0000
,
2000
0000
0000
3000
,
0001
0100
0001
0000
,
1000
0100
1000
0000
,
0001
0010
0001
0000
,
1000
0010
1000
0000
,
0001
0100
0010
1000
,
0001
0010
0100
1000
,
1001
0000
1001
0000
,
2002
0000
0000
3003
,
2002
0000
0000
0000
,
0000
0000
3003
0000
,
2002
0000
0000
0000
,
0000
0000
3003
0000
,
0001
0010
0100
0000
,
1000
0010
0100
0000
,
0001
0010
0100
1000
,
0002
0000
0000
1003
,
0001
0100
0010
1000
,
0001
0010
0100
0010
,
0001
0100
0010
1000
,
0001
1000
0100
0100
,
1000
0100
0010
0001
,
1000
0010
0100
0010
,
1000
0100
0001
0100
,
1000
0001
1000
0000
,
1001
0000
0000
1001
0000
1001
0000
0000
,
2002
0000
0000
3003
,
0001
0100
0010
1000
,
0001
1000
0001
0000
1000
0000
0000
0000
,
0001
0010
0100
1000
,
0001
1000
0001
0000
,
1000
0010
0100
0001
,
1000
0000
0001
1000
,
1001
0000
0000
1100
0000
0000
1001
0000
,
0001
1000
0001
0000
,
1001
0000
0000
0101
0000
0000
1001
0000
,
1000
0001
1000
0000
,
1001
0000
0000
1010
0000
0000
1001
0000
,
0001
1000
0001
0010
,
0001
0010
0100
1000
,
0001
0100
0010
0100
,
1000
0000
0000
0000
;

//--------------- dance-single - chronon ----------------
#NOTEDATA:;
#STEPSTYPE:dance-single;
#DESCRIPTION:chronon;
#DIFFICULTY:Medium;
#METER:13;
#RADARVALUES:0,0,0,0,0;
#NOTES:
0000
0000
0000
0000
,
0000
0000
0000
0000
,
0000
0000
0000
0000
,
0000
0000
0000
0000
,
0000
0000
0000
0000
,
0000
0000
0000
0000
,
0000
0000
0000
0000
,
0000
0000
0000
0000
,
0000
0000
0000
0000
,
0000
0000
0000
0000
,
0001
0000
0010
0000
0001
0100
0000
0000
,
0010
0000
1000
0100
0000
0000
0010
0100
,
1000
0000
0100
0000
1000
0001
0100
0000
,
0001
0000
0100
0010
0000
0010
1000
0000
,
0001
0000
0000
1000
0000
0000
0100
0000
0010
0000
0000
0000
0001
0000
0000
0000
,
1000
0000
0000
0001
0000
0000
0100
0000
0010
0000
0000
0000
1000
0000
0000
0000
,
0001
0000
0001
0100
0000
0100
0010
0000
,
0010
1000
0001
0000
0010
0100
1000
0000
,
1100
0000
0000
1100
0000
0000
1100
0000
0000
0000
1001
0000
0000
1001
0000
0000
,
0001
0100
0001
0000
0100
0001
0100
0000
,
0101
0000
0000
0101
0000
0000
0101
0000
0000
0000
1001
0000
0000
1001
0000
0000
,
1000
0100
1000
0000
0100
1000
0100
0000
,
1000
0000
0100
0010
0000
0001
0000
1000
,
0001
0000
0100
0010
0000
1000
0000
0001
,
1000
0100
0010
0000
0001
0100
0010
1000
,
0001
0100
0010
1002
,
0023
0000
0130
0000
0010
0001
1000
1000
,
0002
1000
0000
0103
0002
1000
0000
0103
,
0020
0000
0130
0000
0010
1000
0001
0001
,
1000
0000
0100
1000
0000
0000
0000
1100
0000
0000
2001
0000
3020
0000
0000
0000
,
0230
0000
0310
0000
0100
0001
1000
1000
,
0002
1000
0000
0013
0002
1000
0000
0013
,
0200
0000
0310
0000
0100
1000
0001
0001
,
1000
0010
0100
0001
0000
0020
0000
0030
,
0021
0000
0000
0000
0130
0000
1000
0100
0000
0000
0010
0100
0000
0000
0010
0001
,
0000
0000
1000
0001
0000
0000
0100
0001
0000
0000
0100
0010
0000
0000
1000
0000
,
1020
0000
0000
0000
0130
0000
0001
0100
0000
0000
0010
0100
0000
0000
0001
0000
,
1000
0000
0010
1000
0000
0000
0000
1010
0000
0000
2001
0000
3100
0000
0000
0000
,
1200
0000
0000
0000
0310
0000
0001
0010
0000
0000
0100
0010
0000
0000
0100
1000
,
0000
0000
0001
1000
0000
0000
0010
1000
0000
0000
0010
0100
0000
0000
0001
0000
,
0201
0000
0000
0000
0310
0000
1000
0010
0000
0000
0100
0010
0000
0000
1000
0000
,
0001
0010
0100
1000
0001
0000
1000
0000
,
2002
0000
0000
0000
,
0000
0000
0000
0000
,
3003
0000
0000
0000
,
0000
0002
2003
3002
,
0203
0000
0000
0000
,
0320
0000
0000
0000
,
1030
0000
0000
0000
,
0000
2000
3002
2003
,
3200
0000
0000
0000
,
0020
0000
0330
0000
,
0100
0000
0000
0010
0000
0000
0001
0000
1000
0000
0000
0000
0000
0000
0000
0000
,
0010
0000
0000
0100
0000
0000
0001
0000
1000
0000
0000
0000
0000
0000
0000
0000
,
0002
0023
0230
2300
,
3002
0000
0000
0000
,
0103
0000
0000
0010
0000
0000
1000
0000
0001
0000
0000
0000
0000
0000
0000
0000
,
0010
0000
0000
0100
0000
0000
1000
0000
0001
0000
0000
0000
0000
0000
0000
0000
,
2000
0000
0000
3020
0000
0000
0230
0000
,
0302
0000
0000
0003
,
1000
0000
0000
0001
0000
0000
0010
0000
0100
0000
0000
1000
0000
0000
0000
0000
,
0001
0000
0000
1000
0000
0000
0010
0000
0100
0000
0000
0001
0000
0000
0000
0000
,
2000
3002
0203
2300
,
3200
0000
0301
0000
,
1000
0000
0000
0001
0000
0000
0010
0000
0001
0000
0000
1000
0000
0000
0010
0000
,
1000
0000
0000
0001
0000
0000
0100
0000
0001
0000
0000
1000
0000
0000
0100
0000
,
1000
0000
0000
1100
0000
0000
1000
0000
0001
0000
0000
0101
0000
0000
0001
0000
,
2002
0000
3003
0000
,
2002
0000
0000
0000
,
3003
0000
0000
0000
0000
0000
0000
0000
1000
0000
0000
0001
0000
0000
1000
0000
,
2002
0000
0000
0000
,
3003
0000
1001
1001
,
1100
1000
0100
0010
,
0011
0001
0100
0010
,
1010
1000
0001
0000
0011
0001
1000
0000
,
0001
0100
0010
1000
0001
0000
1001
0000
,
1000
0100
0010
0002
0000
1000
0000
0203
,
0000
0001
0000
0010
0000
1000
0000
0310
,
1000
0010
0100
0002
0000
1000
0000
0023
,
0000
0100
0000
1000
0000
0100
0000
0031
,
0010
0001
0010
0200
0000
0010
0000
2300
,
0000
0001
0000
0100
0000
0001
0000
3010
,
1000
0010
0200
1000
0000
0010
0000
0301
,
0100
0000
0001
0100
0000
0000
0001
0000
1000
0000
0100
0000
1000
0000
0000
0000
,
1100
0000
0000
0110
0000
0000
0011
0000
0000
0000
0101
0000
0000
0110
0000
0000
,
1010
0010
1000
0010
0100
0001
0020
0030
,
0002
0000
0013
0100
1000
0001
1000
0010
,
1000
0000
0000
0010
0000
0000
0100
0000
0001
0000
0000
0000
1000
0000
0001
0000
,
2000
0000
3010
0100
0001
1000
0001
0010
,
0002
0000
2003
0000
3001
0000
1000
0010
,
0200
0000
0301
0010
0100
1000
0001
1000
,
0010
1000
1010
1001
,
0011
0000
0000
1100
0000
0000
1001
0000
,
0001
0000
0000
0000
0100
0001
0100
0000
0001
0000
1000
0000
0100
0000
0000
0000
,
1100
0000
0000
0011
0000
0000
1001
0000
,
1000
0000
0010
0100
1000
0100
0001
0000
,
0101
0000
0000
1010
0000
0000
1001
0000
,
0001
0000
0000
0000
0010
0001
0010
0000
0001
0000
1000
0000
0010
0000
0000
0000
,
1000
0000
0010
1000
0010
0000
0100
0001
0100
0000
0001
0000
1000
0000
0001
0000
,
0010
0001
0010
0000
0100
1000
0100
0000
2000
0000
0000
0000
3200
0000
0000
0000
,
0301
0000
0000
0000
;

//--------------- dance-single - chronon ----------------
#NOTEDATA:;
#STEPSTYPE:dance-single;
#DESCRIPTION:chronon;
#DIFFICULTY:Hard;
#METER:16;
#RADARVALUES:0,0,0,0,0;
#NOTES:
0000
0000
0000
0000
,
0000
0000
0000
0000
,
0000
0000
0000
0000
,
0000
0000
0000
0000
,
0000
0000
0000
0000
,
0000
0000
0000
0000
,
0000
0000
0000
0000
,
0000
0000
0000
0000
,
0000
0000
0000
0000
,
0000
0000
0000
0000
,
1000
0100
0010
0100
0001
0100
0000
0100
,
0010
0100
0001
0100
0000
0010
0001
0100
,
0000
0100
0010
0100
0001
0100
0010
1000
,
0100
0010
0001
0100
0010
1000
0100
0010
,
0001
0000
0000
0010
0000
0000
0100
0000
1000
0000
0001
0000
1000
0000
0010
0000
,
1000
0000
0000
0010
0000
0000
0100
0000
0001
0000
1000
0000
0001
0000
0010
0000
,
0001
0010
0100
1000
0010
0100
0001
0010
,
0100
0001
0100
0010
0001
1000
0010
1000
,
1010
0000
0000
0101
0000
0000
1001
0000
0000
0000
0011
0000
0000
1100
0000
0000
,
1000
0000
0100
0010
0001
0000
1000
0000
0010
0100
0001
0000
0100
0000
0000
0000
,
0101
0000
0000
1010
0000
0000
1001
0000
0000
0000
1100
0000
0000
0011
0000
0000
,
0001
0000
0010
0001
1000
0000
0001
1000
0000
0010
0100
0000
0001
0000
0100
0000
,
0001
0000
0100
0010
1000
0000
0001
1000
0000
0000
0100
1000
0000
0000
0100
0000
,
1000
0000
0100
0010
0001
0000
1000
0001
0000
0000
0100
0001
0000
0000
0100
0000
,
0001
0000
0100
0000
0010
0000
1000
0000
0001
1000
0001
0010
0100
1000
0001
1000
,
0010
0000
0000
0000
1000
0010
0100
0000
0001
0010
0100
0000
0110
0000
0000
0000
,
1200
0000
0000
0000
0310
0000
0100
0000
1000
0001
1000
0000
0010
0000
0020
0000
,
0100
0000
1030
0000
0001
1000
0100
0020
0100
0000
0031
0000
1000
0001
0100
0000
,
0201
0000
0000
0000
0310
0000
0100
0000
0001
1000
0001
0000
0010
0000
0010
0000
,
0100
0000
1000
0100
0000
0010
0100
0010
0000
0000
0110
0000
1001
0000
0000
0000
,
0201
0000
0000
0000
0310
0000
0100
0000
0001
1000
0001
0000
0010
0000
0020
0000
,
0100
0000
0031
0000
1000
0001
0100
0020
0100
0000
1030
0000
0001
1000
0100
0000
,
1200
0000
0000
0000
0310
0000
0100
0000
1000
0001
1000
0000
0010
0000
0010
0000
,
0100
0001
1000
0001
0000
0020
0000
0030
,
0021
0000
0000
0000
0130
0010
0001
1000
0001
0100
0001
0000
0100
0000
0200
0000
,
0010
0000
0301
0000
1000
0001
0010
0200
0010
0000
1300
0000
0001
1000
0010
0000
,
1020
0000
0000
0000
0130
0010
1000
0001
1000
0100
1000
0000
0100
0000
0100
0000
,
0010
0000
0001
0010
0000
0100
0010
0100
0000
0000
0110
0000
1001
0000
0000
0000
,
1020
0000
0000
0000
0130
0010
1000
0001
1000
0100
1000
0000
0100
0000
0200
0000
,
0010
0000
1300
0000
0001
1000
0010
0200
0010
0000
0301
0000
1000
0001
0010
0000
,
0021
0000
0000
0000
0031
0000
0010
0000
0001
1000
0001
0100
0010
0000
0010
0000
,
1000
0010
0100
0001
1000
0100
0010
0001
,
0200
0000
0000
0000
M000
M000
M000
M000
M000
M000
M000
M000
M000
M000
M000
M000
,
M000
M000
M000
M000
M000
M000
M000
M000
M000
M000
M000
M000
M000
M000
M000
M000
,
M300
0000
0000
0000
,
0000
0002
2003
3002
,
0023
0000
0000
0000
,
0230
0000
0000
0000
,
1300
0000
0000
0000
,
0000
2000
3002
2003
,
3020
0000
0000
0000
,
0200
0000
0000
0000
0330
0000
0010
0100
,
0001
0000
0000
1000
0000
0000
0001
0000
0010
0000
0000
0100
0000
0000
0010
0000
,
0001
0000
0000
1000
0000
0000
0001
0000
0100
0000
0000
0010
0000
0000
1000
0000
,
0002
2003
3200
0320
,
0032
0000
0000
0000
0000
0000
0013
0100
,
1000
0000
0000
0001
0000
0000
1000
0000
0010
0000
0000
0100
0000
0000
0010
0000
,
1000
0000
0000
0001
0000
0000
1000
0000
0100
0000
0000
0010
0000
0000
0001
0000
,
2000
0000
0000
3002
0000
0000
0203
0000
,
0320
0000
0000
0030
,
1000
0000
0000
0010
1000
0000
0001
0000
1000
0000
0000
0100
1000
0000
0000
0000
,
0001
0000
0000
0010
0001
0000
1000
0000
0001
0000
0000
0100
0001
0000
0000
0000
,
0200
0302
0203
2300
,
3200
0310
1000
0001
,
1000
0000
0100
1000
0000
0000
1000
0000
0001
0000
0100
0001
0000
0000
0001
0000
,
1000
0000
0010
1000
0000
0000
1000
0000
0001
0000
0010
0001
0000
0000
0010
0000
,
0011
0000
0000
1001
0000
0000
1010
0000
1010
0000
0000
1001
0000
0000
0101
0000
,
0210
0000
1300
0000
,
2002
0000
0000
0000
,
0000
0000
0000
0000
3003
0000
0000
0000
1001
0000
0000
0101
0000
0000
1001
0000
,
2002
0000
0000
0000
,
0000
3003
1001
1010
,
1100
1000
0100
0010
0001
1000
0001
0000
,
0101
0001
0100
0010
1000
0001
1000
0000
,
1100
0100
0010
0001
1001
1000
0010
0100
,
0001
0100
0010
1000
0001
1000
0100
0010
0001
1000
0001
0100
0020
0000
0000
0000
,
0130
0010
1000
0100
0010
0001
1000
0001
,
0100
0020
0100
1030
0100
0020
0100
0031
,
0010
0100
1000
0010
0100
0001
1000
0001
,
0010
0200
0010
1300
0100
0020
0100
0031
,
0010
0100
1000
0010
0100
0001
1000
0001
,
0010
0002
0010
1003
0100
2000
0100
3001
,
0100
0001
0100
1000
0001
0010
1000
0001
,
1000
0000
0100
0010
0000
0001
1000
0000
0001
0000
0100
0000
0010
0000
1000
0000
,
1010
0000
0000
1001
0000
0000
1100
0000
0000
0000
0011
0000
0000
1001
0000
0000
,
0001
1000
0100
0010
0001
1000
0010
0100
0001
1000
0001
0100
0020
0000
0130
0000
,
1000
0100
0010
1000
0100
0010
0001
1000
,
0001
0000
0100
0001
0000
1000
0001
0000
1000
0000
0100
0000
0010
0000
0100
0000
,
0001
0100
0010
0001
0100
0010
1000
0001
,
1001
0000
1001
0000
0001
1000
0010
1000
,
0001
0010
0100
1000
0001
1000
0010
0100
,
0001
0100
0101
1001
,
1100
0000
1000
0100
0010
0000
0110
0000
0100
0010
0001
0000
1001
0000
0000
0000
,
1000
0000
0001
0000
0100
0010
1000
0001
1000
0000
0100
0010
0001
0000
0010
0000
,
0011
0000
0001
0010
0100
0000
0110
0000
0010
0100
1000
0000
1001
0000
0000
0000
,
0001
1000
0010
0100
1000
0100
0010
1000
,
1010
0000
1000
0010
0100
0000
0110
0000
0010
0100
0001
0000
1001
0000
0000
0000
,
1000
0000
0100
0000
0010
0100
1000
0001
1000
0000
0010
0000
0100
0000
0001
0000
,
1000
0000
0001
0010
0100
0000
1000
0010
0100
0000
0001
0010
0100
0000
1000
0000
,
0100
0010
0001
1000
0001
0100
0010
0100
0002
0000
0000
0000
0203
0000
0000
0000
,
1300
0000
0000
0000
;
