#TITLE:Sky Fracture VIP;
#SUBTITLE:;
#ARTIST:Getsix feat. Miss Lina;
#TITLETRANSLIT:;
#SUBTITLETRANSLIT:;
#ARTISTTRANSLIT:;
#GENRE:;
#CREDIT:;
#BANNER:;
#BACKGROUND:;
#LYRICSPATH:;
#CDTITLE:;
#MUSIC:Sky Fracture VIP.ogg;
#OFFSET:-0.236000;
#SAMPLESTART:43.716000;
#SAMPLELENGTH:10.870000;
#SELECTABLE:YES;
#BPMS:0.000000=176.632996
,177.000000=173.632996
,178.000000=171.632996
,179.000000=169.632996
,180.000000=167.632996
,181.000000=164.632996
,182.000000=163.632996
,183.000000=160.632996
,184.000000=157.632996
,185.000000=154.632996
,186.000000=150.632996
,187.000000=142.632996
,188.000000=140.000000
,189.000000=141.500000
,190.000000=140.500000
,224.000000=176.632996
;
#STOPS:
;
#BGCHANGES:;
#KEYSOUNDS:;
#ATTACKS:;

//---------------dance-single - FS XO----------------
#NOTES:
     dance-single:
     :
     Challenge:
     17:
     0.832275,1.050811,0.278787,0.464644,0.532554,815.000000,776.000000,39.000000,65.000000,16.000000,0.000000,0.832275,1.050811,0.278787,0.464644,0.532554,815.000000,776.000000,39.000000,65.000000,16.000000,0.000000:
0000
0000
0000
0000
,
0000
0000
0000
0000
,
0000
0000
0000
0000
,
0000
0000
0000
0000
,
0000
0000
0000
0000
,
0000
0000
0000
0000
,
0000
0000
0000
0000
,
0000
0000
0000
0000
0000
0000
1001
0000
0000
0001
0010
0100
,
1000
0020
0000
1030
0001
0010
0200
0000
,
1300
0000
0001
0100
0001
0000
0010
0000
0100
0000
1000
0000
0002
0000
0000
0000
,
1003
0010
0100
0010
1000
0010
0200
0000
,
0301
0000
1000
0100
1000
0000
0010
0000
0100
0000
0001
0000
2000
0000
0000
0000
,
3001
0020
0000
0031
1000
0010
0200
0000
,
0301
0000
1000
0100
1000
0000
0010
0000
0100
0000
0001
0000
2000
0000
0000
0000
,
3001
0010
0100
0010
0001
0010
0200
0000
,
1300
0000
0001
0100
0001
0000
0010
0000
0100
0000
1000
0000
1001
0000
0000
0000
,
0001
0000
0100
0000
0010
0000
1000
0001
1000
0000
0010
0000
0100
0000
0001
0000
,
1000
0000
0100
0000
1000
0000
0010
0000
0100
0000
0001
0010
0001
0000
1000
0000
,
1000
0000
0100
0000
0010
0000
0001
1000
0001
0000
0010
0000
0100
0000
1000
0000
,
0001
0200
0000
0310
1000
0100
0010
0001
,
0100
0000
0010
1000
0010
0000
0100
0000
0001
0000
0010
0000
0001
0000
1000
0000
,
0100
0000
0010
0000
0001
1000
0001
0000
0010
0000
0100
0000
1000
0000
0001
0000
,
0100
0001
0100
0001
1000
0100
1000
0100
,
0010
0000
0010
0000
0001
0000
0001
0000
1000
0010
1000
0010
0100
0001
1000
0100
,
1000
0000
0001
0000
0010
0000
0001
0000
1000
0100
0010
0000
0001
0000
1000
0000
,
0010
0000
1000
0000
0100
0000
1000
0000
0001
0100
0010
0000
1000
0000
0001
0000
,
0010
0000
0100
0000
1000
0000
0010
0000
1000
0001
0010
0000
0100
0000
1000
0000
,
0010
0000
0100
0000
0001
0000
1000
0000
0100
1000
0001
0000
0010
0000
0100
0000
,
0001
0000
0100
0000
1000
0000
0100
0000
0010
0001
1000
0000
0010
0000
0100
0000
,
1000
0000
0100
0000
0010
0000
1000
0000
0001
0010
0001
0000
1000
0000
0010
0000
,
0001
0000
0010
0000
0100
0000
0001
0000
0100
0010
1000
0000
0001
0000
0010
0000
,
1000
0000
0010
0000
0100
0000
1000
0000
0001
0100
0001
0000
1000
0100
0010
0001
,
1000
0000
0100
0000
1000
0000
0010
0000
0100
0001
0100
0000
0001
0000
1000
0000
,
0100
0001
0100
0000
0010
0000
0001
0000
1000
0010
1000
0000
0100
0000
0010
0000
,
0001
0100
0001
0000
1000
0000
0100
0000
0010
0000
0001
0000
1000
0000
0002
0003
,
0200
0300
2000
3000
0002
0003
0020
0030
2000
3000
0001
0000
0010
0100
1000
0000
,
0001
0000
0100
0000
0001
0000
0010
0000
0100
1000
0100
0000
1000
0000
0001
0000
,
0100
1000
0100
0000
0010
0000
1000
0000
0001
0010
0001
0000
1000
0000
0100
0000
,
0010
1000
0010
0000
0001
0000
1000
0000
0010
0000
0100
0000
0001
0000
2000
3000
,
0200
0300
0002
0003
2000
3000
0020
0030
0002
0003
1000
0000
1001
0000
0000
0000
,
0001
0000
1000
0000
0100
0000
0010
0001
0010
0001
0010
0000
0100
0000
0000
0000
,
1000
0000
0010
0000
1000
0000
0001
0100
0001
0100
0001
0000
1000
0000
0000
0000
,
0100
0000
0010
0000
0001
0000
1000
0010
1000
0010
1000
0000
0100
0000
0000
0000
,
0010
0000
0001
0000
1000
0000
0100
1000
0100
1000
0100
0000
0010
0000
0001
1000
,
0001
0000
0100
0000
0010
0000
1000
0001
1000
0001
1000
0000
0100
0000
0000
0000
,
0010
0000
0001
0000
0100
0000
0010
1000
0010
1000
0010
0000
0100
0000
0000
0000
,
0001
0001
0010
0010
0100
0100
1000
1000
,
1100
0001
0101
0000
0220
M00M
0330
0000
,
1000
0000
0000
0000
0000
0000
0000
0000
0000
0000
0000
0000
0000
0000
0000
0000
0000
0000
0000
0000
0000
0000
0000
0000
0010
0000
0000
0000
0000
0000
0000
0000
0000
0000
0000
0000
0000
0000
0000
0000
0000
0000
0000
0000
0000
0000
0000
0000
2010
0000
0000
0000
0000
0000
0000
0000
0000
0000
0000
0000
0000
0000
0000
0000
0000
0000
0000
0000
0000
0000
0000
0000
0000
0000
0000
0000
0000
0000
0000
0000
0000
0000
0000
0000
3001
0000
0000
0000
0000
0000
0000
0000
0000
0000
0000
0000
0100
0000
0000
0000
0000
0000
00M0
0000
0000
0000
0000
0000
0100
0000
0000
0000
0000
0000
0000
0000
0000
0000
0000
0000
1000
0000
0000
0000
0000
0000
0000
0000
0000
0000
0000
0000
0100
0000
0000
0000
0000
0000
0000
0000
0000
0000
0000
0000
0010
0000
0000
0000
0000
0000
0000
0000
0001
0000
0000
0000
0000
0000
0000
0000
0010
0000
0000
0000
0000
0000
0000
0000
0001
0000
0000
0000
0000
0000
0000
0000
0000
0000
0000
0000
0000
0000
0000
0000
0000
0000
0000
0000
0000
0000
0000
0000
,
1001
0000
1000
0000
0001
0010
0100
1000
0001
0100
0010
0000
0001
0000
0010
0000
,
1000
0000
0100
0000
0001
0000
0000
0000
0100
0000
0000
0000
0010
0000
0000
0000
0100
0000
1000
0000
0100
00M0
0100
0000
0001
0000
0000
0000
0100
0000
0000
0000
,
0202
0303
0000
0000
2020
3030
0000
0000
0022
0033
0000
1000
0100
0020
0030
0000
,
1002
0000
0000
0000
0103
00M0
0100
0000
1000
0100
0001
0000
0200
0000
0000
0000
,
0310
0000
0000
0001
0000
0000
1000
0000
0010
0100
0000
1000
0000
0000
0100
0001
0000
0000
2002
0000
0000
3003
0000
0000
,
1100
0001
0100
0101
1000
0010
1010
0001
,
0021
0000
0000
0000
0130
0000
1000
0000
0001
0000
0100
0010
1000
0000
1001
0000
,
0M01
0000
0010
0000
0100
0000
1000
0001
1000
0000
0010
0000
0200
0000
0000
0000
,
0301
0100
0010
1000
0001
0000
0010
0000
0001
0000
0100
0000
0020
0000
0000
0000
,
1030
0000
0000
1000
0001
0000
0000
0001
0010
0000
0000
0010
0100
0000
0000
0100
,
2000
0000
0000
0000
3100
0000
0010
0000
0001
0000
0100
0000
0010
1000
0001
0000
,
0100
00M0
0100
0000
1000
0000
0100
0000
0010
0000
0001
0000
0100
0001
1000
0000
,
0100
00M0
0100
0000
0001
0000
0100
0000
1000
0000
0100
0000
0010
1000
0010
0000
,
0200
0000
0301
1000
0200
0000
0320
0000
,
0032
0000
0000
0000
1003
0000
0010
0000
0100
0001
0100
0010
1000
0000
0000
0000
,
0001
0010
0001
0010
0001
0000
1000
0000
0010
0000
1000
0000
0200
0000
0000
0000
,
0310
0001
1000
0100
0001
0100
2000
0000
,
3001
0000
0000
0001
0100
0000
0000
0100
0010
0000
0000
0010
1000
0000
0000
1000
,
0002
0000
0000
0000
0013
0000
0100
0000
2000
0000
0000
0000
3001
0100
0001
0000
,
1000
0000
0001
0000
0100
00M0
0100
0000
2100
0000
0000
0000
3010
0M00
0010
0000
,
0012
0000
0000
0000
0103
M000
0100
0000
0120
0000
0000
0000
0032
0000
0000
0000
,
2003
0000
3001
0010
0210
0000
1300
0010
,
0210
0000
0000
0000
0000
0000
0000
0000
0301
0100
0001
0100
0010
1000
0000
0000
,
0001
0010
0100
0010
0001
0010
0100
0000
1000
0001
0100
0001
1000
0001
0100
0000
,
0010
1000
0001
1000
0010
1000
0001
0000
0010
0100
1000
0100
0010
0100
1000
0000
,
0001
1000
0010
1000
0001
1000
0010
0100
0002
0000
0000
0000
1003
0100
0010
0001
,
1000
0010
0100
0001
0100
0000
0010
0000
2000
0000
0000
0000
3100
0010
0001
0000
,
0011
0000
1000
0000
0100
00M0
0100
0000
0001
0000
0010
0000
0001
0000
2000
0000
,
0000
0000
3020
0000
0000
0000
0130
0001
0010
0000
0001
0000
2000
0000
0000
0000
,
3010
1000
0100
1000
0001
0000
0010
0100
0001
0000
0100
1000
0100
0000
0010
0001
,
0010
0001
1000
0010
1000
0000
0010
0000
0100
0001
0100
0010
1000
0000
0001
0000
,
0011
0000
1000
0000
0100
00M0
0100
0000
0001
0000
0101
0000
1000
0000
0010
0000
,
1010
0000
0001
0000
0100
00M0
0100
0000
1000
0000
1100
0000
0001
0000
0010
0000
,
0011
0000
1000
0000
0100
0000
1000
0000
0001
0100
0001
0000
0010
0000
0100
0000
,
1000
0000
0010
0000
1000
0000
0001
0000
1000
0100
1000
0000
0010
0000
0100
0000
,
0101
0000
1000
0000
0100
00M0
0100
0000
0001
0000
0101
0000
1000
0000
0010
0000
,
1010
0000
0001
0000
0100
00M0
0100
0000
1000
0000
1100
0000
0001
0000
0010
0000
,
0011
0000
1000
0000
0010
0000
1000
0000
0001
0100
0001
0000
0020
0000
0000
0000
,
0130
0000
1000
0000
0001
0100
0001
0000
0010
0000
0100
0000
1000
0000
1000
0000
,
2001
0000
0000
0000
3001
0000
0010
0000
0100
1000
0100
0000
1000
0000
0001
0000
,
0100
1000
0100
0000
0010
0000
1000
0000
0001
0010
0001
0000
0100
0000
0010
0000
,
1000
0100
1000
0000
0001
0000
0100
0000
0010
0000
1000
0000
0100
0000
1000
0000
,
0001
0010
0001
0000
0100
0000
0010
0000
1000
0000
0001
0000
1000
0000
0010
0000
,
0100
0001
0100
0000
1000
0000
0100
0000
0010
1000
0010
0000
0100
0000
0001
0000
,
0010
0001
0010
0000
0100
0000
0001
0000
0100
1000
0100
0000
0010
0000
0001
0000
,
1001
1000
0010
0100
0001
1000
0200
0000
,
1300
0001
1000
0001
0100
0000
0001
1000
0001
1000
0100
0000
0010
0001
1000
0000
,
2002
0000
0000
0000
,
0000
0000
3003
0110
,
1001
0000
0000
0000
;

//---------------dance-single - ----------------
#NOTES:
     dance-single:
     :
     Hard:
     15:
     0.745473,0.805622,0.328825,0.378864,0.232322,730.000000,684.000000,46.000000,53.000000,4.000000,0.000000,0.745473,0.805622,0.328825,0.378864,0.232322,730.000000,684.000000,46.000000,53.000000,4.000000,0.000000:
0000
0000
0000
0000
,
0000
0000
0000
0000
,
0000
0000
0000
0000
,
0000
0000
0000
0000
,
0000
0000
0000
0000
,
0000
0000
0000
0000
,
0000
0000
0000
0000
,
0000
0000
0000
0000
0000
0000
1000
0000
0000
0001
0100
0001
,
0100
0020
0000
1030
0100
1000
0001
0000
,
0010
0000
0100
1000
0100
0000
0010
0000
0001
0000
1000
0000
0010
0000
0000
0000
,
0100
0001
1000
0001
0100
0001
1000
0000
,
0100
0000
0010
0001
0010
0000
0100
0000
1000
0000
0010
0000
1000
0000
0000
0000
,
0100
0020
0000
0031
0100
0001
1000
0000
,
0010
0000
0100
0001
0100
0000
0010
0000
1000
0000
0001
0000
0010
0000
0000
0000
,
0100
1000
0001
1000
0100
1000
0001
0000
,
0100
0000
0010
1000
0010
0000
0100
0000
0001
0000
0010
0000
0100
0000
0000
0000
,
1000
1000
0010
1000
0001
0010
0100
0100
,
1000
0000
0001
0100
0001
0000
1000
0000
0000
0000
1000
0000
0010
0000
0100
0000
,
0001
0001
0010
0001
1000
0010
0100
0100
,
0001
1000
0000
1000
0100
0010
0001
0001
,
1000
0010
1000
0100
1000
0010
0100
0001
,
0010
0001
0100
0001
0010
0001
0100
0010
,
1000
0001
1000
0001
0010
0100
0010
0100
,
1000
0000
1000
0000
0001
0000
0001
0000
1000
0010
1000
0010
0100
0000
0001
0000
,
1000
0100
0010
0100
1000
0001
0101
0100
,
0010
1000
0100
1000
0001
0100
0101
0001
,
0010
0100
1000
0100
0010
0100
1100
1000
,
0010
1000
0001
0010
0100
1000
1100
0100
,
0010
0001
0100
0001
1000
0001
0101
0100
,
0010
1000
0100
1000
0001
0100
0101
0001
,
0010
0001
1000
0100
1000
0010
1010
1000
,
0001
0000
0010
0000
0100
0000
1000
0000
0001
0100
0001
0000
1000
0100
1000
0100
,
1000
0010
0100
0001
0010
0001
1000
0100
,
0001
1000
0010
0001
0010
0100
1000
0001
,
1001
0000
1000
0000
0010
0000
0100
0000
0001
0000
0010
0000
0001
0000
2000
3000
,
0020
0030
0200
0300
0002
0003
0020
0030
0200
0300
0000
0000
1000
0000
0001
0000
,
1001
1000
0100
1000
0010
1000
0001
0100
,
1000
0001
0010
1000
0010
0100
0001
1000
,
1001
0000
0001
0000
0010
0000
0100
0000
1000
0000
0010
0000
1000
0000
0002
0003
,
0020
0030
0200
0300
2000
3000
0020
0030
0200
0000
0000
0000
0302
0000
0000
0000
,
1003
0000
0100
0000
0010
0000
0100
1000
0100
0000
0010
0000
0001
0000
0000
0000
,
1000
0000
0010
0000
0100
0000
0010
1000
0010
0000
0100
0000
0001
0000
0000
0000
,
0010
0000
0001
0000
0010
0000
0100
1000
0100
0000
0010
0000
0001
0000
0000
0000
,
0100
0000
0001
0000
0100
0000
0010
1000
0010
0000
0100
0000
0001
0000
1000
0000
,
0100
0010
0001
0010
0100
0010
0001
1000
,
0010
0100
0010
1000
0010
0100
0010
1000
,
0001
0001
0010
0010
0100
0100
1000
1000
,
1100
0001
0101
0000
2002
0000
3000
0000
,
0103
00M0
0100
0000
2000
0000
0000
3001
0010
0100
1000
0000
0001
0100
0001
0000
,
0100
00M0
0100
0000
1000
0001
1000
0010
0000
0100
0001
0000
0100
0000
0010
0000
,
1000
0100
1000
0000
0001
0000
0100
0000
0010
1000
0010
1000
0001
0000
0010
0000
,
0110
1100
0101
0110
,
2001
0000
0000
0000
3100
00M0
0100
0000
0001
0100
0010
0000
2000
0000
0000
0000
,
3100
0000
0000
00M0
0000
0000
0100
0000
0000
0000
0000
0000
0001
0000
0000
0000
1000
0000
0100
0000
0000
0000
0010
0000
0000
0000
0000
0000
0100
0000
2000
0000
0000
0000
0000
0000
0002
0000
0000
0000
0000
0000
3003
0000
0000
0000
0000
0000
,
0110
0001
1000
0110
0001
1000
0110
0001
,
2000
0000
0000
0000
3200
0000
0000
0000
0320
0000
0031
1000
0001
0000
0100
0000
,
0010
1000
0100
1000
0001
0100
0020
0000
,
1030
0001
1000
0000
0100
0000
0010
0000
1000
0000
0010
0000
0002
0000
0000
0000
,
1003
0000
0000
1000
0001
0000
0000
0001
0100
0000
0000
0100
0010
0000
0000
0010
,
2000
0000
0000
0000
0000
0000
0000
0000
3100
0000
1000
0000
0001
0100
0001
0000
,
1000
1000
0100
0010
0001
0100
0101
0000
,
0001
0001
1000
0100
0001
0100
1100
0000
,
0201
0000
0310
1000
0200
0000
0320
0030
,
0011
0000
0000
0000
1000
0000
0010
0000
0100
0001
0100
0001
1000
0000
0000
0000
,
0001
0010
0001
0000
0100
0000
0010
0000
1000
0000
0100
0000
2000
0000
0000
0000
,
3001
0100
1000
0001
0010
1000
0002
0000
,
0013
0000
0000
0010
0100
0000
0000
0100
1000
0000
0000
1000
0001
0000
0000
0001
,
0200
0000
0000
0000
0000
0000
0310
0000
2000
0000
0000
0000
3001
0010
0001
0000
,
0100
0010
1000
1000
0200
0000
0310
0010
,
0002
0000
1003
1000
0020
0000
0230
0300
,
0102
0000
1003
0100
2100
0000
3010
0100
,
0102
0000
0000
0000
0000
0000
0000
0000
1003
0001
1000
0000
1001
0000
0000
0000
,
0001
0000
1000
0100
1000
0000
0010
0000
0100
0000
0001
0010
0001
0000
1000
0000
,
0010
0000
0100
0001
0100
0000
0010
0000
1000
0000
0001
0010
0001
0000
0100
0000
,
0010
1000
0010
1000
0010
0000
0100
0000
0002
0000
0000
0000
0013
0001
0010
0001
,
0010
0100
1000
0001
0200
0000
0310
0000
,
1010
0001
0010
0010
0100
2000
0000
3002
,
0000
0000
0203
0000
0000
0000
0310
1000
0010
0000
0100
0000
0002
0000
0000
0000
,
1003
0100
1000
0100
1000
0000
0001
0000
0100
0000
1000
0000
0100
0000
0010
0000
,
1000
0001
1000
0000
0100
0000
0010
0000
0001
1000
0001
0000
0100
0000
0010
0000
,
1010
0001
1000
1000
0100
0010
0001
1000
,
1100
0001
1000
1000
0010
0100
0001
1000
,
1010
0001
0100
0010
0100
0001
0200
0000
,
0310
1000
0010
0100
0010
1000
0002
0003
,
0011
1000
0001
0001
0100
0010
1000
0001
,
0101
1000
0001
0001
0010
0100
1000
0001
,
0011
1000
0100
0010
0100
1000
0200
0000
,
0310
0001
0100
0001
0010
0001
2000
0000
,
3001
0010
0100
1000
0010
1000
0001
0100
,
1000
0001
0010
1000
0010
0100
0001
1000
,
1100
0000
0101
0001
1000
0010
1010
0000
,
0101
0000
1100
1000
0001
0010
0011
0000
,
1000
0100
0001
0100
0010
0001
1000
0010
,
0100
0001
0100
1000
0100
0010
1000
0001
,
0101
0000
1100
1000
0001
0010
0011
0000
,
1000
0000
0001
0100
0001
0000
1000
0000
0001
0100
0001
0000
1000
0100
1000
0000
,
0020
0000
0000
0000
,
0000
0000
0000
0130
,
0110
0000
0000
0000
;

//---------------dance-single - ----------------
#NOTES:
     dance-single:
     :
     Medium:
     13:
     0.603527,0.700540,0.335973,0.414606,0.017871,591.000000,544.000000,47.000000,58.000000,0.000000,0.000000,0.603527,0.700540,0.335973,0.414606,0.017871,591.000000,544.000000,47.000000,58.000000,0.000000,0.000000:
// measure 0
0000
0000
0000
0000
,  // measure 1
0000
0000
0000
0000
,  // measure 2
0000
0000
0000
0000
,  // measure 3
0000
0000
0000
0000
,  // measure 4
0000
0000
0000
0000
,  // measure 5
0000
0000
0000
0000
,  // measure 6
0000
0000
0000
0000
,  // measure 7
0000
0000
0000
0000
,  // measure 8
1000
0010
0000
1000
0100
0010
0001
0000
,  // measure 9
1000
0010
1000
0010
0100
0001
1000
0000
,  // measure 10
0100
0010
0001
0010
0100
0010
0001
0000
,  // measure 11
1000
0010
1000
0010
1000
0100
0010
0000
,  // measure 12
0001
0010
0000
0001
0100
0010
1000
0000
,  // measure 13
0001
0010
0001
0010
0100
1000
0001
0000
,  // measure 14
0100
0010
1000
0010
0100
0010
1000
0000
,  // measure 15
0001
0010
0001
0010
0001
0100
0010
0000
,  // measure 16
1000
0000
0001
0010
0000
0001
0100
0000
,  // measure 17
0010
1000
0000
0001
0010
0100
1000
0000
,  // measure 18
0001
0000
1000
0010
0000
1000
0100
0000
,  // measure 19
0010
0001
0000
1000
0010
0100
0001
0000
,  // measure 20
1000
0100
1000
0100
0010
0001
1000
0000
,  // measure 21
0001
0100
0001
0100
0010
1000
0001
0000
,  // measure 22
0010
0100
1000
0100
0010
0001
1000
0010
,  // measure 23
0100
0001
0100
0001
1000
0100
0001
0100
,  // measure 24
1000
0000
1100
0000
0000
0001
0101
0000
,  // measure 25
1000
0000
1010
0000
0000
0001
0011
0000
,  // measure 26
0001
0000
0101
0000
0000
1000
1100
0000
,  // measure 27
0001
0000
0011
0000
0000
1000
1010
0000
,  // measure 28
0001
0000
0101
0000
1000
0100
1100
0000
,  // measure 29
1000
0000
1010
0000
0001
0010
0011
0000
,  // measure 30
1000
0000
1100
0000
0001
0100
0101
0000
,  // measure 31
0001
0000
0011
0001
0000
1100
1000
0000
,  // measure 32
0201
0000
0310
1000
0001
0100
0001
0100
,  // measure 33
1000
0100
0010
1000
0010
0100
0001
1000
,  // measure 34
0100
0000
1100
0000
0001
0010
0011
0000
,  // measure 35
1000
0100
0001
0100
1000
0000
1001
0000
,  // measure 36
1200
0000
0310
0001
1000
0100
1000
0100
,  // measure 37
0001
0100
0010
0001
0010
0100
1000
0001
,  // measure 38
0100
0000
0101
0000
1000
0010
1010
0000
,  // measure 39
0001
0100
1000
0100
0001
0000
1001
0000
,  // measure 40
1000
0100
1000
0000
0100
1000
0100
0000
,  // measure 41
0010
0001
0010
0000
0001
0010
0001
0000
,  // measure 42
1000
0010
1000
0000
0010
1000
0010
0000
,  // measure 43
0100
0001
0100
0000
0001
0100
0001
0000
,  // measure 44
1000
0100
0010
0000
0100
0010
0001
0000
,  // measure 45
1000
0010
0100
0000
0010
0100
0001
0000
,  // measure 46
1000
0100
1000
0100
0010
0001
0010
0001
,  // measure 47
1001
0110
1001
0000
,  // measure 48
1000
0000
0100
0000
0002
0000
0000
0000
0103
0000
0010
0000
0001
1000
0001
0000
,  // measure 49
0100
0000
1000
0000
0100
0000
0010
1000
0000
0010
1000
0000
0002
0000
0000
0000
,  // measure 50
1003
0100
1000
0000
0010
0000
0100
0000
0001
0010
0001
0000
1000
0000
0010
0000
,  // measure 51
0100
0101
1000
1100
,  // measure 52
0012
0000
1003
0010
0100
0001
0020
0000
,  // measure 53
0130
0001
0100
1000
0100
0010
0001
0000
,  // measure 54
1001
0000
0001
0101
0000
1000
1100
0001
,  // measure 55
0020
0000
0230
0000
2300
0000
3001
0100
,  // measure 56
0010
1000
0010
1000
0001
0010
0100
0000
,  // measure 57
1000
0100
1000
0100
0010
0001
1000
0000
,  // measure 58
0020
0230
2300
3200
,  // measure 59
0302
0000
0000
0000
0000
0000
0013
0100
,  // measure 60
1000
1000
0001
0100
0020
0000
2030
0000
,  // measure 61
3001
0001
0010
0100
0002
0000
0203
0000
,  // measure 62
2300
0000
3020
2030
,  // measure 63
3002
0000
0023
0000
0130
1000
0001
0000
,  // measure 64
1000
0010
0100
0001
0010
0001
2000
0000
,  // measure 65
3001
0010
0100
0001
0100
1000
0200
0000
,  // measure 66
0320
0032
2003
3020
,  // measure 67
0230
0000
0000
0301
2000
0000
3100
0010
,  // measure 68
0001
0100
0001
1000
0200
0000
0310
0001
,  // measure 69
0200
0000
0310
1000
0200
0000
0310
0000
,  // measure 70
0012
0000
2000
3003
,  // measure 71
0220
0000
0330
0000
0001
1000
1001
0000
,  // measure 72
1000
0100
0001
0100
0010
0001
1000
0010
,  // measure 73
0001
0010
0100
1000
0100
0001
1000
0100
,  // measure 74
0001
1000
0010
0001
2000
0000
3001
0100
,  // measure 75
1000
0001
0010
1000
0002
0000
0023
0000
,  // measure 76
0130
0001
0100
1000
0100
0020
0000
0032
,  // measure 77
0000
2003
0000
3010
0100
1000
0200
0000
,  // measure 78
0301
1000
0010
0100
1000
0001
0010
0100
,  // measure 79
0002
0000
0000
0013
2000
0000
3001
0100
,  // measure 80
1000
0100
0010
0010
0001
1000
0010
0100
,  // measure 81
0001
1000
0100
0100
0010
0100
1000
0001
,  // measure 82
0100
0001
0100
0001
1000
0100
0020
0000
,  // measure 83
0031
0010
0001
0010
0100
1000
0002
0000
,  // measure 84
0103
0010
1000
1000
0001
0010
0100
1000
,  // measure 85
0010
1000
0001
0001
0010
0001
0100
0010
,  // measure 86
1000
0001
1000
0001
0010
0100
2000
0000
,  // measure 87
3001
0100
0001
0100
0001
0010
0100
1000
,  // measure 88
1200
0000
0310
0001
1000
0100
1000
0100
,  // measure 89
0001
0100
0010
0001
0010
0100
1000
0001
,  // measure 90
0100
0000
0101
0000
1000
0010
1010
0000
,  // measure 91
0001
0000
0101
1000
0000
0001
1100
0000
,  // measure 92
0201
0000
1300
0100
0020
0000
1030
0001
,  // measure 93
0020
0000
0130
0001
0100
0010
0200
0000
,  // measure 94
1300
0000
1100
0001
0000
1000
0102
0000
,  // measure 95
0013
0100
0010
0100
1000
0001
0100
0000
,  // measure 96
0220
0000
0000
0000
,  // measure 97
0000
0000
0330
1010
,  // measure 98
0101
0000
0000
0000
;
