#VERSION:0.83;
#TITLE:Silver Bullet;
#SUBTITLE:;
#ARTIST:xi;
#TITLETRANSLIT:;
#SUBTITLETRANSLIT:;
#ARTISTTRANSLIT:;
#GENRE:;
#CREDIT:;
#MUSIC:Silver Bullet.ogg;
#BANNER:;
#BACKGROUND:;
#CDTITLE:;
#SAMPLESTART:74.621;
#SAMPLELENGTH:15.000;
#SELECTABLE:YES;
#OFFSET:1.405;
#BPMS:0.000=168.064
,8.000=166.000
,12.000=167.000
,16.000=168.000
,20.000=160.000
,24.000=168.000
,28.000=165.000
,32.000=168.000
,35.000=166.000
,37.000=164.000
,40.000=168.000
,44.000=163.000
,48.000=158.000
,52.000=152.000
,56.000=165.000
,64.000=164.000
,68.000=162.000
,72.000=166.000
,80.000=165.000
,88.000=168.000
,92.000=167.000
,96.000=168.000
,99.000=165.000
,102.000=163.000
,104.000=167.000
,108.000=168.000
,112.000=163.000
,116.000=159.500
,120.000=165.000
,124.000=166.000
,128.000=167.000
,132.000=168.000
,136.000=160.000
,156.000=168.000
,172.000=172.000
,180.000=168.000
,188.000=164.000
,196.000=162.000
,200.000=163.000
,204.000=165.000
,208.000=167.000
,210.000=168.000
,307.000=165.000
,310.000=168.000
;
#STOPS:;
#TIMESIGNATURES:208.000=2=4,
210.000=4=4
;
#BGCHANGES:;
#FGCHANGES:;

//--------------- dance-single - ----------------
#NOTEDATA:;
#STEPSTYPE:dance-single;
#DESCRIPTION:;
#DIFFICULTY:Beginner;
#METER:4;
#RADARVALUES:0,0,0,0,0;
#NOTES:
0000
0000
0000
0000
,
0000
0000
0000
0000
,
0000
0000
0000
0000
,
0000
0000
0000
0000
,
0000
0000
0000
0000
,
0000
0000
0000
0000
,
0100
0000
1000
0000
,
0100
0000
1000
0000
,
0001
0000
0000
0100
,
0000
0000
0000
0000
,
0010
0000
0000
0000
,
0010
0000
0010
0000
,
0010
0000
0100
0000
,
0001
0000
0000
0000
,
1001
0000
0000
0000
,
0100
0000
0010
0000
,
1000
1000
1000
0000
,
0001
0001
0001
0000
,
0100
0000
0010
0000
,
0100
0000
0001
0000
,
1000
0000
0100
0000
,
1000
0000
0010
0000
,
0100
0000
0001
0000
,
0010
0000
0001
0000
,
1000
0000
0100
0000
,
0010
0000
0100
0000
,
1000
0000
0001
0000
,
0100
0000
0020
0000
,
0030
0100
0000
0000
,
0110
0000
0000
0000
,
1001
0000
0000
0110
,
0000
0000
1000
0000
,
0001
0000
1000
0000
,
0001
0001
0001
0000
,
0000
0000
0000
0000
,
0200
0000
0300
0000
,
0020
0000
0030
0000
,
2000
0000
3000
0000
,
0002
0000
0000
0000
,
0003
0000
1000
0000
,
0010
0000
0100
0000
,
0001
0001
0001
0000
,
0010
0010
0010
0000
,
0001
0000
0100
0000
,
0010
0000
1000
0000
,
0100
0000
0100
0000
,
0010
0010
0010
0000
,
0002
0000
0003
0000
,
0200
0000
0300
0000
,
0020
0000
0030
0000
,
1000
1000
0000
0000
,
1000
0000
0010
0000
,
1000
1000
1000
0000
,
0100
0000
0010
0010
,
0010
0000
0001
0000
,
0010
0000
0001
0000
,
1000
0000
0010
0000
,
0100
0000
0001
0001
,
0001
0000
0100
0000
,
0001
0000
1000
0000
,
0001
0001
0001
0000
,
0100
0000
0010
0010
,
0010
0000
1000
0000
,
0010
0000
1000
0000
,
0001
0000
0010
0000
,
0100
0000
1000
1000
,
1000
0000
0100
0000
,
1000
0000
0001
0000
,
1000
0000
0001
0000
,
0100
0100
0010
0000
,
0110
0000
1001
0000
,
0000
0000
1000
1000
,
0100
0000
0110
0000
,
0000
0000
0001
0000
,
0010
0000
0001
0000
,
0100
0000
0010
1000
,
0010
0000
0100
0001
,
0100
0000
2002
0000
,
3003
0000
1000
1000
,
0100
0100
0010
0000
,
0000
0000
0001
0000
,
0100
0010
0020
0000
,
0000
0000
0030
0000
;

//--------------- dance-single - ----------------
#NOTEDATA:;
#STEPSTYPE:dance-single;
#DESCRIPTION:;
#DIFFICULTY:Easy;
#METER:8;
#RADARVALUES:0,0,0,0,0;
#NOTES:
0000
0000
0000
0000
,
0000
0000
0000
0000
,
0000
0000
0000
0000
,
0000
0000
0000
0000
,
0000
0000
0000
0000
,
0000
0000
0000
0000
,
0010
1000
0010
1000
,
0001
0100
0010
0010
,
1000
0000
0100
0100
0000
1000
1000
0000
,
0001
0001
0000
0000
0100
0000
0100
0020
,
0000
1030
1000
0001
,
0001
0010
0100
1000
,
0010
0100
0001
0010
,
0200
0000
0000
0300
,
1001
0000
0100
1000
,
0100
0000
0010
0001
,
0010
0001
1000
0100
,
1000
0100
0001
0100
,
1000
0010
1000
0001
,
0010
0001
0100
0001
,
0010
0110
0001
1001
,
0100
0010
0100
0010
,
1000
0100
0010
0010
,
0001
1000
0010
0100
,
0010
0010
0010
0100
,
0001
0001
1000
1000
,
0100
0200
0000
0000
0310
0000
0010
0000
,
0001
0010
0001
0100
,
0020
0000
0130
0010
,
1000
1000
1001
0000
,
2020
0000
3030
0202
,
0000
0303
0001
0010
,
0022
0000
0000
0033
,
0001
0100
0020
0000
,
2030
0000
3100
1000
,
0020
0000
0130
0001
,
0010
0100
0010
0001
,
0002
0000
0103
0010
,
1000
1000
0100
1000
,
0010
0010
0000
1001
0000
0000
1000
0000
,
0010
0100
0001
0010
,
0100
0000
1000
1000
0000
0001
0001
0000
,
0100
0100
0010
0010
,
1000
0100
1000
0000
0001
0100
0001
0000
,
0010
0100
0010
0100
0010
0000
0010
0000
,
2002
0000
0000
3003
,
1000
0010
0100
0000
0001
0000
0010
0000
,
0200
0000
0000
0000
,
0320
0000
0000
0000
,
0032
0100
2003
0100
,
3000
0010
0010
0000
0100
0000
0100
0000
,
0010
1000
0001
0000
,
1001
0000
1000
0010
1000
0000
0010
0000
,
0100
0000
0100
0000
0001
0000
0001
0010
,
0001
1000
0100
0100
,
1000
0010
0100
0001
,
1001
0000
0000
0000
0010
0000
0000
0010
,
0000
0000
0100
0000
0100
0000
0001
0001
,
0000
1000
1000
0000
0100
0000
1000
0000
,
0010
0000
0100
0000
0001
0010
0001
0000
,
1000
0010
1000
0000
0001
0000
0010
0000
,
0100
0000
0100
0000
1000
0000
1000
0010
,
1000
0001
0100
0100
,
0001
0010
0100
1000
,
1001
0000
0000
0000
0010
0000
0000
0010
,
0000
0000
0100
0000
0100
0000
1000
1000
,
0000
0001
0001
0000
0100
0000
0001
0000
,
0010
0000
0100
0000
1000
0010
1000
0000
,
0001
0010
0001
0000
1000
0010
0100
0000
,
0001
0010
0100
0000
0110
0000
0000
0000
,
1001
0000
1000
0001
,
0100
0001
0011
0000
,
1100
0000
1000
0010
,
0100
0000
0001
0000
1000
0010
1000
0000
,
0001
0000
0100
0000
0001
0010
0001
0000
,
0100
0000
0010
0000
1000
0000
1000
1000
,
0000
0001
0001
0000
0010
0020
0000
0000
,
0000
0030
0000
1001
0000
0000
1000
0000
,
1000
0001
0002
0203
,
0320
0000
2030
0000
3002
0000
0000
0013
,
0010
0000
0100
0000
0010
0001
0000
0001
,
0100
0000
0000
0010
0000
0000
2002
0000
0000
0000
0000
0000
0000
0000
0000
0000
,
0000
0000
3003
0000
;

//--------------- dance-single - ----------------
#NOTEDATA:;
#STEPSTYPE:dance-single;
#DESCRIPTION:;
#DIFFICULTY:Medium;
#METER:14;
#RADARVALUES:0,0,0,0,0;
#NOTES:
0000
0000
0000
0000
,
0000
0000
0000
0000
,
0000
0000
0000
0000
,
0000
0000
0000
0000
,
0000
0000
0000
0000
,
0000
0000
0000
0000
,
2001
0000
3000
0000
0010
0000
0100
0000
0001
0000
0000
0001
0000
0000
0001
0000
,
0000
0100
0010
1000
0010
1000
0100
0010
,
0002
0103
0100
0020
1030
1000
0200
0310
,
0010
0000
0001
0000
0100
0010
0100
0000
0010
0100
0010
0000
1000
0000
0001
0000
,
0000
1000
1000
1000
0100
0100
0010
0010
,
0002
0000
0000
0000
0000
0000
0103
0000
0100
0000
0010
0000
,
0020
2030
3002
0023
,
0200
0000
0000
0000
,
0330
0000
1001
0000
0000
0000
1000
0000
0010
0000
0100
0001
0000
0001
0100
0000
,
0000
0010
1000
0100
1000
0100
1000
0100
,
0020
0000
0000
0032
0000
0000
2003
0000
0000
0000
3010
0000
0100
0000
0001
0000
,
0010
0100
0010
1000
0010
0100
0010
0001
,
0100
0000
0000
0000
0010
0000
1000
0000
0001
0000
0010
0100
0000
0100
0010
0000
,
0000
0000
0001
0000
1000
0010
0000
0100
0000
0000
0010
0000
0010
0000
1000
0000
,
0001
0011
0001
0101
,
0001
0000
0000
0001
0000
0000
1000
0000
0000
1000
0000
0000
0010
0000
0000
0000
0010
0000
0100
0000
0000
0000
0100
0000
,
0010
1000
0010
1000
1010
0000
0101
0000
,
0001
0010
0100
1000
0100
1000
0100
0010
,
0001
0100
1000
0100
0001
0010
0100
1000
,
0010
0001
0010
1000
0100
0001
0100
1000
,
0010
0100
0000
0010
0010
0010
0010
0010
,
0100
0001
0010
0001
0100
0010
1000
0100
,
0010
0100
0010
0000
0001
0000
0000
0000
0011
0000
0000
0000
1100
0000
0000
0000
,
1000
0000
0010
0000
0100
0000
0001
0100
0010
0000
1000
0000
0001
0000
0100
0000
,
0001
0010
0001
0000
0000
0000
0000
0000
0000
1000
0100
1000
,
0000
0000
0000
0000
0000
0000
1010
0000
0110
0000
0101
0000
,
1000
0000
0010
0000
1000
0000
0000
0000
0000
0001
0000
0000
0100
0000
0000
0001
0000
0000
0010
0000
0000
0001
0000
0000
,
0100
0000
0010
0000
0100
0000
0010
0000
0100
0000
0010
0000
0100
0000
0000
0000
0000
0000
0000
0000
0000
0001
0000
0000
,
1000
0000
0000
0100
0000
0000
1000
0000
0000
0000
1000
0000
0010
0000
0000
0000
0100
0000
0001
0000
0000
0000
0010
0000
,
0100
0000
0010
0000
0000
0000
0001
0000
0000
1000
0000
1000
,
0100
0000
1000
0000
0010
0000
0100
0000
0100
0010
0000
0010
,
1000
0000
0001
0000
0100
0000
0101
0000
0001
0010
0001
0010
,
0000
1100
0000
1100
0000
1000
0100
0000
0010
0000
0001
0000
,
1000
0001
0000
0001
0000
0000
1001
0000
0000
0000
1000
0000
0010
0000
0100
0000
,
0001
0000
0100
0000
0010
0000
1000
0001
0000
0000
0010
0000
0010
0000
0001
0000
,
2000
0000
3100
0010
0100
0000
0020
0000
0031
1000
0001
0000
0200
0000
0310
1000
,
0010
0000
1000
0000
0001
0000
0100
0000
0001
0010
0000
0010
0000
0110
0000
0000
,
1000
0010
0001
0010
1000
0001
0100
0001
,
1000
0000
0100
0000
0001
0000
0100
0000
1000
0001
0000
0010
0000
0001
0000
1001
,
0000
1000
0010
1000
0010
0100
0010
1000
,
0100
0000
1000
0100
1000
0000
0001
0010
0001
0000
0100
0000
0010
0000
0000
0000
,
0220
0030
0000
0000
,
0302
0000
0000
0000
,
2003
0000
0000
0000
3100
0000
0100
0000
0010
0000
0010
0000
0001
1000
0001
1000
,
0000
0000
0001
0000
2001
0000
3000
0000
0010
0000
0010
0100
0010
0000
0100
0000
,
0001
0000
0010
0000
0100
0000
1000
0000
1000
0000
0000
1100
0000
0000
1010
0000
,
1001
0000
0000
0000
0001
1000
0001
1000
0001
0000
0000
0101
0000
0000
0110
0000
,
1020
0000
0030
0100
0001
0000
0000
0001
0010
0000
1000
0000
0001
0100
0000
2000
,
0000
3001
0001
0001
0100
0010
0010
0010
,
0100
0001
0000
0001
0000
1001
0000
1000
0100
0000
0000
0100
1000
0000
1000
0000
,
0010
0000
0000
0110
0000
0000
0100
0000
0001
0010
0000
0001
0010
0000
0100
1000
,
0000
0100
1000
0000
0001
0000
0100
0000
0010
0000
0010
0000
1000
0010
1000
0010
,
0000
0000
0100
0000
0100
0000
0001
0000
0010
0000
0001
0010
0001
0000
0200
0000
,
0000
0310
1000
1000
0200
0000
0000
0000
,
0310
0000
0001
0000
1000
0001
1000
0001
1000
0000
0000
1100
0000
0000
0110
0000
,
0021
0000
0030
0100
1000
0000
0000
1000
0010
0000
0001
0000
1000
0100
0000
0002
,
0000
1003
1000
1000
0100
0010
0010
0010
,
0100
1000
0000
1000
0000
1001
0000
0001
0100
0000
0000
0100
0001
0000
0001
0000
,
0010
0000
0000
0110
0000
0000
0100
0000
1000
0010
0000
1000
0010
0000
0100
0001
,
0000
0100
0001
0000
1000
0000
0100
0000
0010
0000
0010
0000
0001
0010
0001
0010
,
0000
0000
0100
0000
0100
0000
1000
0000
0010
0000
1000
0010
1000
0000
0200
0000
,
0000
0000
0310
0001
0010
0000
0001
0000
0200
0000
0000
0000
0000
0000
0000
0000
,
0310
1000
0001
0000
1000
0010
0100
0000
0001
0010
0001
0000
0100
0010
1000
0000
,
0100
1000
0100
0000
0010
0001
0010
0000
1001
0000
0000
0000
1000
0010
0000
1000
,
0010
0000
0000
0110
0000
0000
0101
0000
0000
0000
0001
0000
0100
0000
0010
1000
,
0010
0100
0001
0010
0100
0000
1000
0100
,
1100
0000
0000
0011
0000
0000
1001
0000
0000
0000
1000
0000
0010
0000
0100
0000
,
0010
1000
0000
1000
0010
0000
0100
0000
0001
0000
0010
0000
0100
0000
1000
0000
,
0010
0001
0010
1000
0100
0010
0001
0100
,
1000
0000
0100
0000
0001
0000
0010
0000
0200
0000
1300
0001
1000
0000
0020
0000
,
0130
0001
0100
0000
0002
0000
1003
0010
1000
0000
0100
0000
1000
0000
0100
1000
,
0100
0000
0010
0001
0010
0000
0001
0000
0000
0000
0100
0000
0100
0000
0100
0000
,
0010
0000
0000
0010
0000
0000
1000
0000
0000
1000
0000
0000
0001
0000
0010
0000
0001
0000
0010
0000
0100
0000
0010
0000
,
0100
0000
1000
0000
0100
0000
1000
0000
0010
0000
0100
0000
0002
0000
0000
0000
0000
0000
0000
0000
0000
0103
0000
0000
,
0010
0000
1000
0000
0010
0000
1000
0000
0010
0000
0100
0000
0001
0000
0000
0010
0000
0000
0000
0000
0000
0001
0000
0000
,
0101
0000
0000
1010
0000
0000
2002
0000
0000
0000
0000
0000
0000
0000
0000
0000
,
0000
0000
3003
0000
;

//--------------- dance-single - ----------------
#NOTEDATA:;
#STEPSTYPE:dance-single;
#DESCRIPTION:;
#DIFFICULTY:Hard;
#METER:17;
#RADARVALUES:0,0,0,0,0;
#NOTES:
0000
0000
0000
0000
,
0000
0000
0000
0000
,
0000
0000
0000
0000
,
0000
0000
0000
0000
,
0000
0000
0000
0000
,
0000
0000
0000
0000
,
1002
0000
0003
0000
0010
0000
0001
0100
0010
0000
0000
0010
0000
0000
0100
0000
,
0000
0000
0010
0000
1000
0000
0100
1000
0100
0000
0010
0001
0010
0000
0001
0000
,
1001
0000
1000
0010
0100
0001
0100
0000
0001
0010
0100
1000
0100
0000
1000
0100
,
0010
0001
1000
0000
0001
0010
0100
1000
0100
0010
0001
0100
0010
0000
0120
0000
,
0030
1000
1000
0100
0010
0010
0001
0001
,
0012
0000
0000
0000
0000
0000
1003
0000
1000
0000
0010
0000
,
0200
0320
2030
3200
,
0020
0000
0000
0000
,
0330
0000
1001
0000
0001
0100
0010
1000
0001
1000
0001
0010
0000
0100
1000
0100
,
0000
0000
1000
0010
0100
0000
0001
0000
1000
0100
1000
0100
1000
0100
1000
0010
,
0200
0000
0000
0302
0000
0000
2003
0000
0000
0000
3001
0000
0010
0000
0100
0000
,
0010
0001
0010
0001
0010
0001
0100
0010
1000
0010
1000
0010
0100
0001
0100
0010
,
1000
0000
0000
0000
0001
0000
0100
0000
0010
0000
0100
0010
0000
0100
0010
1000
,
0000
0000
0001
0000
0010
0100
0000
0110
0000
0000
0010
0000
0001
0000
1000
0000
,
0100
1100
1000
1010
,
0010
0000
0000
0000
0000
0000
0010
0000
0000
0100
0000
0000
0001
0000
0000
0000
0000
0000
0001
0000
0000
0010
0000
0000
0100
0000
0000
0000
1000
0000
0000
0000
0100
0000
0000
0000
1000
0000
0000
0000
0010
0000
0000
0000
0100
0000
0000
0000
,
0002
0000
0103
0010
2000
0000
3100
0010
0200
0000
0000
0000
0320
0000
0000
0000
,
0031
0000
0001
0010
0001
0000
0001
0010
0001
0000
0100
0000
0100
0000
0010
0000
,
1000
0100
1000
0100
1000
0100
1000
0010
0100
0000
0100
0000
0010
0000
0010
0000
,
1000
0010
0100
0010
1000
0000
0001
0000
0010
0100
0010
0001
0010
0000
0001
0000
,
1000
0000
1100
0000
0000
0000
0100
1000
0010
0100
0010
0100
0010
0100
0010
0100
,
0002
0000
0013
0100
2000
0000
3010
0100
0002
0000
1003
0010
0200
0000
0302
0000
,
2003
0000
3100
0010
0110
0001
0110
0001
,
0100
0000
0010
0000
1000
0000
0001
0000
0010
0001
0010
0001
0100
0010
1000
0010
,
1000
0100
1000
0100
0010
0001
1000
0000
0000
0001
0010
0001
,
0010
0100
1000
0001
0000
0000
0101
0000
0110
0000
1010
0000
,
1000
0000
0000
0000
0010
0000
0000
0000
0100
0000
0000
0000
0010
0000
0000
1000
0000
0000
0010
0000
0000
1000
0000
0000
0020
0000
0000
0000
0000
0000
0230
0000
0000
0000
0000
0000
0301
0000
0000
0000
0001
0000
0000
0000
1000
0000
0000
0000
,
1000
0000
0010
0000
0100
0000
0001
0000
0010
0000
0100
0000
2000
0000
0000
0000
0000
0000
0000
0000
0000
3001
0000
0000
,
0010
0000
0000
0001
0000
0000
0100
0000
0000
0000
0100
0000
0100
0000
0001
0000
1000
0000
0010
0000
0100
0000
0001
0000
,
0010
0000
0011
0000
0000
0000
0001
0010
0100
1000
0001
0010
,
0100
0000
0000
0000
1100
0000
0000
0000
1000
0000
0010
0000
0100
0000
0000
0010
0000
0000
0100
0000
0100
0000
0010
0000
,
2000
0000
0000
0000
0000
0000
0000
0000
0000
0000
0000
0000
0000
0000
0000
0000
0000
0000
3001
0000
0000
0010
0000
0000
0001
0000
0000
0000
0000
0000
0000
0000
0100
0000
0000
0000
0010
0000
0000
0000
1000
0000
0000
0000
0001
0000
0000
0000
,
0010
0100
1000
0100
0010
0001
1000
0000
1100
0000
1010
0000
,
1000
0001
0000
0001
0000
0000
1001
0000
0000
0000
1000
0000
0010
0000
0100
0000
,
0001
0100
0010
0000
1000
0100
0010
0000
0001
1000
0100
0000
0010
0000
0001
0000
,
0100
0000
0001
0010
0001
0010
0001
0000
1000
0100
1000
0100
1000
0000
0001
0100
,
0010
1000
0001
0000
1000
0100
0010
0001
1000
0100
0000
1100
0000
1100
0000
0000
,
1001
0000
0001
0000
0100
0010
1000
0010
0100
0000
0100
0000
0001
0000
0000
0000
,
1001
0000
0001
0000
1000
0100
0010
0100
1000
0001
0000
0001
0000
1000
0000
1001
,
0000
0000
0001
0100
0001
0100
0001
0100
0010
0100
0010
0100
0010
1000
0010
1000
,
0001
0010
0100
1000
0002
0000
2003
0000
,
3020
0000
0000
0000
,
0230
0000
0000
0000
,
0302
0000
0000
0000
0013
0000
0100
0000
1000
0000
0100
0010
0001
0010
0001
0000
,
0000
0000
0100
0010
1000
0000
0000
0000
1010
0000
0010
0000
0110
0000
0100
0000
,
0002
0000
1003
0100
2000
0000
3001
0010
0001
0000
0000
0011
0000
0000
0101
0000
,
1001
0000
0000
0000
1000
0010
0100
0001
1000
0000
0000
1100
0000
0000
0011
0000
,
0101
0000
0010
1000
0100
0000
0100
1000
0010
0000
0100
0000
0100
0001
0000
1001
,
0000
0000
1000
0000
0100
0000
0010
0000
0001
0000
1000
0100
1000
0100
1000
0010
,
1000
0010
0000
0100
0000
0101
0000
0001
1000
0000
0100
1000
0001
0000
0010
0001
,
0100
0000
0000
0100
0000
0000
0010
0000
1000
0010
0000
0010
1000
0000
1000
0100
,
0000
0100
1000
0000
1000
0010
0100
0001
0010
0000
0001
0000
0001
0100
0010
1000
,
0000
0000
0010
0100
0010
0000
0100
0010
0100
0001
0100
0001
0010
0001
0010
0000
,
0000
0000
0100
1000
0010
0000
1000
0100
0010
0001
0010
0001
0010
0001
0010
0001
,
0100
0010
1000
0010
1000
0100
0010
0001
1000
0000
0000
0101
0000
0000
1010
0000
,
1100
0000
0010
0001
0100
0000
0100
0001
0010
0000
0100
0000
0100
1000
0000
1001
,
0000
0000
0001
0000
0100
0000
0010
0000
1000
0000
0001
0100
0001
0100
0001
0010
,
0001
0010
0000
0100
0000
1100
0000
1000
0001
0000
0100
0001
1000
0000
0010
1000
,
0100
0000
0000
0100
0000
0000
0010
0000
0001
0010
0000
0010
0001
0000
0001
0100
,
0000
0100
0001
0000
0001
0010
0100
1000
0010
0000
1000
0000
1000
0100
0010
0001
,
0000
0000
0010
0100
0010
0000
0100
0010
0100
1000
0100
1000
0010
1000
0010
0000
,
0000
0000
0100
0001
0010
0000
0001
0100
0010
1000
0010
1000
0010
0100
0010
0100
,
0010
0100
0001
0100
0001
0010
0001
0010
0100
1000
0100
0010
0001
1000
0010
0100
,
0001
0010
0001
0100
0001
0100
0010
1000
0100
0000
1000
0010
0100
0001
0100
0010
,
0100
0000
0000
0110
0000
0000
1001
0000
0000
0000
1000
0000
0010
0000
1000
0000
,
0010
0000
0100
0010
0000
0010
1000
0000
1001
0000
0000
0000
0001
0100
0010
1000
,
0100
1000
0000
1100
0000
0000
0011
0000
0000
0000
0001
0010
0001
0010
0001
0010
,
0001
0100
0000
0100
0010
0000
0010
0000
1000
0000
0100
0000
1000
0100
0010
0100
,
1000
0100
1000
0100
1000
0010
0100
0000
0000
0000
0001
0100
0010
0100
0001
0010
,
0100
0000
0110
0000
0000
0010
0001
0000
0011
0000
0001
0100
0010
1000
0010
0000
,
1000
0100
0010
0001
0010
0000
0001
0010
0100
1000
0001
0000
0200
0000
0000
0000
,
0020
0000
0330
1001
0000
0001
0001
0100
,
0010
0000
0000
0010
0000
0000
1000
0000
0000
1000
0000
0000
0010
0000
0100
0000
0001
0000
0001
0000
0010
0000
0100
0000
,
1000
1000
0100
0010
0001
0100
0010
0000
0000
1000
0010
1000
,
0010
0000
0000
0000
0100
0000
0000
0000
0001
0000
0000
0000
0100
0000
0000
0000
0001
0000
0000
0000
0010
0000
0000
0000
0100
0000
0000
0000
0000
0000
1100
0000
0000
0000
0000
0000
0000
0000
0000
0000
0000
0000
1000
0000
0000
0001
0000
0000
,
0100
0010
0000
0110
0000
0000
2002
0000
0000
0000
0000
0000
0000
0000
0000
0000
,
0000
0000
3003
0000
;
