#VERSION:0.83;
#TITLE:終末を追う者;
#SUBTITLE:;
#ARTIST:S-C-U×PON;
#TITLETRANSLIT:Shuumatsu wo ou mono;
#SUBTITLETRANSLIT:;
#ARTISTTRANSLIT:;
#GENRE:JUDGMENT;
#CREDIT:;
#MUSIC:Shuumatsu wo ou mono.ogg;
#BANNER:Shuumatsu wo ou mono.png;
#BACKGROUND:Shuumatsu wo ou mono-bg.png;
#CDTITLE:;
#SAMPLESTART:54.486;
#SAMPLELENGTH:15.000;
#SELECTABLE:YES;
#OFFSET:0.000;
#BPMS:0.000=185.000;
#STOPS:;
#TIMESIGNATURES:0.000=4=4;
#BGCHANGES:;
#FGCHANGES:;

//--------------- dance-single - Extraordiberry ----------------
#NOTEDATA:;
#STEPSTYPE:dance-single;
#DESCRIPTION:Extraordiberry;
#DIFFICULTY:Beginner;
#METER:3;
#RADARVALUES:0,0,0,0,0;
#CREDIT:Extraordiberry;
#NOTES:
0000
0000
0000
0000
,
0000
0000
0000
0000
,
0000
0000
0000
0000
,
0000
0000
0000
0000
,
0000
0000
0000
0000
,
0000
0000
0000
0000
,
0000
0000
0000
0000
,
0000
0000
0000
0000
,
0000
0000
0000
0000
,
1000
0000
0000
0000
,
0000
0000
0000
0000
,
0001
0000
0000
0000
,
0000
0000
0000
0000
,
0010
0000
0000
0000
,
0100
0000
0000
0000
,
1000
0000
0000
0000
,
1001
0000
0000
0000
,
0001
0001
0000
0000
,
1000
1000
0000
0000
,
0001
0001
0000
0000
,
1000
0000
0000
0000
,
0001
0001
0000
0000
,
1000
1000
0000
0000
,
0001
0001
0000
0000
,
1000
0000
0000
0000
,
0000
0000
0000
0000
,
0001
0000
0000
0000
,
0000
0000
0000
0000
,
1000
0000
0000
0000
,
0000
0000
0000
0000
,
0100
0000
0000
0000
,
0010
0000
0000
0000
,
0100
0000
0000
0000
,
1000
0000
0000
0000
,
0001
0000
0000
0000
,
0100
0000
0000
0000
,
0001
0000
0000
0000
,
0010
0000
0000
0000
,
0001
0000
0000
0000
,
1000
0000
0000
0000
,
0001
0000
0001
0000
,
1000
0000
1000
0000
,
0001
0000
0000
0100
,
0000
0000
0010
0000
,
1000
0000
0000
0000
,
0000
0000
0000
0000
,
1000
0000
0000
0100
,
0000
0000
0010
0000
,
0001
0000
0000
0000
,
0000
0000
0000
0000
,
0001
0000
0000
0100
,
0000
0000
0010
0010
,
0010
0000
0000
0000
,
0000
0000
0000
0000
,
1000
0000
0000
0100
,
0000
0000
0010
0000
,
0001
0000
0000
0000
,
1000
0000
0000
0000
,
0001
0001
0000
1000
,
1000
0000
0000
0001
,
0001
0000
1000
1000
,
0000
0000
0001
0001
,
0000
1000
1000
0000
,
0000
0001
0001
0000
,
1000
1000
0000
0000
,
0001
0000
0000
0000
,
0000
0000
0000
0000
,
1000
0000
0000
0000
,
0000
0000
0000
0000
,
0010
0000
0000
0000
,
0000
0000
0000
0000
,
0100
0000
0000
0000
,
0100
0000
0000
0000
,
0001
0001
0000
0000
,
1000
1000
0000
0000
,
0001
0001
0000
0000
,
1000
0000
0000
0000
,
0001
0001
0000
0000
,
1000
1000
0000
0000
,
0001
0001
0000
0000
,
1000
0000
0000
0000
,
0000
1001
0000
0000
;

//--------------- dance-single - Extraordiberry ----------------
#NOTEDATA:;
#STEPSTYPE:dance-single;
#DESCRIPTION:Extraordiberry;
#DIFFICULTY:Easy;
#METER:7;
#RADARVALUES:0,0,0,0,0;
#CREDIT:Extraordiberry;
#NOTES:
0000
0000
0000
0000
,
0000
0000
0000
0000
,
0000
0000
0000
0000
,
0000
0000
0000
0000
,
0000
0000
0000
0000
,
0000
0000
0000
0000
,
0000
0000
0000
0000
,
0000
0000
0000
0000
,
0000
0000
0000
0000
,
1000
0000
0100
0000
,
0010
0000
0100
0000
,
2000
0000
0000
0000
,
0000
0000
3000
0000
,
0001
0000
0100
0000
,
0010
0000
0100
0000
,
0001
0001
1000
1000
,
2002
0000
0000
3003
,
1001
0001
0000
0000
,
1001
1000
0000
0000
,
1001
0001
0000
0000
,
1000
0100
0010
0000
,
0110
0100
0000
0000
,
0110
0010
0000
0000
,
0110
0100
0000
0000
,
0001
0100
0010
1000
,
0000
0000
0000
0000
,
0001
0010
0000
0001
,
0010
0001
1000
0000
,
1000
0010
0000
1000
,
0010
1000
0001
0000
,
1000
0010
0000
1000
,
0010
1000
0100
0010
,
0001
0100
0000
0001
,
0100
0001
0010
0100
,
2000
0000
3002
0000
,
0203
0000
0000
0300
,
0002
0000
2003
0000
,
3200
0000
0000
0300
,
1000
0001
0010
0000
,
0001
1000
0010
0000
,
1000
0001
0010
0100
,
1000
1000
0001
0001
,
1000
0010
0100
0002
,
0000
1003
0100
1000
,
0001
0002
0000
1003
,
0000
0001
0000
1000
,
0001
0010
0100
2000
,
0000
3001
0100
0001
,
1000
2000
0000
3001
,
0000
1000
0000
0001
,
1000
0010
0100
0002
,
0000
1003
0100
1000
,
0020
1030
0000
0010
,
0000
0010
0000
1000
,
0001
0010
0100
2000
,
0000
3001
0100
0001
,
1000
0100
0010
0000
,
0001
0001
0000
0000
,
1000
0010
1000
0001
,
0010
0001
1000
0001
,
0100
0001
1000
0100
,
1000
0001
1000
0010
,
1000
0001
0010
0001
,
1000
0001
0100
0001
,
1000
0100
1000
0001
,
1000
0010
0000
1000
,
0010
0000
1000
1000
,
0001
0010
0000
0001
,
0010
0000
0001
0001
,
1000
0010
0000
1000
,
0010
1000
0001
0001
,
1000
0100
0010
0001
,
1000
1000
1001
0000
,
1001
0001
0000
0000
,
1001
1000
0000
0000
,
1001
0001
0000
0000
,
1000
0010
0100
0000
,
0110
0010
0000
0000
,
0110
0100
0000
0000
,
0110
0010
0000
0000
,
1000
0100
0010
0001
,
0000
2002
0000
0000
,
0000
0000
0000
0000
,
3003
0000
0000
0000
;

//--------------- dance-single - Extraordiberry ----------------
#NOTEDATA:;
#STEPSTYPE:dance-single;
#DESCRIPTION:Extraordiberry;
#DIFFICULTY:Medium;
#METER:13;
#RADARVALUES:0,0,0,0,0;
#CREDIT:Extraordiberry;
#NOTES:
0000
0000
0000
0000
,
0000
0000
0000
0000
,
0000
0000
0000
0000
,
0000
0000
0000
0000
,
0000
0000
0000
0000
,
0000
0000
0000
0000
,
0000
0000
0000
0000
,
0000
0000
0000
0000
,
0000
0000
0000
0000
0000
0000
0000
1000
,
0010
1000
0100
0020
0000
0031
2000
0000
,
0000
0000
3001
0000
0100
0000
0001
0000
2000
0000
0000
3200
0000
0000
2300
0000
,
3002
0000
0000
2000
0000
0000
0000
0000
,
0000
0000
0000
0000
3003
0000
0000
0001
,
0010
0001
0100
0020
0000
1030
0002
0000
,
0000
0000
1003
0000
0100
0000
1000
0000
0002
0000
0000
0203
0000
0000
0302
0000
,
1003
0100
0010
0100
1000
0010
0100
0010
,
1000
1000
0001
0001
2002
0000
0000
3003
,
1001
0000
0000
0001
0000
0001
0010
0000
0000
0000
0100
0000
1000
0000
0001
0000
,
1001
0000
0000
1000
0000
1000
0010
0000
0000
0000
0100
0000
0001
0000
1000
0000
,
1001
0000
0000
0001
0000
0001
0010
0000
0000
0000
0100
0000
1000
0000
0001
0000
,
0100
0100
0010
0010
1000
0100
0010
0001
,
1001
0000
0000
0001
0000
0001
0100
0000
0000
0000
0010
0000
1000
0000
0001
0000
,
1001
0000
0000
1000
0000
1000
0100
0000
0000
0000
0010
0000
0001
0000
1000
0000
,
1001
0000
0000
0001
0000
0001
0100
0000
0000
0000
0010
0000
1000
0000
0001
0000
,
0010
0000
0010
0000
0100
0000
0100
0000
1000
0000
0001
0000
0100
0010
0100
0000
,
0000
0000
0000
0000
,
0001
0100
1000
0100
0000
0001
0100
1000
,
0100
0001
1000
0000
0100
0010
0001
0000
,
1000
0100
0001
0100
0000
1000
0100
0001
,
0100
1000
0001
0000
1000
0010
0100
0000
,
0001
0100
1000
0100
0001
1000
0001
0100
,
1000
0100
0001
1000
0100
0010
0001
0000
,
1000
0100
0001
0100
1000
0001
1000
0100
,
0001
0100
1000
0001
1000
0010
0100
0000
,
0001
0010
0001
0200
0000
0301
1000
0200
,
0000
0010
1300
0001
,
1000
0010
1000
0200
0000
1300
0001
0200
,
0000
0010
0301
1000
,
0001
0000
0010
0000
0100
0000
0000
0010
0000
0000
0001
0000
1000
0000
0010
0000
,
1000
0000
0000
0001
0000
0000
0010
0000
0100
0000
1000
0000
0001
0000
0100
0000
,
0001
0000
1000
0010
0000
1000
0010
0000
1000
0000
0001
0000
0010
0000
0001
0000
,
1000
0000
0001
0100
0000
0010
0100
0000
0001
0000
0010
0000
0001
0000
1000
0000
,
0010
0100
0001
2000
0000
3001
0020
0000
,
0000
0000
0031
0000
0100
0000
0001
0000
1000
0000
0100
1000
0000
0100
0010
0000
,
0001
1000
0001
0200
0000
0301
0002
0000
,
1003
2000
0000
3010
0020
0000
1030
0001
,
0010
0100
1000
0002
0000
1003
0020
0000
,
0000
0000
1030
0000
0100
0000
1000
0000
0001
0000
0100
0001
0000
0100
0010
0000
,
1000
0100
1000
0020
0000
1030
2000
0000
,
3100
0200
0000
0310
0020
0000
0031
1000
,
0010
1000
0100
0002
0000
0103
2000
0000
,
0000
3001
0100
0001
0010
2000
0000
3010
,
0002
0000
0103
0200
0000
0310
0020
0000
,
1030
2000
0000
3100
0200
0000
0310
0001
,
0100
0010
1000
0002
0000
1003
0200
0000
,
0000
0000
0310
0000
0001
0000
1000
0000
0010
0000
0100
0010
0000
1000
0010
0000
,
1000
0000
0001
0000
0010
0000
0100
0000
0010
0000
0001
0000
1000
0000
0001
1000
,
0001
0100
0010
2000
0000
0000
0000
0000
,
3001
0100
1000
0100
0010
0100
0001
0100
,
1000
0100
0010
0100
0001
0001
1000
0100
,
0001
0100
0010
0100
1000
0100
0001
0100
,
0010
0100
1000
1000
0001
0100
1000
0100
,
0010
0100
0001
0100
1000
0100
0010
0100
,
0001
0001
1000
0100
0001
0100
0010
0100
,
1000
0100
0001
0100
0010
0100
1000
1000
,
0001
0100
1000
0100
0000
0000
0001
0100
,
1000
0100
0000
0000
0001
1000
0001
0000
,
1000
0100
0001
0100
0000
0000
1000
0100
,
0001
0100
0000
0000
1000
0001
1000
0000
,
0001
0100
1000
0100
0001
0000
0001
0100
,
1000
0100
0001
0000
1000
1000
0001
0000
,
1000
0100
0010
0100
1000
0010
0100
0010
,
1000
1000
0001
0001
2002
0000
0000
3003
,
1001
0000
0000
1000
0000
1000
0100
0000
0000
0000
0010
0000
0001
0000
1000
0000
,
1001
0000
0000
0001
0000
0001
0100
0000
0000
0000
0010
0000
1000
0000
0001
0000
,
1001
0000
0000
1000
0000
1000
0100
0000
0000
0000
0010
0000
0001
0000
1000
0000
,
0001
0100
1000
0100
0001
0010
0100
1000
,
1001
0000
0000
1000
0000
1000
0010
0000
0000
0000
0100
0000
0001
0000
1000
0000
,
1001
0000
0000
0001
0000
0001
0010
0000
0000
0000
0100
0000
1000
0000
0001
0000
,
1001
0000
0000
1000
0000
1000
0010
0000
0000
0000
0100
0000
0001
0000
1000
0000
,
0001
0000
0010
0000
1000
0000
0010
0000
0001
1000
0001
0000
1000
0001
1000
0000
,
0000
2002
0000
0000
,
0000
0000
0000
0000
,
3003
0000
0000
0000
;

//--------------- dance-single - Extraordiberry ----------------
#NOTEDATA:;
#STEPSTYPE:dance-single;
#DESCRIPTION:Extraordiberry;
#DIFFICULTY:Hard;
#METER:16;
#RADARVALUES:0,0,0,0,0;
#CREDIT:Extraordiberry;
#NOTES:
0000
0000
0000
0000
,
0000
0000
0000
0000
,
0000
0000
0000
0000
,
0000
0000
0000
0000
,
0000
0000
0000
0000
,
0000
0000
0000
0000
,
0000
0000
0000
0000
,
0000
0000
0000
0000
,
0000
0000
0000
0000
0000
0000
0000
0000
0000
0000
0000
0000
0000
0000
0001
0100
,
0010
1000
0100
0002
0000
0103
2000
0000
,
0000
0000
3010
0100
0001
0000
1000
0000
0200
0000
0000
2300
0000
0000
3020
0000
,
2030
0000
0000
0002
0000
0000
0000
0000
,
0000
0000
0000
0000
0000
0000
0000
0000
3003
0000
0000
0000
0000
0000
1000
0100
,
0010
0001
0100
2000
0000
3100
0002
0000
,
0000
0000
0013
0100
1000
0000
0001
0000
0200
0000
0000
0302
0000
0000
0013
0000
,
0100
0010
0100
0000
1000
0000
0001
0000
1000
0001
1000
0000
0001
0000
0100
0000
,
0010
0100
0010
0100
0001
1000
0001
1000
0200
0000
0000
0000
0000
0000
0300
0000
,
1001
0000
0000
1010
0000
0000
0110
0000
0000
0000
0100
0000
0001
1000
0001
0000
,
1001
0000
0000
0011
0000
0000
0110
0000
0000
0000
0100
0000
1000
0001
1000
0000
,
1001
0000
0000
1010
0000
0000
0110
0000
0000
0000
0100
0000
0001
1000
0001
0000
,
1000
0000
0100
0000
0001
0000
0100
0000
1000
0001
1000
0010
0100
0001
1000
0000
,
1001
0000
0000
0011
0000
0000
0110
0000
0000
0000
0100
0000
1000
0001
1000
0000
,
1001
0000
0000
1010
0000
0000
0110
0000
0000
0000
0100
0000
0001
1000
0001
0000
,
1001
0000
0000
0011
0000
0000
0110
0000
0000
0000
0100
0000
1000
0001
1000
0000
,
0001
0000
0100
0000
1000
0000
0100
0000
0001
1000
0001
0010
0100
1000
0010
0100
,
0000
0000
0000
0000
,
0001
0010
0001
0100
0000
0001
0010
0001
,
0100
0010
1000
0000
0010
0100
0001
0000
,
1000
0100
1000
0010
0000
1000
0100
1000
,
0010
0100
0001
0000
1000
0010
0100
0000
,
0001
0010
0100
0000
1000
0000
0010
0000
0000
0000
1000
0100
0010
0000
0001
0000
,
0100
0010
1000
0100
0010
0001
0100
0010
,
1000
0100
0010
0000
0001
0000
0100
0000
0000
0000
0001
0010
0100
0000
1000
0000
,
0010
0100
0001
0010
0001
0100
0010
1000
,
0001
0000
0010
0100
1000
0000
0002
0000
0000
0000
0103
0000
0001
0000
2000
0000
,
0100
0000
0000
0000
0001
0000
0000
0000
3010
0000
0000
0000
1000
0000
0010
0100
,
0001
0100
0010
2000
0000
3100
1000
0002
,
0100
0000
0000
0000
1000
0000
0000
0000
0013
0000
0000
0000
0001
0000
1000
0100
,
0010
0000
0100
0000
1000
0000
0001
0100
0000
0000
0010
0000
1000
0000
0001
0010
,
0100
0000
1000
0001
0000
0000
0100
0000
0010
0000
1000
0000
0100
0000
0010
0001
,
1000
0000
0010
0100
0000
0001
1000
0000
0100
0000
0010
0000
0001
0000
0100
0010
,
1000
0000
0001
0010
0000
0001
0100
0000
0010
1000
0010
1000
0001
0010
0100
0000
,
0010
0001
0100
2000
0000
3100
0002
0000
,
0000
0000
0013
0100
1000
0000
0001
0000
0100
0000
0001
1000
0000
0100
0010
0000
,
0001
0100
0001
2000
0000
3002
0023
0032
,
2003
0000
3020
0000
2030
0000
3002
0000
0023
0000
0032
0000
1003
0000
0001
0100
,
0010
1000
0100
0002
0000
0103
2000
0000
,
0000
0000
3010
0100
0001
0000
1000
0000
0100
0000
1000
0001
0000
0100
0010
0000
,
1000
0100
1000
0020
0000
0230
0302
2003
,
3200
0000
2300
0000
3002
0000
0203
0000
0302
0000
2003
0000
3100
0000
1000
0100
,
0010
0001
0100
2000
0000
3100
0002
0000
,
0000
0000
0013
0001
0100
0000
0001
0000
0010
0000
2000
0000
0000
0000
3010
0000
,
0002
0000
2003
3020
0230
0320
2030
3200
,
2300
0000
3020
0000
0230
0000
0320
0000
2030
0000
3200
0000
0310
0000
0001
0010
,
0100
1000
0010
0002
0000
0013
2000
0000
,
0000
0000
3100
0010
0001
0000
1000
0000
0010
0000
1000
0001
0000
0010
0100
0000
,
1000
0100
1000
0000
0010
0000
0100
0000
0001
0010
0001
0000
0100
0000
0010
1000
,
0002
0023
0230
2300
0000
0000
0000
0000
,
3100
0010
0001
0000
1000
0000
0010
0100
0000
0001
1000
0000
0100
0010
0001
0000
,
1000
0000
0010
0100
0000
0001
1000
0000
0001
1000
0100
0000
0010
0100
1000
0000
,
0001
0000
0100
0010
0000
1000
0001
0000
0010
0100
1000
0000
0001
0000
0100
0010
,
0000
1000
0001
0000
1000
0001
0010
0000
0100
0010
0001
0000
1000
0000
0010
0100
,
0000
0001
1000
0000
0100
0010
0001
0000
1000
0000
0010
0100
0000
0001
1000
0000
,
0001
1000
0100
0000
0010
0100
1000
0000
0001
0000
0100
0010
0000
1000
0001
0000
,
0010
0100
1000
0000
0001
0000
0100
0010
0000
1000
0001
0000
1000
0001
0010
0000
,
0001
0100
0001
0010
0100
1000
0001
0100
,
0001
0010
0100
1000
0001
0100
0010
0000
,
1000
0100
1000
0010
0100
0001
1000
0100
,
1000
0010
0100
0001
1000
0100
0010
0000
,
0100
0001
0100
1000
0010
1000
0100
0001
,
0100
1000
0010
0100
0001
1000
0100
0000
,
2000
3020
2030
3002
0023
0032
2003
3020
,
1030
0000
1000
0000
0001
0000
0001
0000
1000
0100
1000
0100
0010
0001
1000
0000
,
1001
0000
0000
0101
0000
0000
0110
0000
0000
0000
0010
0000
1000
0001
1000
0000
,
1001
0000
0000
1100
0000
0000
0110
0000
0000
0000
0010
0000
0001
1000
0001
0000
,
1001
0000
0000
0101
0000
0000
0110
0000
0000
0000
0010
0000
1000
0001
1000
0000
,
0001
0000
0010
0000
1000
0000
0010
0000
0001
1000
0001
0100
0010
1000
0001
0000
,
1001
0000
0000
1100
0000
0000
0110
0000
0000
0000
0010
0000
0001
1000
0001
0000
,
1001
0000
0000
0101
0000
0000
0110
0000
0000
0000
0010
0000
1000
0001
1000
0000
,
1001
0000
0000
1100
0000
0000
0110
0000
0000
0000
0010
0000
0001
1000
0001
0000
,
1000
0000
0010
0000
0001
0000
0010
0000
1000
0001
1000
0100
0010
0001
0100
0010
,
0000
2002
0000
0000
,
0000
0000
0000
0000
,
3003
0000
0000
0000
;

//--------------- dance-double - Extraordiberry ----------------
#NOTEDATA:;
#STEPSTYPE:dance-double;
#DESCRIPTION:Extraordiberry;
#DIFFICULTY:Easy;
#METER:7;
#RADARVALUES:0,0,0,0,0;
#CREDIT:Extraordiberry;
#NOTES:
00000000
00000000
00000000
00000000
,
00000000
00000000
00000000
00000000
,
00000000
00000000
00000000
00000000
,
00000000
00000000
00000000
00000000
,
00000000
00000000
00000000
00000000
,
00000000
00000000
00000000
00000000
,
00000000
00000000
00000000
00000000
,
00000000
00000000
00000000
00000000
,
00000000
00000000
00000000
00000000
,
00010000
00000000
00001000
00000000
,
01000000
00000000
00001000
00000000
,
00020000
00000000
00000000
00000000
,
00000000
00000000
00030000
00000000
,
00001000
00000000
00010000
00000000
,
00000100
00000000
00010000
00000000
,
00001000
00001000
00010000
00010000
,
00002000
00000000
00000000
00003000
,
00011000
00001000
00000000
00000000
,
00011000
00010000
00000000
00000000
,
00011000
00001000
00000000
00000000
,
00010000
00000100
00001000
00000000
,
00001001
00000001
00000000
00000000
,
00001001
00001000
00000000
00000000
,
00001001
00000001
00000000
00000000
,
00001000
00000010
00010000
00001000
,
00000000
00000000
00000000
00000000
,
00010000
00000010
00000000
00010000
,
00000010
00000000
00010000
00010000
,
00001000
00100000
00000000
00001000
,
00100000
00000000
00001000
00001000
,
00010000
00001000
00000000
01000000
,
00010000
10000000
01000000
00000000
,
00100000
00010000
00000000
00100000
,
00001000
00010000
00001000
00000000
,
00020000
00000000
00030200
00000000
,
00002300
00000000
00000000
00003000
,
00000002
00000000
00000203
00000000
,
00000320
00000000
00000000
00000030
,
00010000
00010000
00001000
00000000
,
00001000
00001000
00010000
00000000
,
00001000
01000000
00010000
00000000
,
10000000
01000000
00010000
00000000
,
00001000
00010000
00000100
00002000
,
00000000
00003001
00000100
00000010
,
00010000
00020000
00000000
00031000
,
00000000
00010000
00000000
00001000
,
00010000
00001000
01000000
00020000
,
00000000
10030000
01000000
00100000
,
00001000
00002000
00000000
00013000
,
00000000
00001000
00000000
00010000
,
00001000
00010000
00000100
00002000
,
00000000
00003001
00000100
00001000
,
00020000
00031000
00000000
00001000
,
00000000
00010000
00000000
00001000
,
00010000
00001000
01000000
00020000
,
00000000
10030000
01000000
00100000
,
00001000
00010000
00001000
00000000
,
00010000
00010000
00000000
00000000
,
00001000
00100000
00001000
00010000
,
00001000
00100000
00001000
00010000
,
00000010
00010000
00001000
00010000
,
00000010
00010000
00001000
00100000
,
00001000
00010000
00001000
00100000
,
00001000
00010000
00000010
00010000
,
00001000
00010000
00000010
00010000
,
00001000
00001000
00000000
00010000
,
00010000
00000000
00001000
01000000
,
00001000
00001000
00000000
00010000
,
00010000
00000000
00001000
00100000
,
00001000
00001000
00000000
00010000
,
00010000
00000000
00000010
00010000
,
00001000
01000000
00010000
00000000
,
10000000
01000000
00010000
00000000
,
00011000
00010000
00000000
00000000
,
00011000
00001000
00000000
00000000
,
00011000
00010000
00000000
00000000
,
00001000
01000000
00010000
00000000
,
10010000
10000000
00000000
00000000
,
10010000
00010000
00000000
00000000
,
10010000
10000000
00000000
00000000
,
10000000
00100000
00010000
00001000
,
00000000
00022000
00000000
00000000
,
00000000
00000000
00000000
00000000
,
00033000
00000000
00000000
00000000
;

//--------------- dance-double - Extraordiberry ----------------
#NOTEDATA:;
#STEPSTYPE:dance-double;
#DESCRIPTION:Extraordiberry;
#DIFFICULTY:Medium;
#METER:13;
#RADARVALUES:0,0,0,0,0;
#CREDIT:Extraordiberry;
#NOTES:
00000000
00000000
00000000
00000000
,
00000000
00000000
00000000
00000000
,
00000000
00000000
00000000
00000000
,
00000000
00000000
00000000
00000000
,
00000000
00000000
00000000
00000000
,
00000000
00000000
00000000
00000000
,
00000000
00000000
00000000
00000000
,
00000000
00000000
00000000
00000000
,
00000000
00000000
00000000
00000000
00000000
00000000
00000000
00010000
,
00000100
00001000
00000001
00000200
00000000
00000301
00000020
00000000
,
00000000
00000000
00000031
00000000
00000100
00000000
00000010
00000000
00020000
00000000
00000000
00030200
00000000
00000000
00020300
00000000
,
00032000
00000000
00000000
00020000
00000000
00000000
00000000
00000000
,
00000000
00000000
00000000
00000000
00033000
00000000
00000000
00001000
,
01000000
00010000
10000000
02000000
00000000
13000000
00200000
00000000
,
00000000
00000000
10300000
00000000
01000000
00000000
00100000
00000000
00002000
00000000
00000000
02003000
00000000
00000000
03001000
00000000
,
00010000
00000000
00000100
00000000
00010000
00000000
00001000
00000000
01000000
00000000
00001000
00000000
00010000
00000000
00001000
00010000
,
00001000
00000010
00000001
00001000
00000020
00000000
00000000
00000030
,
00001010
00000000
00000000
00000010
00000000
00000010
00010000
00000000
00000000
00000000
00001000
00000000
00100000
00000000
00010000
00000000
,
00110000
00000000
00000000
00100000
00000000
00100000
00001000
00000000
00000000
00000000
00010000
00000000
00000010
00000000
00001000
00000000
,
00001010
00000000
00000000
00000010
00000000
00000010
00010000
00000000
00000000
00000000
00001000
00000000
00100000
00000000
00010000
00000000
,
10000000
10000000
00010000
00010000
01000000
00001000
00010000
00000100
,
00001100
00000000
00000000
00000100
00000000
00000100
00010000
00000000
00000000
00000000
00001000
00000000
01000000
00000000
00010000
00000000
,
01010000
00000000
00000000
01000000
00000000
01000000
00001000
00000000
00000000
00000000
00010000
00000000
00000100
00000000
00001000
00000000
,
00001100
00000000
00000000
00000100
00000000
00000100
00010000
00000000
00000000
00000000
00001000
00000000
01000000
00000000
00010000
00000000
,
10000000
10000000
00010000
00010000
00100000
00001000
00010000
00000010
,
00000000
00000000
00000000
00000000
,
00010000
00000010
00000100
00000010
00000000
00010000
00000010
00000100
,
00000010
00001000
00000001
00000000
00001000
00000100
00010000
00000000
,
00001000
00100000
01000000
00100000
00000000
00001000
00100000
01000000
,
00100000
00010000
10000000
00000000
00010000
01000000
00001000
00000000
,
00010000
00000010
00000100
00000010
00000000
00010000
00000010
00000100
,
00000010
00001000
00000001
00000010
00000100
00000100
00010000
00000000
,
00001000
00100000
01000000
00100000
00000000
00001000
00100000
01000000
,
00100000
00010000
10000000
00100000
01000000
01000000
00001000
00000000
,
00010000
00001000
00000010
00000002
00000000
00000013
00001000
00010000
,
00002000
00010000
01000000
00013000
,
00001000
00010000
00100000
20000000
00000000
30100000
00010000
00001000
,
00020000
00001000
00000100
00031000
,
00010000
00000000
00000100
00000000
00001000
00000000
00000000
00000001
00000000
00000000
00000010
00000000
00000100
00000000
00010000
00000000
,
00001000
00000000
00000000
01000000
00000000
00000000
00010000
00000000
10000000
00000000
00100000
00000000
01000000
00000000
00001000
00000000
,
00010000
00000000
00000000
00000100
00000000
00000000
00001000
00000000
00000001
00000000
00000010
00000000
00001000
00000000
00010000
00000000
,
00001000
00000000
00000000
00010000
00000000
00000000
00100000
00000000
10000000
00000000
01000000
00000000
00010000
00000000
00001000
00000000
,
01000000
00010000
10000000
02000000
00000000
13000000
00200000
00000000
,
00000000
00000000
10300000
00000000
01000000
00000000
00100000
00000000
00001000
00000000
00010000
00001000
00000000
00001000
00010000
00000000
,
00001000
01000000
00010000
20000000
00000000
31000000
02000000
00000000
,
03010000
00020000
00000000
00031000
00002000
00000000
00013000
00010000
,
00000100
00001000
00000001
00000200
00000000
00000301
00000020
00000000
,
00000000
00000000
00000031
00000000
00000100
00000000
00000010
00000000
00010000
00000000
00001000
00010000
00000000
00010000
00001000
00000000
,
00010000
00000100
00001000
00000020
00000000
00010030
00020000
00000000
,
00031000
00002000
00000000
01003000
02000000
00000000
03001000
00001000
,
00100000
00010000
10000000
00200000
00000000
10300000
02000000
00000000
,
00000000
13000000
00100000
00010000
00001000
02000000
00000000
03010000
,
00200000
00000000
00301000
00002000
00000000
00003010
00000020
00000000
,
00000031
00000002
00000000
00000103
00000200
00000000
00001300
00001000
,
01000000
00010000
10000000
02000000
00000000
13000000
00200000
00000000
,
00000000
00000000
10300000
00000000
01000000
00000000
00100000
00000000
00001000
00000000
00010000
00001000
00000000
00001000
00010000
00000000
,
00000100
00000000
00010000
00000000
00001000
00000000
01000000
00000000
00001000
00000000
00010000
00000000
00000100
00000000
00010000
00001000
,
00010000
01000000
00100000
00002000
00000000
00000000
00000000
00000000
,
00013000
00000010
00000100
00000010
00010000
00000100
00010000
00000010
,
00000100
00000010
00010000
00000100
00010000
00010000
00001000
00100000
,
01000000
00100000
00001000
01000000
00001000
00100000
01000000
00100000
,
00001000
01000000
00001000
00001000
00010000
00000010
00000100
00000010
,
00010000
00000100
00010000
00000010
00000100
00000010
00010000
00000100
,
00010000
00010000
00001000
00100000
01000000
00100000
00001000
01000000
,
00001000
00100000
01000000
00100000
00001000
01000000
00001000
00001000
,
00010000
00000010
00000100
00000010
00000000
00000000
00010000
00000010
,
00000100
00000010
00000000
00000000
00010000
00001000
00010000
00000000
,
00001000
00100000
01000000
00100000
00000000
00000000
00001000
00100000
,
01000000
00100000
00000000
00000000
00001000
00010000
00001000
00000000
,
00010000
00000010
00000100
00000010
00010000
00000000
00010000
00000010
,
00000100
00000010
00010000
00000000
00001000
00001000
00010000
00000000
,
00001000
01000000
00001000
00010000
00000100
00010000
00001000
01000000
,
00001000
00010000
00000100
00001000
00000020
00000000
00000000
00000030
,
00001010
00000000
00000000
00000010
00000000
00000010
00010000
00000000
00000000
00000000
00001000
00000000
00100000
00000000
00010000
00000000
,
00110000
00000000
00000000
00100000
00000000
00100000
00001000
00000000
00000000
00000000
00010000
00000000
00000010
00000000
00001000
00000000
,
00001010
00000000
00000000
00000010
00000000
00000010
00010000
00000000
00000000
00000000
00001000
00000000
00100000
00000000
00010000
00000000
,
10000000
10000000
00010000
00010000
01000000
00001000
00010000
00000100
,
00001100
00000000
00000000
00000100
00000000
00000100
00010000
00000000
00000000
00000000
00001000
00000000
01000000
00000000
00010000
00000000
,
01010000
00000000
00000000
01000000
00000000
01000000
00001000
00000000
00000000
00000000
00010000
00000000
00000100
00000000
00001000
00000000
,
00001100
00000000
00000000
00000100
00000000
00000100
00010000
00000000
00000000
00000000
00001000
00000000
01000000
00000000
00010000
00000000
,
10000000
00000000
10000000
00000000
00010000
00000000
00010000
00000000
00100000
00000000
00001000
00000000
00010000
00000010
00001000
00000000
,
00000000
00022000
00000000
00000000
,
00000000
00000000
00000000
00000000
,
00033000
00000000
00000000
00000000
;

//--------------- dance-double - Extraordiberry ----------------
#NOTEDATA:;
#STEPSTYPE:dance-double;
#DESCRIPTION:Extraordiberry;
#DIFFICULTY:Hard;
#METER:16;
#RADARVALUES:0,0,0,0,0;
#CREDIT:Extraordiberry;
#NOTES:
00000000
00000000
00000000
00000000
,
00000000
00000000
00000000
00000000
,
00000000
00000000
00000000
00000000
,
00000000
00000000
00000000
00000000
,
00000000
00000000
00000000
00000000
,
00000000
00000000
00000000
00000000
,
00000000
00000000
00000000
00000000
,
00000000
00000000
00000000
00000000
,
00000000
00000000
00000000
00000000
00000000
00000000
00000000
00000000
00000000
00000000
00000000
00000000
00000000
00000000
00010000
00001000
,
01000000
00010000
10000000
02000000
00000000
03100000
00002000
00000000
,
00000000
00000000
00013000
00000000
00001000
00000000
01000000
00000000
00020000
00000000
00000000
00230000
00000000
00000000
00302000
00000000
,
00023000
00000000
00000000
00002000
00000000
00000000
00000000
00000000
,
00000000
00000000
00000000
00000000
00000000
00000000
00000000
00000000
00033000
00000000
00000000
00000000
00000000
00000000
00001000
00010000
,
00000100
00001000
00000001
00000200
00000000
00000310
00020000
00000000
,
00000000
00000000
00031000
00000000
00010000
00000000
00000100
00000000
00002000
00000000
00000000
00003020
00000000
00000000
00010030
00000000
,
00001000
00000000
01000000
00000000
00010000
00000000
00100000
00000000
00001000
00000000
00010000
00000000
00000100
00000000
00001000
00000001
,
00000100
00001000
00010000
00100000
20000000
00000000
00000000
30000000
,
10000000
00000000
01000000
00010000
00000000
00001000
00010000
00000000
00000000
00000000
00001000
00000000
00000010
00000001
00000010
00000000
,
00000001
00000000
00000100
00001000
00000000
00010000
00001000
00000000
00000000
00000000
00010000
00000000
00100000
10000000
00100000
00000000
,
10000000
00000000
01000000
00010000
00000000
00001000
00010000
00000000
00000000
00000000
00001000
00000000
00000010
00000001
00000010
00000000
,
00000001
00000000
00000100
00000000
00000010
00000000
00010000
00000000
00001000
01000000
00010000
00000000
01000000
00100000
10000000
00000000
,
00010000
00000000
10000000
01000000
00000000
00010000
00001000
00000000
00000000
00000000
00000010
00000000
00000001
00000010
00000001
00000000
,
00001000
00000000
00000001
00000100
00000000
00001000
00010000
00000000
00000000
00000000
00100000
00000000
10000000
00100000
10000000
00000000
,
00010000
00000000
10000000
01000000
00000000
00010000
00001000
00000000
00000000
00000000
00000010
00000000
00000001
00000010
00000001
00000000
,
00001000
00000000
00000001
00000000
00000100
00000000
00000010
00000000
00010000
00001000
01000000
00000000
00100000
10000000
00010000
00100000
,
00000000
00000000
00000000
00000000
,
00001000
00010000
00100000
01000000
00000000
00001000
00010000
00100000
,
01000000
00000000
00010000
10000000
01000000
00010000
00001000
00000000
,
00010000
00001000
00000100
00000010
00000000
00010000
00001000
00000100
,
00000010
00000000
00001000
00000001
00000010
00001000
00010000
00000000
,
00001000
00010000
00100000
01000000
00001000
00100000
00001000
00010000
,
00100000
01000000
00010000
10000000
01000000
00010000
00001000
00000000
,
00010000
00001000
00000100
00000010
00010000
00000100
00010000
00001000
,
00000100
00000010
00001000
00000001
00000010
00001000
00010000
00000000
,
00001000
00000000
00010000
00001000
00100000
00000000
02000000
00000000
00000000
00000000
13000000
00000000
00010000
00000000
02000000
00000000
,
00100000
00000000
00000000
00000000
00010000
00000000
00000000
00000000
03001000
00000000
00000000
00000000
00010000
00000000
00001000
00010000
,
00000100
00000010
00000001
00000200
00000000
00000301
00001000
00000200
,
00000010
00000000
00000000
00000000
00001000
00000000
00000000
00000000
00010300
00000000
00000000
00000000
00001000
00000000
00010000
00001000
,
01000000
00000000
00100000
00000000
10000000
00000000
00010000
00100000
00000000
00100000
00001000
00000000
00010000
00000000
00001000
00010000
,
00000010
00000000
00001000
00000001
00000000
00000001
00000010
00000000
00000100
00000000
00010000
00000000
00001000
00000000
00010000
00001000
,
01000000
00000000
00010000
10000000
00000000
10000000
01000000
00000000
00100000
00000000
00001000
00000000
00010000
00000000
00000010
00000000
,
00001000
00000000
00000001
00001000
00000000
00001000
00000100
00010000
00001000
00100000
00010000
00000000
00100000
00000000
00001000
00000000
,
01000000
00010000
10000000
02000000
00000000
03100000
00002000
00000000
,
00000000
00000000
00013000
00001000
01000000
00000000
00010000
00000000
10000000
00000000
00010000
00100000
00000000
00001000
00010000
00000000
,
00001000
01000000
00010000
20000000
00000000
30020000
00230000
00302000
,
00023000
00000000
00030200
00000000
00002300
00000000
00003002
00000000
00000203
00000000
00000320
00000000
00010030
00000000
00001000
00010000
,
00000100
00001000
00000001
00000200
00000000
00000310
00020000
00000000
,
00000000
00000000
00031000
00010000
00000100
00000000
00001000
00000000
00000001
00000000
00001000
00000010
00000000
00010000
00001000
00000000
,
00010000
00000100
00001000
00000020
00000000
00002030
00003200
00020300
,
00032000
00000000
00203000
00000000
00320000
00000000
20030000
00000000
30200000
00000000
02300000
00000000
03001000
00000000
00010000
00001000
,
00100000
00010000
10000000
00200000
00000000
01300000
00002000
00000000
,
00000000
00000000
00013000
00001000
00000010
00000000
00000001
00000000
00001000
00000000
00000020
00000000
00000000
00000000
00010030
00000000
,
00002000
00000000
02003000
03020000
20030000
30200000
02300000
03002000
,
00023000
00000000
00030200
00000000
00002300
00000000
00003002
00000000
00000023
00000000
00000230
00000000
00010300
00000000
00001000
00010000
,
00000100
00000010
00000001
00000200
00000000
00000310
00020000
00000000
,
00000000
00000000
00031000
00010000
00000100
00000000
00000010
00000000
00000001
00000000
00001000
00000010
00000000
00010000
00001000
00000000
,
00000010
00000000
00000001
00000000
00001000
00000000
00000100
00000000
00010000
00000000
00001000
00000000
00100000
00000000
00010000
10000000
,
00100000
01000000
00001000
00020000
00000000
00000000
00000000
00000000
,
00031000
00000000
00010000
00000000
00100000
00000000
01000000
00010000
00000000
00010000
00100000
00000000
00001000
00000000
00010000
00000000
,
00100000
00000000
01000000
00010000
00000000
00010000
00100000
00000000
00001000
00010000
00001000
00000000
00010000
00000000
00001000
00000000
,
00000100
00000000
00000010
00001000
00000000
00001000
00000100
00000000
00010000
00000000
00001000
00000000
00000100
00000000
00000010
00001000
,
00000000
00001000
00000100
00000000
00010000
00001000
00010000
00000000
00001000
00000000
00010000
00000000
00100000
00000000
01000000
00010000
,
00000000
00010000
00100000
00000000
00001000
00000000
00010000
00000000
00100000
00000000
01000000
00010000
00000000
00010000
00100000
00000000
,
00001000
00010000
00001000
00000000
00010000
00000000
00001000
00000000
00000100
00000000
00000010
00001000
00000000
00001000
00000100
00000000
,
00010000
00000000
00001000
00000000
00000100
00000000
00000010
00001000
00000000
00001000
00000100
00000000
00010000
00001000
00010000
00000000
,
00001000
00010000
00100000
01000000
00001000
00100000
00001000
00010000
,
00100000
01000000
00001000
00100000
00001000
00010000
00001000
00000000
,
00010000
00001000
00000100
00000010
00010000
00000100
00010000
00001000
,
00000100
00000010
00010000
00000100
00010000
00001000
00010000
00000000
,
00001000
00000000
00010000
00000000
00100000
00000000
01000000
00000000
00001000
00010000
00001000
00000000
00010000
00000000
00001000
00000000
,
00000100
00000000
00000010
00000000
00010000
00001000
00010000
00000000
00000100
00000000
00010000
00000000
00001000
00000000
00000000
00000000
,
00020000
00032000
02003000
03020000
20030000
32000000
03200000
00302000
,
00013000
00000010
00001000
00000000
00000010
00000100
00000001
00000000
00000010
00000000
00001000
00000000
00010000
00000000
01000000
00000000
,
10000000
00000000
00100000
00010000
00000000
00001000
00010000
00000000
00000000
00000000
00001000
00000000
00000100
00000001
00000100
00000000
,
00000001
00000000
00000010
00001000
00000000
00010000
00001000
00000000
00000000
00000000
00010000
00000000
01000000
10000000
01000000
00000000
,
10000000
00000000
00100000
00010000
00000000
00001000
00010000
00000000
00000000
00000000
00001000
00000000
00000100
00000001
00000100
00000000
,
00000001
00000000
00000010
00000000
00000100
00000000
00010000
00000000
00001000
00100000
00010000
00000000
00100000
01000000
10000000
00000000
,
00010000
00000000
10000000
00100000
00000000
00010000
00001000
00000000
00000000
00000000
00000100
00000000
00000001
00000100
00000001
00000000
,
00001000
00000000
00000001
00000010
00000000
00001000
00010000
00000000
00000000
00000000
01000000
00000000
10000000
01000000
10000000
00000000
,
00010000
00000000
10000000
00100000
00000000
00010000
00001000
00000000
00000000
00000000
00000100
00000000
00000001
00000100
00000001
00000000
,
00001000
00000000
00000001
00000000
00000010
00000000
00000100
00000000
00010000
00001000
00100000
00000000
01000000
10000000
00010000
01000000
,
00000000
00022000
00000000
00000000
,
00000000
00000000
00000000
00000000
,
00033000
00000000
00000000
00000000
;
