#TITLE:Shapeshifter;
#SUBTITLE:;
#ARTIST:Avans;
#TITLETRANSLIT:;
#SUBTITLETRANSLIT:;
#ARTISTTRANSLIT:;
#GENRE:;
#CREDIT:;
#BANNER:;
#BACKGROUND:;
#LYRICSPATH:;
#CDTITLE:;
#MUSIC:Shapeshifter.ogg;
#OFFSET:-1.792000;
#SAMPLESTART:32.234921;
#SAMPLELENGTH:14.328358;
#SELECTABLE:YES;
#BPMS:0.000000=134.000000
;
#STOPS:
;
#BGCHANGES:;
#KEYSOUNDS:;
#ATTACKS:;

//---------------dance-single - RH DS FS SS XO----------------
#NOTES:
     dance-single:
     :
     Challenge:
     15:
     0.642445,0.731443,0.255718,0.493801,0.714248,510.000000,481.000000,29.000000,56.000000,17.000000,0.000000,0.642445,0.731443,0.255718,0.493801,0.714248,510.000000,481.000000,29.000000,56.000000,17.000000,0.000000:
// measure 0
0000
0000
0000
0000
,  // measure 1
0000
0000
0000
0000
,  // measure 2
0000
0000
0000
0000
,  // measure 3
0000
0000
0000
0000
,  // measure 4
0000
0000
0000
0000
,  // measure 5
1000
0000
0000
0000
0100
0000
1000
0000
0000
0000
0000
0000
0001
0000
0000
0000
0100
0000
0010
0000
0000
0000
0000
0000
2000
0000
0000
0000
0000
0000
0000
0000
0000
0000
0000
0000
0000
0000
0000
0000
0000
0000
3001
0000
0000
0010
0000
0000
,  // measure 6
0002
0203
0320
2030
,  // measure 7
3001
0000
0000
0010
0000
0000
0100
0000
0000
1000
0000
0000
0001
0000
0100
0000
0000
0010
0000
0000
1000
0100
0000
1000
,  // measure 8
0002
0000
0203
2300
3200
0000
0320
0000
,  // measure 9
1030
0000
0000
0001
0000
0010
0002
0000
0000
0000
0000
0000
0103
0000
0000
1000
0000
0000
0100
0000
0000
0020
0000
0000
,  // measure 10
0000
0000
0000
1030
0000
0010
2000
0000
0000
0000
0000
0000
3100
0000
0000
0001
0000
0000
0100
0000
0000
0020
0000
0000
,  // measure 11
0000
0000
0000
0031
0000
1000
0020
0000
0000
0000
0000
0000
0130
0000
0000
1000
0000
0000
0001
0000
0000
0010
0000
0000
,  // measure 12
1000
0000
0000
0010
0000
0000
0100
0000
0000
0001
0000
0000
0020
0000
0000
0000
0000
0000
0130
0000
1000
0100
0000
0000
,  // measure 13
0010
0000
0000
0001
0000
0100
0002
0000
0000
0000
0000
0000
0013
0000
0000
1000
0000
0000
0010
0000
0000
0200
0000
0000
,  // measure 14
0000
0000
0000
0301
0000
0100
2000
0000
0000
0000
0000
0000
3001
0000
0000
0100
0000
0000
0010
0000
0000
1000
0000
0000
,  // measure 15
0100
0100
0010
0010
0001
0001
1000
1000
,  // measure 16
2002
0000
0000
0000
0000
0000
0000
0000
0000
3003
0000
0000
0001
0000
0000
1000
0000
0001
0100
0000
00M0
0100
0000
0000
,  // measure 17
1000
0000
0000
0000
0000
0000
0100
0000
0000
0000
1000
0000
0100
0000
0000
0000
0000
0000
0001
0000
0000
00M0
0000
0000
0001
0000
0000
0000
0000
0000
0010
0000
0000
0100
0000
0000
1000
0000
0000
0000
0000
0000
0001
0000
0000
0000
0000
0000
,  // measure 18
0100
0000
0002
0100
0000
0000
2003
0000
0000
0010
0000
0000
3100
0000
0000
0010
0000
0000
0001
0000
0000
1000
0000
0000
,  // measure 19
0001
0000
0000
0000
0000
0000
0100
0000
0000
0000
0001
0000
0100
0000
0000
0000
0000
0000
1000
0000
0000
00M0
0000
0000
1000
0000
0000
0000
0000
0000
0010
0000
0000
0100
0000
0000
0001
0000
0000
0000
0000
0000
1000
0000
0000
0000
0000
0000
,  // measure 20
0100
0000
2000
0100
0000
0000
3002
0000
0000
0010
0000
0000
0103
0000
0000
0010
0000
1000
0001
0000
1000
0001
0000
0000
,  // measure 21
0010
0000
0000
0000
0000
0000
0001
0000
0000
0000
1000
0000
0100
0000
0000
0000
0000
0000
0001
0000
0000
00M0
0000
0000
0001
0000
0000
0000
0000
0000
0010
0000
0000
0100
0000
0000
1000
0000
0000
0000
0000
0000
0001
0000
0000
0000
0000
0000
,  // measure 22
0100
0000
0010
1000
0000
0010
1000
0000
0000
0002
0000
0000
0010
0000
0000
2003
0000
0000
0100
0000
0000
3010
0000
0000
,  // measure 23
0100
0000
0002
0010
0000
0000
1003
0000
0000
0010
0000
0000
0100
0000
0002
0010
0000
0000
1003
0000
0000
0100
0000
0000
,  // measure 24
0001
0000
0000
1000
0000
0000
0010
0000
0000
0001
0000
0000
0100
0000
0001
1000
0000
0001
1000
0000
0100
0010
0000
0000
,  // measure 25
0001
0000
0000
0000
0000
0000
0100
0000
0000
0000
0001
0000
0100
0000
0000
0000
0000
0000
1000
0000
0000
00M0
0000
0000
1000
0000
0000
0010
0000
0000
0100
0000
0000
0001
0000
0000
1000
0000
0000
0000
0000
0000
0100
0000
0000
0000
0000
0000
,  // measure 26
0010
0000
0002
0010
0000
0000
2003
0000
0000
0100
0000
0000
3001
0000
0100
0010
0000
0000
1000
0000
0000
0001
0000
0000
,  // measure 27
1000
0000
0000
0000
0000
0000
0100
0000
0000
0000
1000
0000
0100
0000
0000
0000
0000
0000
0001
0000
0000
00M0
0000
0000
0001
0000
0000
0010
0000
0000
0100
0000
0000
1000
0000
0000
0001
0000
0000
0000
0000
0000
0100
0000
0000
0000
0000
0000
,  // measure 28
0010
0000
2000
0010
0000
0000
3002
0000
0000
0100
0000
0000
1003
0000
0100
1000
0000
0001
0010
0000
0100
1000
0000
0000
,  // measure 29
0010
0000
0000
0000
0000
0000
1000
0000
0000
0000
0001
0000
0100
0000
0000
0000
0000
0000
1000
0000
0000
00M0
0000
0000
1000
0000
0000
0010
0000
0000
0100
0000
0000
0001
0000
0000
1000
0000
0000
0000
0000
0000
0100
0000
0000
0000
0000
0000
,  // measure 30
0010
0000
0001
1000
0000
0001
0100
0000
0001
2000
0000
0000
0100
0000
0000
3002
0000
0000
0010
0000
0000
1003
0000
0000
,  // measure 31
0100
0000
2000
0010
0000
0000
3001
0000
0000
1000
0000
0000
0100
0000
2000
0010
0000
0000
3001
0000
0000
0100
0000
0000
,  // measure 32
1000
0000
0000
0001
0000
0000
0010
0000
0000
1000
0000
0000
0001
0000
0010
0000
0100
0000
1000
0000
0000
0001
0000
0000
,  // measure 33
1001
0000
0000
1000
0000
0010
0000
0000
1000
0100
0000
0000
0010
0000
0000
0001
0000
0000
1000
0010
1000
0010
0000
0100
,  // measure 34
0000
0000
0001
1000
0000
0100
0000
0000
1000
0001
0000
0100
0001
0000
0000
0100
0000
0010
1000
0000
0000
0001
0000
2000
,  // measure 35
0000
0000
0000
3100
0000
0000
0001
0000
0100
1000
0000
0100
0020
0000
0000
0030
0000
0011
0000
0000
0000
1000
0000
0000
,  // measure 36
0001
0000
0100
0000
0000
1000
0000
0000
0000
0100
0000
0000
0010
0000
2000
0000
0000
0002
0000
0000
0000
3003
0000
0000
,  // measure 37
1001
0000
0000
1000
0000
0100
1000
0000
0000
0001
0100
0001
0100
0000
0000
0010
1000
0010
1000
0000
0001
0000
0000
0000
,  // measure 38
0010
0000
0001
0000
0000
0011
0000
0000
1000
0010
0000
1000
0100
0000
1000
0001
0000
1000
0100
0000
0010
0000
0000
0001
,  // measure 39
0000
0000
0000
0000
0000
0000
0000
0000
0000
0000
0000
0000
0000
0000
0000
0000
0000
0000
0000
0000
0000
0000
0000
0000
0000
0000
0000
0000
0000
0000
0000
0000
0000
0000
0000
0000
0000
0000
0000
0000
0000
0000
0000
0000
0000
1000
0000
0000
0002
0000
0000
0000
0000
0000
0000
0000
0000
0000
0000
0000
0000
0000
0000
0000
0000
0000
0000
0000
0000
0000
0000
0000
0103
0000
0000
0000
0000
0000
0000
0000
0000
0000
0000
0000
0000
0000
0000
0000
0000
0000
0000
0000
0000
0000
0000
0000
0010
0000
0000
0000
0000
0000
0000
0000
0000
0000
0000
0000
0000
0000
0000
0000
1000
0000
0000
0000
0000
0000
0000
0000
0000
0000
0000
0000
0000
0000
0000
0000
0000
0000
0000
0000
0000
0000
0000
0000
0100
0000
0000
0000
0000
0000
0000
0000
2000
0000
0000
0000
0000
0000
0000
0000
0000
0000
0000
0000
0000
0000
0000
0000
0000
0000
0000
0000
0000
0000
0000
0000
0000
0000
0000
0000
0000
0000
0000
0000
0000
0000
0000
0000
0000
0000
0000
0000
0000
0000
0000
0000
0000
0000
0000
0000
,  // measure 40
3001
0000
0000
0100
0000
0000
0010
0000
0000
1000
0000
0000
0001
0000
0010
0000
0000
0022
0000
0000
0000
0033
0000
0000
,  // measure 41
1100
0000
0000
0001
0000
0100
0001
0000
1000
0010
0000
0000
1000
0000
0100
1000
0000
0001
0010
0000
0000
0100
0000
1000
,  // measure 42
0000
0000
0000
0001
0000
0100
0010
0000
1000
0000
0000
0001
0010
0000
0001
0100
0000
0001
1000
0000
0001
0100
0000
0010
,  // measure 43
0000
0000
0000
1000
0000
0000
0100
0000
0010
0000
0000
0000
0001
0000
0100
0000
0000
0001
1000
0000
0000
0000
0000
2002
,  // measure 44
0000
0000
0000
0000
,  // measure 45
3003
0000
0000
1100
0000
0000
0000
0000
0011
0000
0000
0000
1100
0000
0000
0000
0000
0000
0101
0000
0000
0000
0000
0000
,  // measure 46
1000
0000
0010
0000
0000
0100
0000
0000
0001
1000
0000
0000
0000
0000
0000
0000
0000
0000
0110
0000
0000
0000
0000
2002
,  // measure 47
0000
0000
0000
0000
0000
0000
0000
3003
,  // measure 48
1000
0000
0100
00M0
0100
0000
0001
0000
0100
00M0
0100
0000
1000
0000
0100
0000
0010
0000
0001
0000
0000
1000
0000
0000
,  // measure 49
1002
0000
0000
0000
0000
0000
0103
0000
0000
0010
0000
0000
1000
0000
0100
1000
0000
0000
0002
0000
0000
0003
0000
0000
,  // measure 50
0110
0000
0000
1000
0000
0000
0110
0000
0000
0001
0000
0000
0110
0000
0000
1000
0000
0000
0001
0000
0010
0000
0100
0000
,  // measure 51
1000
0000
0000
0001
0000
0100
0001
0000
0000
1000
0000
0000
0100
0000
0000
0010
0000
0000
0001
0000
1000
0000
0000
0000
,  // measure 52
0110
0001
0110
1000
0110
0001
0110
1000
,  // measure 53
0001
0000
2000
0000
0000
0000
3100
00M0
0100
0000
0001
0000
0100
0000
0010
1000
0010
0000
0100
0000
0001
0000
1000
0000
,  // measure 54
0100
0000
0010
0000
0001
0000
0010
0M00
0010
0000
1000
0000
0010
0000
0100
0001
0100
0000
0020
0000
0000
0000
0000
0000
,  // measure 55
1030
0001
1000
0001
0010
0100
1000
0001
1000
0001
0100
0010
2000
0000
3000
0000
,  // measure 56
1010
0000
0000
0M00
0000
0000
0010
0000
0000
0000
0001
0000
0000
0000
0000
0000
0000
0000
1000
0000
0000
0000
0000
0000
1100
0000
0000
00M0
0000
0000
0100
0000
0000
0000
0001
0000
0000
0000
0000
0000
0000
0000
0000
0000
0000
0000
0000
0000
,  // measure 57
0011
0000
0000
0M00
0000
0000
0010
0000
0000
0000
1000
0000
0000
0000
0000
0000
0000
0000
0001
0000
0000
0000
0000
0000
0101
0000
0000
00M0
0000
0000
0100
0000
0000
0000
1000
0000
0000
0000
0000
0000
0000
0000
0010
0000
0000
0000
0000
0000
,  // measure 58
1010
0000
0000
0M00
0000
0000
0010
0000
0000
0000
0001
0000
0000
0000
0000
0000
0000
0000
1000
0000
0000
0000
0000
0000
1100
0000
0000
00M0
0000
0000
0100
0000
0000
0000
0001
0000
0000
0000
0000
0000
0000
0000
1000
0000
0000
0000
0000
0000
,  // measure 59
2002
3003
0000
0000
;

//---------------dance-single - ----------------
#NOTES:
     dance-single:
     :
     Hard:
     13:
     0.532852,0.598293,0.246901,0.387987,0.365942,423.000000,395.000000,28.000000,44.000000,10.000000,0.000000,0.532852,0.598293,0.246901,0.387987,0.365942,423.000000,395.000000,28.000000,44.000000,10.000000,0.000000:
// measure 0
0000
0000
0000
0000
,  // measure 1
0000
0000
0000
0000
,  // measure 2
0000
0000
0000
0000
,  // measure 3
0000
0000
0000
0000
,  // measure 4
0000
0000
0000
0000
,  // measure 5
1000
0000
0100
0000
0010
0000
0001
0000
0200
0000
0000
0000
0310
0000
1000
0001
,  // measure 6
2000
3200
0320
0032
,  // measure 7
0103
0000
0000
0001
0000
0000
1000
0000
0000
0100
0000
0000
1000
0000
0001
0000
0000
0100
0000
0000
0000
0010
0000
0000
,  // measure 8
2001
0000
3100
0001
0200
0000
0320
0000
,  // measure 9
0031
0010
0020
0000
0130
0001
0100
2000
,  // measure 10
0000
3010
0020
0000
0130
1000
0100
0002
,  // measure 11
0000
1003
2000
0000
3100
0001
1000
0010
,  // measure 12
0001
0010
0100
1000
0002
0000
1003
0010
,  // measure 13
0100
0001
0002
0000
0013
1000
0010
0002
,  // measure 14
0000
0103
0200
0000
1300
0001
0010
1000
,  // measure 15
0001
0010
0001
0010
0100
1000
0100
1000
,  // measure 16
0002
0000
0000
0023
0000
0000
0230
0000
0000
2300
0000
0000
3001
0000
0000
1000
0000
0010
1000
0000
0000
0001
0000
0000
,  // measure 17
1000
0000
0100
0000
0010
0000
1000
0000
0010
0000
0001
0010
0200
0000
0000
0000
,  // measure 18
1300
0000
0100
00M0
0100
0000
0001
0000
0100
0000
1000
0000
0200
0000
0000
0000
,  // measure 19
0301
0000
0100
0000
0010
0000
0001
0000
0010
0000
1000
0010
0200
0000
0000
0000
,  // measure 20
0301
0000
0100
00M0
0100
0000
1000
0000
0100
0000
0001
0000
0100
0000
0010
0000
,  // measure 21
0001
0000
1000
0000
0010
0000
0001
0000
0010
0000
0100
0001
2000
0000
0000
0000
,  // measure 22
3001
0000
0010
0M00
0010
0000
1000
0000
0010
0000
0001
0000
0010
0000
0100
0000
,  // measure 23
0001
0000
0100
00M0
0100
0000
1000
0000
0001
0000
0100
00M0
0100
0000
1000
0000
,  // measure 24
0100
0001
0100
0010
0011
1000
1100
0001
,  // measure 25
0101
0000
0100
0000
0010
0000
0001
0000
0010
0000
1000
0010
0200
0000
0000
0000
,  // measure 26
0301
0000
0100
00M0
0100
0000
1000
0000
0100
0000
0001
0000
0200
0000
0000
0000
,  // measure 27
1300
0000
0100
0000
0010
0000
1000
0000
0010
0000
0001
0010
0200
0000
0000
0000
,  // measure 28
1300
0000
0100
00M0
0100
0000
0001
0000
0100
0000
1000
0000
0100
0000
0010
0000
,  // measure 29
1000
0000
0001
0000
0010
0000
1000
0000
0010
0000
0100
1000
0002
0000
0000
0000
,  // measure 30
1003
0000
0010
0M00
0010
0000
0001
0000
0010
0000
1000
0000
0010
0000
0100
0000
,  // measure 31
1000
0000
0100
00M0
0100
0000
0001
0000
1000
0000
0100
00M0
0100
0000
0001
0000
,  // measure 32
0100
0000
0000
1000
0000
0000
0100
0000
0000
0010
0000
0000
1000
0000
0001
0000
1000
0000
0001
0000
0000
0010
0000
0000
,  // measure 33
0210
0000
0000
0000
0000
1000
0000
0000
0000
1300
0000
0000
0001
0000
0000
0100
0000
0000
0010
0000
0000
0100
0000
0001
,  // measure 34
0000
0000
0000
1000
0000
0100
1000
0000
0000
0001
0000
0010
0001
0000
0000
1000
0000
0000
0010
0000
0000
0100
0000
0002
,  // measure 35
0000
0000
0000
0000
0000
0000
1003
0000
0000
1000
0000
0000
0010
0000
0000
0000
0000
0110
0000
0000
0000
0000
0000
0000
,  // measure 36
0001
0000
0010
0000
0000
0100
0000
0000
0000
1000
0000
0000
1000
0000
0010
0000
0000
0200
0000
0000
0000
0000
0000
0000
,  // measure 37
0301
0000
0000
1000
0000
0000
0100
0000
0000
1000
0000
0010
1000
0000
0000
0001
0000
0100
0001
0000
0000
1000
0000
0000
,  // measure 38
0100
0000
0010
0000
0000
0001
0000
0000
0000
0001
0000
0000
0010
0000
0000
0001
0000
0000
0100
0000
0010
0000
0000
1000
,  // measure 39
0000
0000
0000
0000
0000
0000
0100
0000
0000
0010
0000
0000
0001
0000
1000
0000
0000
0001
2000
0000
0000
0000
0000
0000
,  // measure 40
3010
0000
0000
0100
0000
0000
0001
0000
0000
1000
0000
0000
0001
0000
0010
0000
0000
0200
0000
0000
0000
0000
0000
0000
,  // measure 41
1300
0000
0000
0010
0000
0000
0100
0000
0000
0001
0000
0000
1000
0000
0100
1000
0000
0100
1000
0000
0000
0000
0000
1002
,  // measure 42
0000
0000
0000
0013
0000
0000
0100
0000
0000
1000
0000
0000
0001
0000
0100
0001
0000
0100
0001
0000
0000
0000
0000
1001
,  // measure 43
0000
0000
0000
1000
0000
0000
0100
0000
0000
0010
0000
0000
0001
0000
0000
1000
0000
0001
0100
0000
0000
0000
0000
0201
,  // measure 44
0000
0000
0000
0000
,  // measure 45
0000
0000
0000
0310
0000
0000
0000
0000
1000
0000
0000
0000
1010
0000
0000
0000
0000
0000
0101
0000
0000
0000
0000
0000
,  // measure 46
1000
0000
0100
0000
0000
1000
0000
0000
0001
0100
0000
0000
0000
0000
0000
0000
0000
0000
0101
0000
0000
0000
0000
1200
,  // measure 47
0000
0000
0000
0000
,  // measure 48
0310
0001
0010
0001
1000
0001
0100
0010
1000
0002
0000
0000
,  // measure 49
0023
0000
0130
1000
0010
1000
0002
0003
,  // measure 50
0101
1000
0101
1000
0101
1000
0200
0000
,  // measure 51
0310
0000
0000
0001
0000
1000
0001
0000
0000
0100
0000
0000
0010
0000
0000
1000
0000
0000
0100
0000
0000
1000
0000
0000
,  // measure 52
1010
0001
1010
0001
1010
0001
1010
0001
,  // measure 53
0020
0000
0000
0130
1000
0100
1000
0001
1000
0010
0100
0001
,  // measure 54
0100
0001
1000
0001
0010
0100
1000
0001
0100
0020
0000
0000
,  // measure 55
1030
0000
0001
0100
0001
0000
1000
0100
1000
0000
0001
0010
0002
0000
0000
0000
,  // measure 56
1003
0000
0000
0000
0000
1010
0000
0000
0000
0001
0000
0000
0100
0000
0000
0000
0000
0101
0000
0000
0000
0000
0000
0000
,  // measure 57
0001
0000
0000
0000
0000
0011
0000
0000
0000
1000
0000
0000
0100
0000
0000
0000
0000
1100
0000
0000
0000
0001
0000
0000
,  // measure 58
0100
0000
0000
0000
0000
0110
0000
0000
0000
1000
0000
0000
0001
0000
0000
0000
0000
1001
0000
0000
0000
0110
0000
0000
,  // measure 59
1001
0000
0000
0000
;
