#TITLE:雪上断火;
#SUBTITLE:;
#ARTIST:Des-ROW・組;
#TITLETRANSLIT:Setsujou danka;
#SUBTITLETRANSLIT:;
#ARTISTTRANSLIT:;
#GENRE:;
#CREDIT:;
#MUSIC:Setsujou danka.ogg;
#BANNER:;
#BACKGROUND:;
#CDTITLE:;
#SAMPLESTART:35.622;
#SAMPLELENGTH:15.000;
#SELECTABLE:YES;
#OFFSET:0.378;
#BPMS:0.000=180.000
,212.000=105.000
,276.000=91.000
,278.000=180.000
;
#STOPS:;
#BGCHANGES:;
#FGCHANGES:;

//--------------- dance-single - ----------------
#NOTES:
     dance-single:
     :
     Beginner:
     5:
     0,0,0,0,0:
0000
0000
0000
0000
,
0000
0000
0000
0000
,
0000
0000
0000
0000
,
0000
0000
0000
0000
,
0000
0000
0000
0000
,
0000
0000
0000
0000
,
0000
0000
0000
0000
,
1001
0000
0000
0000
,
0000
0000
0000
0000
,
0020
0000
0000
0030
,
0200
0000
0000
0300
,
0001
0000
0001
0000
,
0001
0001
0001
0000
,
1000
0000
1000
0000
,
1000
1000
1000
0000
,
0010
0000
0010
0000
,
0010
0010
0010
0000
,
0100
0000
0100
0000
,
0100
0100
0100
0000
,
1001
0000
0001
0000
,
0100
0000
0010
0000
,
1001
0000
1000
0000
,
0100
0000
0010
0000
,
1001
0000
1001
0000
,
0110
0000
0110
0000
,
0001
0000
0001
0000
,
1000
0000
1000
0000
,
1000
1000
1000
0000
,
1000
1000
0100
0000
,
1000
1000
1000
0000
,
0020
0030
0200
0300
,
0001
0001
0001
0000
,
0001
0001
0010
0000
,
0001
0001
0001
0000
,
0200
0300
0020
0030
,
2002
0000
3003
0000
,
0220
0000
0330
0000
,
1000
1000
0010
0000
,
1000
1000
0100
0000
,
2002
0000
3003
0000
,
0220
0000
0330
0000
,
0001
0001
0010
0000
,
0001
0001
0100
0000
,
0001
0000
0100
0000
,
0010
0000
1000
0000
,
0001
0001
0100
0000
,
0001
0001
0010
0000
,
0001
0000
0100
0000
,
0010
0000
1000
0000
,
0001
0001
0100
0000
,
1000
1000
0100
0000
,
2002
0000
0000
0000
,
3003
0000
0000
0000
,
0001
0001
1000
1000
,
0001
1000
0001
0001
,
1000
1000
0010
0010
,
0100
0100
1001
0000
,
1000
1000
0001
0001
,
1000
0001
1000
1000
,
0001
0001
0010
0010
,
0100
0100
1001
0000
,
0001
0001
1000
1000
,
0010
0000
0100
0000
0010
0100
0010
0000
,
0100
0100
0010
0010
,
1000
0000
0001
0000
1000
0001
1000
0000
,
2002
0000
3003
0010
,
0220
0000
0000
0330
,
2002
0000
3003
0100
,
0220
0000
0000
0000
,
0330
0000
0001
0001
,
0001
0000
0001
0001
,
0100
0000
0001
0001
,
0001
0000
0020
0030
,
0200
0300
1000
1000
,
1000
0000
1000
1000
,
0010
0000
1000
1000
,
1000
0000
0200
0300
,
0020
0030
2002
0000
,
3003
0000
0220
0000
,
0330
0000
0001
0010
,
0001
0000
0001
0001
,
0100
0000
2002
0000
,
3003
0000
0220
0000
,
0330
0000
1000
0010
,
1000
0000
1000
1000
,
0100
0000
2002
0000
,
0000
0000
3003
0000
;

//--------------- dance-single - ----------------
#NOTES:
     dance-single:
     :
     Easy:
     10:
     0,0,0,0,0:
0000
0000
0000
0000
,
0000
0000
0000
0000
,
0000
0000
0000
0000
,
0000
0000
0000
0000
,
0000
0000
0000
0000
,
0000
0000
0000
0000
,
0000
0000
0000
0000
,
1001
0000
0001
0000
,
0100
0010
0010
0100
,
0002
1000
1000
1000
,
1003
0100
0010
0001
,
0011
0001
0011
0000
,
1100
1000
1100
0000
,
1000
0010
0100
0001
,
0001
0100
0010
1000
,
1100
0100
0110
0000
,
0011
0010
0110
0000
,
1000
0100
0010
0001
,
0001
0010
0100
1000
,
1000
0010
1010
0000
,
0001
0010
0011
0000
,
1000
0100
1100
0000
,
0001
0100
0101
0101
,
1010
0000
0101
0000
,
0011
0000
1100
0000
,
1100
1000
1100
0100
,
1100
1100
0011
0000
,
1001
0000
0001
0000
0100
0010
1000
0000
,
1010
0101
0011
1100
,
0110
0000
0001
0000
1000
0010
0100
0000
,
0001
0000
0010
0100
1000
0000
1000
0000
,
0001
0100
0010
1000
,
1010
0101
0011
1100
,
1010
0000
0010
0000
0100
0000
0001
0010
,
0100
0000
1000
0010
0100
0001
1000
0001
,
1000
0000
0000
1100
0000
0000
0011
0000
,
0001
0000
0000
0101
0000
0000
1010
0000
,
1000
0100
0010
0001
,
0011
0011
0101
0101
,
1001
0000
0000
0110
0000
0000
0010
0000
,
1001
0000
0000
0110
0000
0000
0100
0000
,
0010
1000
0001
0001
,
0101
0000
1100
0000
0001
0100
0020
0000
,
1030
1100
1000
1100
,
0001
0011
0001
0011
,
1000
0000
0010
0000
0100
0000
0001
0010
,
0001
0000
1000
0010
1000
0000
0100
0000
,
1000
1001
0001
1001
,
1000
1100
0110
0011
,
0001
0100
0010
1000
,
0001
0000
0100
0001
0010
0000
0100
1000
,
0020
0000
0000
0000
,
0130
0000
0100
0010
0000
0010
0100
0000
,
0001
0010
0011
0001
1000
0100
1100
1000
,
0010
0100
0110
0010
1000
0001
1001
0000
,
1000
0100
1000
0100
0010
0001
0100
0000
,
0010
0010
0100
0010
0110
1001
0110
0000
,
1000
0100
1100
1000
0001
0010
0011
0001
,
0100
0010
0110
0100
0001
1000
1001
0000
,
0001
0010
0001
0010
0100
1000
0010
0000
,
0100
0100
0010
0100
0110
1001
0110
0000
,
1000
1000
0001
0001
,
1000
1000
0001
0001
1001
0110
1001
0110
,
0001
0001
1000
1000
,
0001
0001
1000
1000
0110
1001
0110
1001
,
0002
0000
0000
0000
0000
0000
0103
0010
,
1000
1000
0001
0001
0011
0110
1100
0000
,
2000
0000
0000
0000
0000
0000
3010
0100
,
0001
0001
0010
0100
1000
1000
0010
0100
,
0010
0000
0010
0100
0000
0100
0010
0000
1001
0000
0000
0000
1000
0000
0000
0000
,
0100
0010
0001
0000
0011
0000
1100
0000
,
1010
0101
0110
1000
,
0001
0010
0100
0000
1000
0000
0010
0100
,
0001
0001
1000
0100
,
0010
0001
0011
1100
,
1010
0101
0011
0010
,
0100
0000
1000
0010
0100
0000
0001
0010
,
0100
1000
0001
1000
0001
0000
0000
0101
,
0000
0000
1010
0000
1000
0000
0000
1100
,
0000
0011
0001
0100
,
0010
1000
1010
1010
,
1100
0000
1100
0000
1001
0000
0000
0110
,
0000
0000
0010
0000
1001
0000
0000
0110
,
0000
0100
0010
0001
,
1000
1000
1100
0101
,
1000
0100
0010
0001
2000
0000
0000
0000
,
0000
0000
3000
0000
;

//--------------- dance-single - ----------------
#NOTES:
     dance-single:
     :
     Medium:
     13:
     0,0,0,0,0:
0000
0000
0000
0000
,
0000
0000
0000
0000
,
0000
0000
0000
0000
,
0000
0000
0000
0000
,
0000
0000
0000
0000
,
0000
0000
0000
0000
,
0000
0000
0000
0000
,
1001
0001
0100
0010
,
1000
0100
0010
0001
,
0100
0000
0010
0010
0010
0100
0010
0100
,
0001
0010
0100
0000
1000
0010
0100
0000
,
1001
0000
1000
0010
1000
0000
1100
0000
,
1001
0000
0001
0010
0001
0000
0101
0000
,
1000
0010
0100
0001
1000
0000
1001
0000
,
0001
0010
0100
1000
0001
0000
1001
0000
,
1010
0000
0010
0100
0001
0000
0101
0000
,
0011
0000
0010
0100
1000
0000
1100
0000
,
1000
0010
0100
0001
0010
0000
0011
0000
,
0001
0010
0100
1000
0010
0000
0110
0000
,
1001
0000
0001
0000
0100
0000
0010
1000
,
0100
0000
1000
0000
0010
0100
0001
0000
,
1001
0000
1000
0000
0100
0000
0010
0001
,
0100
0000
0001
0000
0010
0100
1000
0000
,
1100
0000
1010
0000
,
0101
0000
0011
0000
,
1100
1100
0011
0011
,
1001
0000
1001
0000
1000
0010
0100
0000
,
0101
0000
1010
0000
0001
0100
0010
1000
,
0001
0000
0010
0100
1000
0000
1000
0100
,
1000
0000
1010
0000
1100
0000
1000
0010
,
0100
0000
0001
0010
0100
0000
0100
1000
,
0010
1010
0101
1010
,
1000
0010
1000
0000
0001
0010
0100
0010
,
0001
0000
0011
0000
0011
0000
0001
0100
,
0010
0000
1000
0100
0010
0001
1000
0000
,
1001
0000
1000
0010
0000
0010
0100
0000
,
1001
0000
0001
0010
0000
0010
0100
0000
,
1000
0010
1000
0010
0100
0001
0100
0001
,
1000
0100
0010
0001
1000
0000
0110
0000
,
1001
0000
0001
0100
0000
0100
0010
0000
,
1001
0000
1000
0100
0000
0100
0010
0000
,
0001
0010
0001
0010
0100
1000
0100
1000
,
0001
0100
0001
0100
0010
0000
1001
0000
,
0001
0010
0011
1100
,
1000
0000
0010
0000
1000
0010
0100
0001
,
1000
0000
1100
0000
1000
0100
0010
0001
,
1000
0000
0010
1000
0010
0100
0001
1000
,
0001
0011
0101
1001
,
1100
0000
1010
0000
1000
0001
0100
0001
,
1000
0000
1001
0000
1000
0010
0100
0001
,
0010
0001
1000
0100
1000
0010
0100
0001
,
0020
0000
0000
0030
,
0002
0203
0320
2030
0000
0001
0002
3003
,
1000
0100
1100
1000
0010
0100
0101
0001
,
0010
0000
0100
0000
0110
0000
1001
0000
1000
0010
0100
0001
0020
0000
0230
0000
,
1300
1100
0011
0001
0101
1010
2002
3003
,
0110
0000
0010
1000
0100
0000
0010
0001
0100
0010
0100
0001
0010
0000
1001
0000
,
1000
0100
2200
3300
0001
0100
0101
1010
,
0010
0000
0100
0000
0110
0000
1001
0000
0001
0000
0010
0100
1000
0000
1000
0000
,
0001
0101
1010
1000
1100
0011
0001
0101
,
1010
0000
1000
0000
0010
0000
0100
0000
0001
0010
0100
0010
0001
0000
1001
0000
,
2000
0100
3002
0100
2003
3010
0110
2002
,
3003
0000
1000
0000
1000
0100
0010
0000
0001
0100
0010
0000
0110
0000
1001
0000
,
0010
1000
0100
0000
2200
0000
3300
0000
0010
0001
0100
0000
0101
0000
1010
0000
,
0001
0100
0001
0000
1000
0100
1000
0000
0001
0100
0010
1000
0010
0000
0110
0000
,
2001
0000
0010
0000
0100
0010
0100
0100
,
3001
0000
0011
0000
0001
0010
0001
0000
0101
0000
1000
0010
1000
0000
1010
0000
,
1002
0000
0010
0000
0100
0010
0100
0100
,
2003
3020
0230
0302
2003
3002
0023
0130
,
2000
3200
0320
0032
0000
1000
2000
3003
1100
0000
0000
0000
0011
0000
0000
0000
,
1000
0100
0010
0001
1000
0000
0010
0100
,
0001
0000
0001
0100
0001
0000
0011
0000
,
0101
0000
0001
0010
0100
0000
1000
0010
,
0100
0000
0100
0001
0010
0000
0011
0000
,
1100
0000
0011
0000
0001
0010
0001
0000
,
1000
0010
0100
0010
1000
0000
1010
0000
,
1010
0000
1000
0100
0010
0000
0001
0100
,
0010
0000
0110
0000
1001
0000
1000
0100
,
0000
0100
0010
0000
1001
0000
0001
0100
,
0000
0100
0010
0000
1000
0001
1000
0001
,
0100
0010
0100
0010
1000
0001
0010
0100
,
1000
0010
0100
0000
1001
0000
0001
0010
,
0000
0010
0100
0000
1001
0000
1000
0010
,
0000
0010
0100
0001
0010
0100
1000
0010
,
1000
0100
0010
0001
0100
0001
0010
0100
,
1000
0010
1000
0000
2002
0000
0000
0000
,
0000
0000
3003
0000
;

//--------------- dance-single - ----------------
#NOTES:
     dance-single:
     :
     Hard:
     17:
     0,0,0,0,0:
0000
0000
0000
0000
,
0000
0000
0000
0000
,
0000
0000
0000
0000
,
0000
0000
0000
0000
,
0000
0000
0000
0000
,
0000
0000
0000
0000
,
0000
0000
0000
0000
,
1001
0001
0010
0100
,
1000
0010
0100
0100
,
0210
0000
0010
0010
0010
0010
0010
0010
,
0310
1000
0010
0100
0001
1000
0100
0010
,
0011
0001
0100
0010
1010
0000
0101
0000
,
1100
1000
0010
0100
0101
0000
1010
0000
,
0011
0001
0011
0001
0101
0100
0101
0000
,
1100
1000
0001
0010
1100
0000
0011
0000
,
0101
0001
0010
0100
0110
0000
1001
0000
,
1010
1000
0100
0010
0110
0000
1001
0000
,
0101
0001
0100
0010
0110
0000
1001
0000
,
1000
0010
1000
0010
0100
0001
0100
0001
1000
0010
0100
0001
1000
0001
0010
0100
,
1000
0000
0000
0000
1000
0000
0001
0100
1000
0000
0000
0000
1000
0000
0100
0001
,
0010
0000
0000
0000
0100
0000
0010
0001
0100
0000
0010
1000
0100
0000
0010
0000
,
0001
0000
0000
0000
0001
0000
1000
0100
0001
0000
0000
0000
0001
0000
0100
1000
,
0010
0000
0000
0000
0100
0000
0010
1000
0100
0000
0010
0001
0100
0000
0000
0000
,
2001
0000
3001
0100
2000
0000
3001
0010
,
2000
0000
3001
0010
2000
0000
3001
0100
,
1000
1100
1100
0011
,
0011
0001
0011
0010
0011
0001
0100
0010
,
1001
0000
1000
0100
1000
0000
0001
0010
0001
0000
0100
0001
0100
0000
0010
0000
,
1010
1000
1100
0100
1100
1000
1010
0010
,
0100
0000
0000
0000
0101
0000
0100
0000
0010
0000
1000
0000
0001
0010
0100
0010
,
0001
0000
0001
0000
1000
0010
0100
0010
1000
0000
1000
0000
0100
0000
0010
0000
,
1001
0000
0001
0010
0001
0000
1000
0100
1000
0000
0010
1000
0010
0000
0100
0000
,
0101
0001
0011
0010
0011
0001
0101
0100
,
0010
0000
0000
0000
1010
0000
0010
0000
0100
0000
0001
0000
1000
0100
0010
0100
,
1000
0000
1000
0000
0001
0100
0010
0100
0001
0000
0001
0000
0100
0000
0010
0000
,
1000
0000
0100
0000
1000
0000
0100
0000
0010
0000
0001
0000
0100
0000
0001
0000
0100
0000
0010
0000
0000
1000
0000
0000
,
1000
0000
0010
0000
1000
0000
0001
0000
0100
0000
0001
0000
0010
0000
0000
0100
0000
0000
1000
0000
0000
0000
0000
0000
,
0001
0000
0100
0000
0001
0000
0100
0000
0010
0000
1000
0000
0100
0000
1000
0000
0100
0000
0010
0000
0000
0001
0000
0000
,
0001
0000
0010
0000
0001
0000
1000
0000
0100
0000
1000
0000
0010
0000
0000
0100
0000
0000
0001
0000
0000
0000
0000
0000
,
1000
0010
0100
0001
0010
0100
1000
0010
0100
0010
0100
0001
,
0010
0000
0010
0000
0001
1000
0000
0000
0010
0000
0100
0000
0010
0000
0100
0000
,
0001
0000
0010
0100
1000
0000
0100
0010
0001
0000
0100
0010
1000
0000
0010
0100
,
0001
0000
1000
0001
0010
0000
0100
0010
0001
0000
0001
0000
0002
0000
0000
0000
,
1003
0010
1010
0000
1000
0100
1100
0000
,
0001
0000
0010
0000
0011
0000
0000
0000
0001
0000
0100
0001
0100
0000
0001
0000
,
1001
0000
0000
0000
1001
0000
0000
0000
1001
0000
1000
0000
0001
0100
0001
0100
,
0010
0000
0010
0000
1000
0100
1000
0100
0010
0000
0010
0000
0100
0000
0010
0000
,
0001
0010
1001
0000
1000
0010
1001
0000
,
0001
0100
1001
0000
1000
0100
1001
0000
,
0011
0000
0000
0000
0011
0000
0000
0000
0011
0000
0001
0000
1000
0010
0100
0001
,
0100
0000
0010
1000
0001
0000
0100
0001
1000
0000
1000
0100
0010
0000
0001
0100
,
0020
0000
0000
0030
,
2000
3200
0320
0032
0000
0100
2000
3003
,
0001
0000
0010
0000
1100
0000
1000
0000
0001
0010
0100
0000
1000
1100
0000
0001
,
0010
0000
0000
0000
0000
0000
0011
0000
0000
0000
0000
0000
0101
0000
0000
0000
0000
0000
1010
0000
0000
0000
0000
0000
1000
0000
0000
0010
0000
0000
0100
0000
0000
0001
0000
0000
0100
0000
0010
0000
0100
0000
0020
0000
0000
2030
0000
0000
,
3001
0000
0010
0001
0101
0000
1000
0010
1000
0100
1000
0000
0001
0010
0001
0100
,
0001
0000
0000
0000
0000
0000
1000
0000
0001
0000
1000
0000
0001
0000
0000
0100
0000
0000
0001
0000
0000
0010
0000
0000
0100
0000
0000
1000
0000
0000
0010
0000
0000
0100
0000
0000
0010
0000
0000
0000
0000
0000
0110
0000
0000
0000
0000
0000
,
1001
0000
1000
0000
2200
0000
3300
0000
1010
0000
0101
0000
0010
1000
0001
0000
,
0011
0000
0000
0000
0000
0000
0001
0000
0000
0100
0000
0000
0010
0000
0000
1000
0000
0000
0001
0000
0000
0010
0000
0000
0001
0000
1000
0000
0001
0000
1000
0000
0000
0010
0000
0000
0100
0000
0000
0001
0000
0000
0010
0000
0000
0100
0000
0000
,
1000
0000
0000
0100
0000
0000
1000
0000
0000
0010
0000
0000
1000
0000
0000
0001
0000
0000
0100
0000
0000
0001
0000
0000
0010
0000
0001
0000
0100
0000
0010
0000
0000
1000
0000
0000
1010
0000
0000
0000
0000
0000
0001
0000
0000
0010
0000
0000
,
0011
0000
1100
0000
1010
0000
0101
0000
0001
0010
0100
1000
0001
0000
1001
0000
,
1000
0010
0100
0001
1000
0010
0100
0000
0001
0010
0011
0000
1000
1100
0000
0000
,
1001
0000
0011
0000
1100
0000
1010
0000
0001
0100
0010
1000
0001
0000
1001
0000
,
1000
0010
0100
0000
0010
1000
0100
0000
0010
0001
0101
0000
1000
1010
0000
0000
,
1000
0100
0010
0001
1000
0010
0100
0001
0010
1000
0010
0001
1000
0000
1100
0000
,
2001
0010
0001
0100
0100
0001
0010
3010
,
1001
0000
0110
0000
1001
1000
0100
0010
0001
0000
0100
0001
0010
0000
0110
0000
,
1002
0010
1000
0100
0100
1000
0010
0013
,
1001
0000
0110
0000
1001
0000
1000
0010
0100
0001
0010
0100
0010
0000
0110
0000
,
0002
0203
0320
2030
0000
0100
3001
0000
1001
0000
0001
0100
0001
0000
1000
0010
,
1000
0000
0100
1000
0100
0000
0010
0000
0011
0000
0001
0000
0101
0000
0100
0000
,
0101
0001
0011
0010
0100
0000
1100
0100
,
0010
0000
0001
0000
1000
0010
0100
0010
1000
0000
1000
0000
0001
0010
0100
0010
,
0001
0000
0001
0000
0100
0000
0010
0000
1001
0000
1000
0010
1000
0000
0001
0100
,
0001
0000
0010
0001
0010
0000
0100
0000
1100
0000
1000
0000
1010
0000
0010
0000
,
1010
1000
1100
0100
0010
0000
0011
0010
,
0100
0000
1000
0000
0001
0100
0010
0100
0001
0000
0001
0000
1000
0100
0010
0100
,
1000
0000
0001
0000
0100
0000
0010
0000
2000
0000
0000
0000
3001
0010
0200
0000
,
0000
0000
0310
0000
1001
0000
0000
0000
0002
0000
0000
0000
1003
0010
0200
0000
,
0000
0000
0000
0310
0000
0000
1001
0000
0000
1000
0000
0000
0001
0000
0010
0000
0100
0000
1000
0000
0001
0000
0100
0000
,
0010
0000
0000
0000
1000
0000
0000
0000
0010
0000
0000
0000
1000
0000
0000
0000
0100
0000
0000
0000
0010
0000
0000
0000
0001
0000
0000
0000
0000
0000
1000
0000
0000
0001
0000
0000
0100
0000
0000
0000
0000
0000
0010
0000
0000
0000
0000
0000
,
1000
0000
0001
1000
0100
0000
0010
0000
0002
0000
0000
0000
1003
0010
0200
0000
,
0000
0000
0310
0000
1001
0000
0001
0000
2000
0000
0000
0000
3001
0010
0200
0000
,
0000
0000
0000
0310
0000
0000
1001
0000
0000
1000
0000
0000
0001
0000
0100
0000
0010
0000
1000
0000
0010
0000
0100
0000
,
0001
0000
0000
0000
0010
0000
0000
0000
0100
0000
0000
0000
1000
0000
0000
0000
0100
0000
0000
0000
0010
0000
0000
0000
0001
0000
0000
0000
0000
0000
1000
0000
0000
0010
0000
0000
0100
0000
0000
0000
0000
0000
1000
0000
0000
0000
0000
0000
,
0001
0000
0010
0100
0001
0000
0010
0000
0200
0000
0000
0000
0000
0000
0000
0000
,
0000
0000
0300
0000
;
