#TITLE:サヨナラ・ヘヴン;
#SUBTITLE:-GITADOROCK ver.-;
#ARTIST:Mutsuhiko Izumi;
#TITLETRANSLIT:Sayonara Heaven;
#SUBTITLETRANSLIT:;
#ARTISTTRANSLIT:;
#GENRE:;
#CREDIT:;
#BANNER:Sayonara Heaven -GITADOROCK ver.-.png;
#BACKGROUND:Sayonara Heaven -GITADOROCK ver.--bg.png;
#LYRICSPATH:;
#CDTITLE:;
#MUSIC:Sayonara Heaven -GITADOROCK ver.-.ogg;
#OFFSET:1.285000;
#SAMPLESTART:54.838150;
#SAMPLELENGTH:12.000000;
#LASTBEATHINT:0.644000;
#SELECTABLE:YES;
#BPMS:0.000000=140.000000
;
#STOPS:
;
#BGCHANGES:4.000=Sayonara Heaven -GITADOROCK Ver.-.mp4=1.000=0=0=1=====,
99999=-nosongbg-=1.000=0=0=0 // don't automatically add -songbackground-
;
#KEYSOUNDS:;
#ATTACKS:;

//---------------dance-single - ----------------
#NOTES:
     dance-single:
     :
     Hard:
     15:
     0.753461,0.853633,0.315031,0.172759,0.741847,519.000000,488.000000,31.000000,17.000000,0.000000,0.000000,0.753461,0.853633,0.315031,0.172759,0.741847,519.000000,488.000000,31.000000,17.000000,0.000000,0.000000:
// measure 0
0000
0000
0000
0000
,  // measure 1
0000
0000
0000
0000
,  // measure 2
0000
0000
0000
0000
,  // measure 3
0000
0000
0000
0000
,  // measure 4
0000
0000
0000
0000
0000
0000
0001
0100
,  // measure 5
0010
0000
0000
1000
0001
0000
1000
0000
0100
0000
0000
1000
0001
0000
1000
0000
,  // measure 6
0100
0000
0000
1000
0001
0000
1000
0000
0100
0000
0000
0000
1000
0000
0100
0000
,  // measure 7
0010
0000
0000
0001
1000
0000
0001
0000
0100
0000
0100
0000
0010
0000
0010
0000
,  // measure 8
1001
0000
0001
0100
0001
0000
1000
0000
0100
0000
0010
0001
1000
0000
1010
0000
,  // measure 9
1010
0000
0000
0001
0100
0000
0001
0000
1000
0000
0100
0010
0001
0000
1000
0000
,  // measure 10
0020
0000
0000
0000
0130
0001
0100
0000
0001
1000
0001
0000
1000
0100
1000
0000
,  // measure 11
0001
0010
0100
1000
0020
0000
0000
0000
1030
0001
1000
0001
0100
0010
0100
0010
,  // measure 12
1000
0000
0000
0001
0010
0000
0001
0000
1000
0010
0100
0000
0010
0100
0001
0000
,  // measure 13
1000
0100
0010
0001
0200
0000
0000
0000
0310
0000
1000
0000
0001
0000
0011
0000
,  // measure 14
1000
0000
0000
1000
0010
0000
0100
0000
0001
0010
0100
0010
0100
1000
0020
0000
,  // measure 15
0000
0000
0130
0001
0100
0001
1000
0000
1100
0000
0000
0000
1001
0000
0001
0100
,  // measure 16
0010
0000
1000
0100
0000
1000
0100
0000
0010
0000
0001
1000
0001
0000
0100
0000
,  // measure 17
0010
0000
0001
0000
0010
0000
1000
0000
0100
0000
0010
0001
2000
0000
0000
0000
,  // measure 18
3010
0000
0000
0010
1000
0000
0100
0000
0010
0000
0000
0010
0001
0000
1000
0000
,  // measure 19
0010
0000
0000
1000
0100
0000
0010
0000
0001
0000
1000
0001
1000
0001
0100
0010
,  // measure 20
0100
0000
0001
0100
0000
0001
0100
0000
0010
0000
1000
0001
1000
0000
0100
0000
,  // measure 21
0010
0000
1000
0000
0010
0000
0001
0000
0100
0000
0010
1000
0002
0000
0000
0000
,  // measure 22
0013
0000
0000
0010
0001
0000
0100
0000
0010
0000
0000
0010
1000
0000
0001
0000
,  // measure 23
1000
0000
0000
0000
0100
0000
0000
0000
1000
0000
0000
0000
0001
0000
0000
0000
0100
0000
0000
0000
0001
0000
0000
0000
0010
0000
0000
0000
0000
0000
0000
0000
0000
0000
0000
0000
1001
0000
0000
0000
0000
0000
0001
0000
0000
0100
0000
0000
,  // measure 24
0020
0000
0000
2030
0000
0000
3100
0000
0100
0000
1100
0000
1001
0000
1000
0010
,  // measure 25
0200
0000
0000
0302
0000
0000
0013
0000
0010
0000
0011
0000
1001
0000
0001
0100
,  // measure 26
0010
0000
1000
0100
0000
0100
0010
0000
1000
0000
0010
0001
0100
0000
0010
0000
,  // measure 27
0210
0000
0000
0000
1000
0000
0000
0000
0010
0000
0000
0000
0301
1000
0001
1000
,  // measure 28
0001
0000
1000
0100
0000
0001
0100
0000
1000
0000
1100
0000
1001
0000
0001
0100
,  // measure 29
0010
0000
1000
0010
0000
0001
0010
0000
1000
0000
1010
0000
1001
0000
1000
0100
,  // measure 30
0010
0000
0001
0100
0000
0100
0010
0000
0001
0000
0010
1000
0100
0000
0010
0000
,  // measure 31
0220
0000
0000
0330
,  // measure 32
0001
0000
0010
0000
0001
0000
0000
0000
1000
0000
0010
0000
1000
0000
0000
0000
0000
0000
0001
0000
0000
0100
0000
0000
,  // measure 33
1001
0000
0000
0001
0100
0001
0100
0000
0010
0000
0000
1000
0100
1000
0100
0000
,  // measure 34
0010
0000
0000
0001
0100
0001
0100
0000
0010
0000
1000
0100
0010
0000
0001
0000
,  // measure 35
1000
0000
0000
0001
0010
0001
0010
0000
0100
0000
1000
0010
0100
0000
0001
0000
,  // measure 36
0101
0000
1000
0000
1001
0000
1001
0000
0100
0000
0000
0000
1000
0100
0010
0001
,  // measure 37
1000
0000
0000
0001
0100
0010
0100
0000
0010
0000
0000
1000
0100
0010
0100
0000
,  // measure 38
0010
0000
0000
0001
0100
0010
0100
0000
0010
0000
1000
0001
1000
0000
0100
0000
,  // measure 39
0010
0000
0000
0001
1000
0001
1000
0000
0010
0000
0100
0000
0001
0000
1000
0000
,  // measure 40
1100
0000
0100
0000
1001
0000
1001
0000
0001
0100
0010
1000
0100
0010
0001
0000
,  // measure 41
1000
0010
0100
0010
1000
0010
0100
0000
0001
0010
0100
0010
0001
0010
0100
0000
,  // measure 42
1000
0001
0100
0001
1000
0001
0100
0000
0010
0000
1000
0100
0010
0000
0001
0000
,  // measure 43
1000
0100
1000
0100
0010
0001
1000
0000
0001
0100
0001
0100
0010
1000
0100
0000
,  // measure 44
1000
0000
0010
0000
0001
0000
0010
0000
1000
0000
0001
0010
0100
0000
1000
0000
,  // measure 45
0001
0100
0010
0000
0010
0000
1000
0100
0010
0000
0010
0000
0001
1000
0001
0000
,  // measure 46
1000
0010
0100
0000
0100
0000
0001
0010
0100
0000
0100
0000
1000
0001
1000
0000
,  // measure 47
0001
0100
0010
0000
1000
0100
0010
0000
0001
0100
0010
0000
1000
0100
0010
0000
,  // measure 48
2002
0000
0000
3003
,  // measure 49
0001
0100
0110
0000
1000
0100
0110
0000
,  // measure 50
0001
0100
0001
0000
1000
0100
1000
0000
0001
0100
0010
0000
1000
0100
0010
0000
,  // measure 51
0001
0000
0011
0000
1001
0000
0000
0000
1000
0000
1010
0000
0001
0010
0100
0000
,  // measure 52
1000
0100
0010
0100
0010
0000
0001
0100
0010
0100
0010
0000
1000
0001
1000
0000
,  // measure 53
0001
0010
0100
0010
0001
0000
1000
0010
0100
0010
1000
0000
0001
1000
0001
0000
,  // measure 54
1000
0100
1000
0100
0010
0001
0010
0001
1000
0010
0100
0001
0010
0100
1000
0001
,  // measure 55
1000
0100
0001
0010
1000
0000
2002
0000
,  // measure 56
3003
0000
0000
0000
;

//---------------dance-single - ----------------
#NOTES:
     dance-single:
     :
     Challenge:
     17:
     0.907348,1.024359,0.386167,0.162597,1.102609,625.000000,587.000000,38.000000,16.000000,0.000000,0.000000,0.907348,1.024359,0.386167,0.162597,1.102609,625.000000,587.000000,38.000000,16.000000,0.000000,0.000000:
0000
0000
0000
0000
,
0000
0000
0000
0000
,
0000
0000
0000
0000
,
0000
0000
0000
0000
,
0000
0000
0000
0000
0000
0000
1000
0001
,
1001
0000
0000
0001
1000
0001
0100
0000
0001
0000
0000
1000
0001
1000
0100
0000
,
1000
0000
0000
0001
1000
0001
0100
0000
0001
0000
0000
0000
0100
0000
0010
0000
,
1001
0000
0000
1000
0100
0010
0001
0000
0100
0000
0100
0000
0010
0000
0010
0000
,
1001
0000
0001
0100
0010
0000
1000
0000
0001
0000
1000
0100
0310
0000
0011
0000
,
1001
0000
1000
0010
0100
0000
0001
0000
1000
0000
0100
0010
0001
0000
0202
0000
,
0000
0000
0303
0000
1303
0100
1000
0001
0100
0001
1000
0100
0010
0001
0100
0010
,
1000
0100
0010
0001
0200
0000
0000
0000
0301
1000
0001
1000
0100
0010
0100
0010
,
0002
0000
0000
0000
1003
0100
1000
0100
0010
0001
1000
0010
0100
0010
1000
0100
,
0010
0001
0100
0010
0200
0000
0000
0000
0301
0010
0100
1000
0010
0000
0220
0000
,
0000
0000
0030
0000
0301
0000
1000
0100
0010
0001
0100
0010
1000
0001
0020
0000
,
0000
0000
0130
1000
0001
1000
0010
0000
1010
0000
0000
0000
0101
0000
1000
0100
,
0001
0000
0100
0010
0000
0100
0010
0000
0001
1000
0001
1000
0010
0000
0100
0000
,
0101
0000
0001
0100
1000
0000
0100
0000
0010
0100
0001
1000
0200
0000
0010
0000
,
1300
0000
0001
0100
0010
0000
1000
0000
0001
0010
0100
0010
0001
0000
1000
0000
,
1010
0000
0001
0100
0010
0000
1000
0000
1001
0000
0001
0100
0010
1000
0001
0010
,
1000
0000
0010
0100
0000
0010
0100
0000
1000
0001
1000
0001
0100
0000
0010
0000
,
1010
0000
1000
0010
0001
0000
0010
0000
0100
0010
1000
0001
0020
0000
0100
0000
,
0031
0000
1000
0010
0100
0000
0001
0000
1000
0100
0010
0001
1000
0000
0001
0000
,
0100
0000
0000
0000
0010
0000
0000
0000
0100
0000
0000
0000
0001
0000
0000
0000
0010
0000
0000
0000
0100
0000
0000
0000
1000
0000
0000
0000
0000
0000
0000
0000
0000
0000
0000
0000
1001
0000
0000
0000
0000
0000
0001
0000
0000
0100
0000
0000
,
0010
1000
0001
1000
0100
0000
0010
0000
0001
0000
0011
0000
1001
0000
1000
0010
,
0100
0001
1000
0001
0010
0000
0100
0000
1000
0000
1100
0000
1001
0000
0001
0100
,
0010
0000
0000
1000
0000
0000
0100
0000
0000
0010
0000
0000
0001
0000
0000
0000
0000
0000
1000
0000
0000
0000
0000
0000
0010
0000
0000
0000
0000
0000
1000
0000
0001
0000
1000
0000
0001
0000
0000
0000
0000
0000
0010
0000
0000
0000
0000
0000
,
0001
0100
0000
0100
0010
0000
1000
0000
0100
0000
0010
0000
0001
1000
0001
1000
,
0010
0100
0001
0100
0010
0000
1000
0000
0100
0000
1100
0000
0011
0000
1000
0001
,
0100
0010
1000
0010
0100
0000
0001
0000
0010
0000
0011
0000
1100
0000
1000
0010
,
0100
0000
0000
0001
0000
0000
0010
0000
0000
0100
0000
0000
1000
0000
0000
0000
0000
0000
0001
0000
0000
0000
0000
0000
0100
0000
0000
0000
0000
0000
0001
0000
1000
0000
0001
0000
1000
0000
0000
0000
0000
0000
0100
0000
0000
0000
0000
0000
,
0020
1000
0100
0031
,
1000
0000
0010
0000
1010
0000
0000
0000
0001
0000
0010
0000
0011
0000
0000
0000
0000
0000
1000
0000
0000
0001
0000
0000
,
1001
0000
1000
0010
0100
0010
0001
0000
0010
0000
1000
0010
0100
0010
0001
0000
,
0010
0000
1000
0010
0100
0010
0001
0000
0010
0000
1000
0100
0010
0000
0001
0000
,
1000
0000
0001
0100
0010
0100
1000
0000
0100
0000
0001
0010
0100
0000
1000
0000
,
0010
0000
0100
0000
0110
0000
0110
0000
1001
0000
0000
0000
1000
0100
0010
0001
,
1000
0000
0001
0100
1000
0100
0010
0100
0001
0000
1000
0100
0010
0100
0001
0100
,
1000
0000
0001
0100
0010
0100
1000
0100
0001
0000
1000
0100
0010
0000
0001
0000
,
1000
0000
0001
0010
1000
0010
0100
0010
0001
0000
1000
0010
0100
0000
0001
0000
,
0010
0000
0100
0000
0110
0000
0110
0000
1000
0001
1000
0001
0100
0010
0100
0010
,
1000
0000
0100
0000
0010
0000
0001
1000
0001
0000
0100
0000
0010
0000
1000
0000
0001
0000
0010
0000
0100
0000
1000
0001
1000
0000
0010
0000
0100
0000
0001
0000
,
1000
0000
0100
0000
0010
0000
0001
1000
0001
0000
0100
0000
0010
0000
1000
0000
0100
0000
0010
0000
0100
0000
0010
0000
0001
0000
1000
0000
0001
0000
1000
0000
,
0001
0000
0100
0000
0010
0000
1000
0001
1000
0000
0010
0000
0100
0000
0001
0000
1000
0000
0100
0000
1000
0000
0100
0000
0010
0000
0001
0000
0010
0000
0001
0000
,
1000
0010
0100
0001
0010
0100
1000
0010
0200
0000
0010
0000
0301
1000
0001
0000
,
1000
0010
0100
0010
0100
0010
1000
0100
0010
0100
0010
0100
1000
0010
0100
0100
,
0001
0010
0100
0010
0100
0010
0001
0100
0010
0100
0010
0100
0001
0010
0100
0100
,
1000
0010
1000
0010
0000
0000
0100
0001
0100
0001
0000
0000
1000
0100
1000
0100
0000
0000
0010
0001
0010
0001
0000
0000
,
2002
0000
0000
3003
,
0001
0100
1001
0000
1000
0100
1001
0000
,
0001
0100
0010
1000
0100
1000
0010
0100
0001
1000
0100
0010
0001
0100
0010
1000
,
0100
0000
1100
0000
1001
0000
0010
0000
0110
0000
1001
0000
0001
0010
0100
1000
,
0001
0100
1000
0100
1000
0100
0010
0100
1000
0100
1000
0100
0010
1000
0001
0000
,
1000
0100
0001
0100
0001
0100
0010
0100
0001
0100
0001
0100
0010
0001
1000
0000
,
0001
0100
0001
0100
0000
0000
0010
1000
0010
1000
0000
0000
0001
0010
0001
0010
0000
0000
0100
1000
0100
1000
0000
0000
,
0001
0100
1000
0010
0001
0000
2002
0000
,
3003
0000
0000
0000
;

//---------------dance-single - ----------------
#NOTES:
     dance-single:
     :
     Medium:
     12:
     0.538601,0.597543,0.243895,0.233733,0.309950,371.000000,347.000000,24.000000,23.000000,0.000000,0.000000,0.538601,0.597543,0.243895,0.233733,0.309950,371.000000,347.000000,24.000000,23.000000,0.000000,0.000000:
0000
0000
0000
0000
,
0000
0000
0000
0000
,
0000
0000
0000
0000
,
0000
0000
0000
0000
,
0000
0000
0000
0000
0000
0000
1000
0001
,
1000
0000
0000
0001
0100
0000
0000
0000
0001
0000
0000
1000
0100
0000
0000
0000
,
1000
0000
0000
0001
0100
0000
0000
0000
0020
0000
0000
0000
1030
0000
0001
0000
,
1000
0000
0000
0001
0010
0000
0000
0000
0001
0000
1000
0000
0010
0000
0100
0000
,
1001
0000
0000
0001
0100
0000
0000
0000
0001
0000
0000
1000
0100
0000
0010
0000
,
0010
0000
0000
0001
1000
0000
0000
0000
0001
0000
0000
1000
0010
0000
0100
0000
,
0002
0000
1003
0100
0010
0100
0001
0100
,
1000
0000
0010
0000
0200
0000
0000
0000
0301
1000
0001
0000
0010
0000
0000
0000
,
2001
0000
3001
0100
0010
0100
1000
0100
,
0010
0100
0002
0000
0013
0100
2000
0000
,
3001
0100
0010
0000
1000
0100
0010
0000
,
0001
1000
0010
0100
0110
0000
1001
0000
,
1000
0000
0000
0001
0000
0000
0100
0000
0020
0000
0000
0000
1030
0000
0001
0000
,
1000
0100
0010
0001
0100
0010
0200
0000
,
0301
0000
0000
0000
1000
0000
0100
0000
0010
0000
0000
0010
0000
0000
0001
0000
,
0100
0000
0000
0100
0000
0000
0010
0000
1000
0000
0001
1000
3001
0000
0100
0000
,
0101
0000
0000
1000
0000
0000
0100
0000
0020
0000
0000
0000
0331
0000
1000
0000
,
0001
0100
0010
1000
0100
0010
0200
0000
,
1330
0000
0000
0000
0001
0000
0100
0000
0010
0000
0000
0010
0000
0000
1000
0000
,
0001
0100
0001
1003
0100
1000
0010
0000
0000
1001
0000
0000
,
0001
0000
0000
0001
0000
0000
0100
0000
0010
0000
0100
0000
0110
0000
0000
0000
,
1000
0000
0000
1000
0000
0000
0100
0000
0010
0000
0100
0000
0110
0000
0000
0000
,
0001
0000
0000
0001
0000
0000
1000
0000
0020
0000
0000
0000
0130
0000
0001
0000
,
2000
0100
0001
3010
,
1010
0000
0000
0010
0000
0000
0100
0000
0001
0000
1000
0000
1100
0000
0000
0000
,
0011
0000
0000
0010
0000
0000
0100
0000
1000
0000
0001
0000
0101
0000
0000
0000
,
1001
0000
0000
1000
0000
0000
0100
0000
0010
0000
0001
1000
0001
0000
0100
0000
,
0020
2030
3002
1033
,
1000
0100
1000
0000
0001
0100
0001
0000
0000
0110
0000
0000
,
1001
0000
0000
0001
0100
0000
0010
0000
0010
0000
0000
1000
0100
0000
0010
0000
,
0010
0000
0000
0001
0100
0000
0010
0000
0020
0000
0000
0000
1030
0000
0001
0000
,
1000
0000
0000
0001
0100
0000
0010
0000
1000
0000
0100
0000
0001
0000
0100
0000
,
1000
0010
0001
0010
0200
0000
0301
1000
,
1001
0000
0000
1000
0010
0000
0100
0000
0100
0000
0000
0001
0010
0000
0100
0000
,
0100
0000
0000
1000
0010
0000
0100
0000
0200
0000
0000
0000
0301
0000
1000
0000
,
0001
0000
0000
1000
0010
0000
0100
0000
0001
0000
0010
0000
1000
0000
0010
0000
,
0001
0000
0100
0000
1000
0000
0100
0000
0010
0100
0010
0000
1030
0000
0001
0000
,
1000
0000
0000
0001
0100
0001
0100
0000
0010
0000
0000
1000
0100
1000
0100
0000
,
0010
0000
0000
0001
0100
0001
0100
0000
0010
0000
1000
0000
0100
0000
0010
0000
,
0001
0000
0000
1000
0001
1000
0001
0000
0100
0000
0100
0000
0010
0000
0010
0000
,
1000
0100
0001
0100
2000
0000
3001
1000
,
0001
0100
0000
0000
0000
0000
0001
0100
0000
0000
0000
0000
0101
0000
0001
0000
,
1000
0100
0000
0000
0000
0000
1000
0100
0000
0000
0000
0000
1100
0000
1000
0000
,
0001
0010
0000
0000
0010
0100
0000
0000
0100
1000
0000
0000
1000
0010
0000
0000
,
2002
0000
0000
3003
,
1000
0001
0100
0000
0001
1000
0100
0000
,
1000
0100
0010
0001
0100
0010
1000
0001
,
0010
0100
0110
0000
0010
0100
0110
0000
,
1000
0100
0000
0000
1000
0000
0001
0000
1000
0000
0001
0000
0101
0000
0000
0000
,
0001
0100
0000
0000
0001
0000
1000
0000
0001
0000
1000
0000
1100
0000
0000
0000
,
0001
0100
0000
0000
0100
0010
0000
0000
0010
1000
0000
0000
1000
0001
0000
0000
,
1000
0100
0001
0010
1000
0000
2002
0000
,
3003
0000
0000
0000
;

//---------------dance-single - ----------------
#NOTES:
     dance-single:
     :
     Easy:
     8:
     0.360035,0.455271,0.233733,0.416654,0.071136,248.000000,225.000000,23.000000,41.000000,0.000000,0.000000,0.360035,0.455271,0.233733,0.416654,0.071136,248.000000,225.000000,23.000000,41.000000,0.000000,0.000000:
0000
0000
0000
0000
,
0000
0000
0000
0000
,
0000
0000
0000
0000
,
0000
0000
0000
0000
,
0000
0000
0000
0000
0000
0000
1000
0001
,
2000
3100
2000
3001
,
2000
0000
3100
0000
0110
0000
3331
1000
,
0002
0000
0103
0000
0001
1000
0001
0000
,
2002
0000
3003
0000
1000
0000
0100
0010
,
0100
0000
0010
0000
0001
0000
1000
0010
,
2000
0000
3000
0000
0001
0100
0001
0000
,
1000
0100
1000
0000
0002
0000
2003
0000
,
3100
0000
0010
0000
0001
0010
0001
0000
,
1000
0010
1000
0000
0001
0100
0001
0000
,
2000
0000
3000
0000
0100
0010
0100
0000
,
2000
3002
0103
0000
,
0001
0000
0000
0001
0000
0000
0001
0000
2000
0000
0000
0000
3010
0000
0000
0000
,
1000
0000
0100
0010
0002
0000
2003
0000
,
3010
0000
0000
1000
0100
0000
1001
0000
,
0002
0000
0203
0000
0310
1000
0001
0000
,
1000
0000
0000
1000
0000
0000
1000
0000
0002
0000
0000
0000
0103
0000
0000
0000
,
0001
0000
0010
0100
2000
0000
3002
0000
,
0103
0000
0000
0001
0010
0000
1001
0000
,
0110
1001
2002
3003
,
1000
0100
0010
0000
0001
0000
0000
0000
,
0001
0100
0010
0000
1000
0000
0000
0000
,
1000
0001
1000
0000
0200
0000
0320
0000
,
0032
0000
0000
0003
,
1000
0001
1000
0000
0001
0100
0100
0000
,
0001
1000
0001
0000
1000
0100
0100
0000
,
1000
0001
1000
0000
0002
0000
0203
0000
,
0320
0000
0000
0000
,
1030
0000
1000
0000
0001
0000
0001
0000
0000
0000
0000
0000
,
1001
0000
0000
0001
0100
0000
0000
0000
0001
0000
0000
1000
0100
0000
0000
0000
,
1000
0000
0000
0001
0100
0000
0000
0000
0020
0000
0000
0000
0030
0000
0000
0000
,
1000
0000
0000
0001
0100
0000
0000
0000
0001
0000
0000
1000
0100
0000
0000
0000
,
1000
0100
0010
0000
0002
0000
0003
0000
,
1001
0000
0000
1000
0010
0000
0000
0000
1000
0000
0000
0001
0010
0000
0000
0000
,
0001
0000
0000
1000
0010
0000
0000
0000
0200
0000
0000
0000
0300
0000
0000
0000
,
0001
0000
0000
1000
0010
0000
0000
0000
1000
0000
0000
0001
0010
0000
0000
0000
,
0001
0010
0100
0000
2000
0000
3000
0000
,
0001
0100
0000
0110
0000
1001
0000
1000
,
0100
0010
0000
0110
0000
1001
0000
0001
,
0100
0010
0000
0110
0000
1001
0000
1000
,
0010
0100
0010
0100
0002
0000
0003
0000
,
1000
0000
0000
1000
0000
0000
0110
0000
,
0001
0000
0000
0001
0000
0000
0110
0000
,
1001
0110
1001
0110
,
2002
0000
0000
3003
,
1000
0001
0100
0000
,
0001
0100
0001
0000
1000
0100
1000
0000
,
0001
0010
0100
0000
0000
0000
0000
0000
,
1000
0000
0000
1000
0000
0000
1000
0001
,
0100
0000
0000
0100
0000
0000
0100
0010
,
2000
3200
0320
0032
,
1003
0100
0001
0010
1000
0000
2002
0000
,
3003
0000
0000
0000
;

//---------------dance-single - ----------------
#NOTES:
     dance-single:
     :
     Beginner:
     4:
     0.155338,0.226619,0.050811,0.000000,0.000000,107.000000,102.000000,5.000000,0.000000,0.000000,0.000000,0.155338,0.226619,0.050811,0.000000,0.000000,107.000000,102.000000,5.000000,0.000000,0.000000,0.000000:
0000
0000
0000
0000
,
0000
0000
0000
0000
,
0000
0000
0000
0000
,
0000
0000
0000
0000
,
0000
0000
0000
0000
,
1000
0000
1000
0000
,
1000
1000
1000
0000
,
0001
0000
0001
0000
,
1001
0000
0000
0000
,
0001
0000
0000
0000
,
0100
0000
0100
0000
,
0100
0000
0000
0000
,
0010
0000
0010
0000
,
0010
0000
0000
0000
,
1000
0000
0000
0000
,
0001
0000
0000
0000
,
0010
0010
0010
0000
,
0010
0010
0010
0000
,
0100
0000
0000
0000
,
1000
0000
0000
0000
,
0001
0001
0001
0000
,
0001
0001
0001
0000
,
0100
0000
0000
0000
,
0010
0000
0010
0000
,
1000
1000
0000
0000
,
0001
0001
0000
0000
,
0010
0000
0010
0000
,
0010
0000
0000
0000
,
0001
0001
0000
0000
,
1000
1000
0000
0000
,
0010
0000
0010
0000
,
0010
0000
0000
0000
,
1001
0000
0000
0000
,
1001
0000
1000
0000
,
1000
1000
1000
0000
,
0100
0000
0100
0000
,
0100
0100
0000
0000
,
0010
0000
0010
0000
,
0010
0010
0010
0000
,
0001
0000
0001
0000
,
0001
0001
0000
0000
,
0100
0100
0100
0100
,
0100
0100
0100
0000
,
0010
0010
0010
0010
,
0010
0010
0010
0000
,
1000
0000
1000
0000
,
1000
0000
0000
0000
,
0001
0000
0001
0000
,
1001
0000
0000
0000
,
0010
0000
0000
0000
,
0100
0000
0100
0000
,
0100
0000
0000
0000
,
1000
1000
1000
0000
,
0010
0010
0010
0000
,
0100
0000
0100
0000
,
0010
0010
0000
1001
;

//---------------dance-double - ----------------
#NOTES:
     dance-double:
     :
     Challenge:
     17:
     0.889926,0.967450,0.304869,0.172759,1.092446,613.000000,583.000000,30.000000,17.000000,0.000000,0.000000,0.889926,0.967450,0.304869,0.172759,1.092446,613.000000,583.000000,30.000000,17.000000,0.000000,0.000000:
00000000
00000000
00000000
00000000
,
00000000
00000000
00000000
00000000
,
00000000
00000000
00000000
00000000
,
00000000
00000000
00000000
00000000
,
00000000
00000000
00000000
00000000
00000000
00000000
00010000
00001000
,
00010000
00000000
00000000
00000010
00010000
00000010
00010000
00000000
00001000
00000000
00000000
00100000
00001000
00100000
00001000
00000000
,
00010000
00000000
00000000
00000010
00010000
00000010
00010000
00000000
00001000
00000000
00100000
00000000
00001000
00010000
00001000
00000000
,
00010000
00000000
00000000
00000100
00010000
00000100
00010000
00000000
00001000
00000000
00001000
00000000
01000000
00000000
00100000
00000000
,
10010000
00000000
10000000
01000000
00100000
00000000
00010000
00000000
01000000
00000000
00100000
00010000
00001000
00000000
00011000
00000000
,
00011000
00000000
00010000
00000100
00000010
00000000
00000001
00000000
00001000
00000000
00000001
00000100
00000010
00000000
00002020
00000000
,
00000000
00000000
00003030
00000000
00000001
00000100
00000001
00001000
00000100
00001000
00000010
00000100
00000010
00001000
00000100
00010000
,
00001000
00100000
00010000
01000000
00200000
03000000
00000000
00000000
10300000
00010000
10000000
00010000
01000000
00100000
01000000
00100000
,
10000000
00000000
00010000
01000000
00010000
10000000
01000000
00100000
00010000
01000000
00001000
00010000
00000010
00000100
00000010
00001000
,
00000100
00010000
00000100
00010000
00002000
00000000
00000000
00000000
01003000
00010000
01000000
00001000
00010000
00000000
00020200
00000000
,
00000000
00000000
00030300
00000000
00000100
00000000
00001000
00000001
00001000
00000010
00000100
00000010
00001000
00000100
00000020
00000000
,
00000000
00000000
00000331
00000100
00001000
00010000
00000100
00000000
00010100
00000000
00000000
00000000
00011000
00000000
00001000
01000000
,
00100000
00000000
00010000
00100000
00000000
01000000
00100000
00000000
10000000
00010000
10000000
00010000
01000000
00000000
00100000
00000000
,
10000000
00000000
01000000
00100000
00010000
00000000
01000000
00000000
00001000
00010000
00001000
00010000
00000020
00000000
00000000
00000000
,
00000130
00000000
00000001
00000010
00000100
00000000
00001000
00000000
00000001
00000100
00000000
00000100
00001000
00000000
00010000
00000000
,
00001000
00010000
00000000
00010000
01000000
00000000
00100000
00000000
00101000
00000000
00001000
00010000
03001000
00000000
00010000
00000010
,
00000100
00000000
00001000
00000100
00000000
00000010
00000100
00000000
00000001
00001000
00000001
00001000
00000010
00000000
00000100
00000000
,
00000001
00000000
00000010
00000100
00001000
00000000
00000010
00000000
00010000
00001000
00010000
00001000
02000000
00000000
00000000
00000000
,
03100000
00000000
10000000
01000000
00100000
00000000
00010000
00000000
10000000
00100000
00000000
00100000
01000000
00000000
00010000
00000000
,
10000000
00000000
00000000
00000000
01000000
00000000
00000000
00000000
00010000
00000000
00000000
00000000
01000000
00000000
00000000
00000000
00010000
00000000
00000000
00000000
00001000
00000000
00000000
00000000
00000100
00000000
00000000
00000000
00000000
00000000
00000000
00000000
00000000
00000000
00000000
00000000
00000110
00000000
00000000
00000000
00000000
00000000
00000001
00000000
00000000
00001000
00000000
00000000
,
00000010
00000100
00000001
00000100
00000010
00000000
00001000
00000100
00010000
00000000
00010100
00000000
00011000
00000000
00001000
01000000
,
00001000
00100000
00010000
00100000
01000000
00000000
10000000
00100000
01000000
00000000
01010000
00000000
10010000
00000000
10000000
01000000
,
00100000
00000000
00000000
00010000
00000000
00000000
10000000
00000000
00000000
00010000
00000000
00000000
01000000
00000000
00000000
00000000
00000000
00000000
00100000
00000000
00000000
00000000
00000000
00000000
00010000
00000000
00000000
00000000
00000000
00000000
00001000
00000000
00010000
00000000
00001000
00000000
00010000
00000000
00000000
00000000
00000000
00000000
00000100
00000000
00000000
00000000
00000000
00000000
,
00001000
00000010
00000100
00000010
00001000
00000000
00000001
00000010
00000100
00000000
00001000
00000000
00000100
00010000
00000100
00010000
,
00001000
01000000
00100000
01000000
00010000
00000000
10000000
01000000
00100000
00000000
00101000
00000000
00010100
00000000
00010000
00000010
,
00000100
00000001
00000010
00000100
00001000
00000000
00000001
00000100
00000010
00000000
00010010
00000000
01001000
00000000
00001000
00100000
,
01000000
00000000
00000000
10000000
00000000
00000000
00010000
00000000
00000000
10000000
00000000
00000000
00100000
00000000
00000000
00000000
00000000
00000000
01000000
00000000
00000000
00000000
00000000
00000000
00001000
00000000
00000000
00000000
00000000
00000000
00010000
00000000
00001000
00000000
00010000
00000000
00001000
00000000
00000000
00000000
00000000
00000000
00000100
00000000
00000000
00000000
00000000
00000000
,
00000002
00002003
00023300
20030000
,
31000000
00000000
00010000
00000000
00001000
00000000
00000000
00000000
00000100
00000000
00001000
00000000
00010000
00000000
00000000
00000000
00000000
00000000
00001000
00000000
00000000
00010000
00000000
00000000
,
00011000
00000000
00100000
00010000
01000000
00010000
00100000
00000000
00001000
00000000
00100000
00010000
01000000
00010000
00100000
00000000
,
00001000
00000000
00100000
00010000
01000000
00010000
00100000
00000000
00001000
00000000
00010000
00001000
00010000
00000000
00001000
00000000
,
00010000
00000000
00000010
00001000
00000100
00001000
00000010
00000000
00010000
00000000
00001000
00000100
00000001
00000000
00000010
00000000
,
00000100
00000000
00001000
00000000
00001100
00000000
00001100
00000000
00010100
00000000
00001000
00000000
00100000
00001000
00100000
00001000
,
00010000
00000000
00001000
01000000
00100000
01000000
00001000
00000000
00010000
00000000
00001000
01000000
00100000
01000000
00001000
00000000
,
00010000
00000000
00001000
01000000
00100000
01000000
00001000
00000000
00010000
00000000
00001000
00100000
00001000
00000000
00010000
00000000
,
00001000
00000000
00010000
00000010
00000100
00000010
00010000
00000000
00001000
00000000
00010000
01000000
10000000
00000000
00100000
00000000
,
10000000
00000000
00010000
00000000
01010000
00000000
01010000
00000000
00001000
00010000
00001000
00010000
00000100
00000010
00000100
00000010
,
00000001
00000100
00000010
00001000
00000100
00010000
00000100
00010000
00001000
01000000
00010000
00100000
01000000
10000000
01000000
10000000
,
00100000
01000000
00010000
00100000
00001000
00010000
00001000
00010000
00000010
00000100
00000001
00001000
00000100
00010000
00001000
00100000
,
00010000
01000000
00100000
10000000
01000000
00100000
01000000
00100000
00010000
01000000
00001000
00010000
00000100
00001000
00000010
00000100
,
00000001
00001000
00000001
00001000
00000100
00010000
00000100
00010000
00001000
01000000
00001000
01000000
00100000
10000000
00010000
00000000
,
00100000
00001000
00010000
00001000
00010000
00001000
01000000
00001000
00010000
00001000
00010000
00001000
00000100
00000010
00001000
00000000
,
00000100
00010000
00001000
00010000
00001000
00010000
00000010
00010000
00001000
00010000
00001000
00010000
00100000
01000000
00010000
00000000
,
10000000
00000000
01000000
00000000
10000000
00000000
01000000
00000000
00000000
00000000
00000000
00000000
00100000
00000000
00010000
00000000
00100000
00000000
00010000
00000000
00000000
00000000
00000000
00000000
10000000
00000000
00000000
00100000
00000000
00000000
00010000
00000000
00000000
00000000
00000000
00000000
00100000
00000000
00000000
00010000
00000000
00000000
00001000
00000000
00000000
00000000
00000000
00000000
,
00022000
00000000
00000000
00033000
,
00010000
00000100
00000110
00000000
00000001
00000100
00000110
00000000
,
00001000
00000001
00001000
00000100
00010000
00001000
00010000
00001000
01000000
00100000
01000000
00010000
10000000
01000000
00100000
00000000
,
00010000
00000000
01010000
00000000
01001000
00000000
00001000
00000000
00010000
00000000
00010100
00000000
00000100
00000010
00000001
00000000
,
00001000
00000010
00010000
00000010
00010000
00000010
00001000
00000010
00010000
00000010
00010000
00000010
00001000
00000100
00010000
00001000
,
00100000
00010000
10000000
00010000
10000000
00010000
00100000
00010000
10000000
00010000
10000000
00010000
01000000
00001000
00010000
00000100
,
00001000
00000010
00001000
00000010
00000000
00000000
00010000
00001000
00010000
00001000
00000000
00000000
01000000
00010000
01000000
00010000
00000000
00000000
10000000
01000000
10000000
01000000
00000000
00000000
,
10000000
00100000
00010000
00001000
00000010
00000000
00002002
00000000
,
00003003
00000000
00000000
00000000
;

//---------------dance-double - ----------------
#NOTES:
     dance-double:
     :
     Hard:
     15:
     0.730233,0.853633,0.294706,0.304869,0.726604,503.000000,474.000000,29.000000,30.000000,0.000000,0.000000,0.730233,0.853633,0.294706,0.304869,0.726604,503.000000,474.000000,29.000000,30.000000,0.000000,0.000000:
00000000
00000000
00000000
00000000
,
00000000
00000000
00000000
00000000
,
00000000
00000000
00000000
00000000
,
00000000
00000000
00000000
00000000
,
00000000
00000000
00000000
00000000
00000000
00000000
00001000
00010000
,
00001000
00000000
00000000
00010000
00000010
00000000
00010000
00000000
00001000
00000000
00000000
00010000
00000010
00000000
00010000
00000000
,
00001000
00000000
00000000
00010000
00000010
00000000
00010000
00000000
00001000
00000000
00000000
00000000
00100000
00000000
00001000
00000000
,
00010000
00000000
00000000
00001000
00100000
00000000
00010000
00000000
01000000
00000000
01000000
00000000
00100000
00000000
00100000
00000000
,
10010000
00000000
00000000
00010000
01000000
00000000
00100000
00000000
10000000
01000000
10000000
01000000
10000000
00000000
00010000
00000000
,
00110000
00000000
00000000
00100000
00001000
00000000
00010000
00000000
00000010
00001000
00000010
00001000
00000010
00000000
00000200
00000030
,
00000000
00000000
00000000
00000000
00000301
00000000
00001000
00000100
00001000
00000000
00000001
00000100
00000001
00000000
00000100
00000010
,
00000100
00000010
00001000
00000000
00000200
00000000
00000000
00000000
00010300
00001300
00010000
00001000
00100000
00010000
00100000
00010000
,
02000000
00000000
00000000
00000000
03100000
10000000
00010000
10000000
01000000
00100000
01000000
00100000
00010000
01000000
00100000
10000000
,
01000000
00100000
00001000
00010000
00002000
00000000
00000000
00000000
00013000
00000000
00000010
00000100
00000010
00000000
00020000
00000000
,
00000000
00000000
00000000
00000000
00030100
00000000
00001000
00000010
00000100
00000001
00000010
00000100
00001000
00000001
00000200
00000000
,
00000000
00000000
00000310
00001000
00000001
00001000
00000010
00000000
00001010
00000000
00000000
00000000
00000101
00000000
00001000
00000100
,
00010000
00000000
00001000
01000000
00000000
01000000
00100000
00000000
10000000
00000000
01000000
00100000
00010000
00000000
10000000
00000000
,
00100000
00000000
00010000
00000000
00001000
00000000
00100000
00000000
00100000
00000000
00010000
01000000
00002000
00000000
00000000
00000000
,
00013000
00000000
00000000
00010000
00000100
00000000
00001000
00000000
00000010
00000000
00000100
00000001
00000000
00000100
00000001
00000000
,
00001000
00000000
00000100
00010000
00000000
00010000
00001000
00000000
01000000
00000000
00010000
10000000
00010000
00100000
00001000
00010000
,
00001000
00000000
00010000
00000010
00000000
00000010
00000100
00000000
00000001
00000000
00000010
00000100
00001000
00000000
00000001
00000000
,
00000100
00000000
00001000
00000000
00010000
00000000
00000100
00000000
00000100
00000000
00001000
00000010
00020000
00000000
00000000
00000000
,
00031000
00000000
00100000
00010000
00100000
00000000
00010000
00000000
01000000
00000000
00100000
10000000
00000000
00100000
10000000
00000000
,
00010000
00000000
00000000
00000000
00100000
00000000
00000000
00000000
10000000
00000000
00000000
00000000
00100000
00000000
00000000
00000000
00001000
00000000
00000000
00000000
00010000
00000000
00000000
00000000
00000010
00000000
00000000
00000000
00000000
00000000
00000000
00000000
00000000
00000000
00000000
00000000
00001001
00000000
00000000
00000000
00000000
00000000
00000001
00000000
00000000
00000100
00000000
00000000
,
00000020
00000000
00000000
00002030
00000000
00000000
00003100
00000000
00010000
00000000
00010100
00000000
00011000
00000000
00001000
01000000
,
00200000
00000000
00000000
20300000
00000000
00000000
30010000
00000000
10000000
00000000
11000000
00000000
10010000
00000000
00010000
01000000
,
00200000
00000000
00000000
00320000
00000000
00000000
00031000
00000000
00010000
00000000
00000100
00010000
00000100
00000000
00001000
00000000
,
00002010
00000000
00000000
00000000
00003130
00000000
00010000
00000000
00001000
01000000
00000000
01000000
00100000
00000000
10000000
00100000
,
02000000
00000000
00000000
03020000
00000000
00000000
00130000
00000000
00001000
00000000
00101000
00000000
00011000
00000000
00010000
00000010
,
00000200
00000000
00000000
00000302
00000000
00000000
00001003
00000000
00000001
00000000
00000011
00000000
00001001
00000000
00001000
00000010
,
00000200
00000000
00000000
00002300
00000000
00000000
00013000
00000000
00001000
00000000
00100000
00001000
00100000
00000000
01000000
00000000
,
20020000
00000000
00000000
30330000
,
00010000
00000000
00100000
00000000
10000000
00000000
00000000
00000000
00100000
00000000
00001000
00000000
00010000
00000000
00000000
00000000
00000000
00000000
00001000
00000000
00000000
00010000
00000000
00000000
,
00011000
00000000
00000000
00010000
00000010
00010000
00001000
00000000
00010000
00000000
00000000
00001000
00100000
00001000
00010000
00000000
,
00001000
00000000
00000000
00010000
00000010
00010000
00001000
00000000
00010000
00000000
00001000
00100000
01000000
00000000
10000000
00000000
,
10100000
00000000
00000000
00010000
01000000
00010000
10000000
00000000
01000000
00000000
00100000
00010000
10000000
00000000
00010000
00000000
,
01000000
00000000
00001000
00000000
01001000
00000000
01001000
00000000
00011000
00000000
00000000
00000000
00000100
00010000
00000100
00010000
,
00001000
00000000
00000000
00100000
01000000
00100000
00001000
00000000
00010000
00000000
00000000
00000010
00000100
00000010
00010000
00000000
,
00001000
00000000
00000000
00100000
01000000
00100000
00001000
00000000
00010000
00000000
00000100
00001000
00000010
00000000
00000100
00000000
,
00000101
00000000
00000000
00001000
00000100
00000010
00000001
00000000
00000100
00000000
00000010
00000100
00000010
00000000
00001000
00000000
,
00001100
00000000
00000100
00000000
00011000
00000000
00011000
00000000
01000000
00010000
01000000
00010000
10000000
01000000
00100000
00010000
,
10000000
00000000
00010000
01000000
00100000
01000000
10000000
01000000
00010000
00000000
10000000
01000000
00100000
01000000
00010000
01000000
,
10000000
00000000
00010000
01000000
00001000
00010000
00000100
00001000
00000010
00000000
00000000
00000010
00000100
00000000
00000001
00001000
,
00000001
00000000
00001000
00000100
00000010
00000100
00000001
00000100
00001000
00000000
00000001
00000100
00000010
00000100
00001000
00000100
,
00000001
00000000
00000010
00000000
00001000
00000000
00010000
00000000
02000000
00000000
00000000
00000000
13000000
00010000
10000000
00000000
,
00010000
00100000
00001000
00000000
00001000
00000000
00010000
00000010
00001000
00000000
00001000
00000000
00000001
00000010
00000100
00000000
,
00001000
00000100
00010000
00000000
00010000
00000000
00001000
01000000
00010000
00000000
00010000
00000000
10000000
01000000
00100000
00000000
,
00001000
00100000
00001000
00000000
00010000
00001000
00010000
00000000
00000010
00001000
00000010
00000000
00010000
00000100
00010000
00000000
,
00022000
00000000
00000000
00033000
,
00010000
00000010
00000100
00000000
00000001
00000010
00000100
00000000
,
00001000
00000100
00001000
00000000
00000100
00010000
00000100
00000000
00010000
00001000
00010000
00001000
01000000
00000000
00100000
00000000
,
10000000
00000000
11000000
00000000
11000000
00000000
00000000
00000000
00010000
00000000
01010000
00000000
10000000
01000000
00100000
00000000
,
00010000
01000000
00100000
00000000
00100000
00000000
10000000
01000000
00100000
00000000
00100000
00000000
00001000
00010000
00001000
00000000
,
00010000
00000010
00000100
00000000
00000100
00000000
00000001
00000010
00000100
00000000
00000100
00000000
00010000
00001000
00010000
00000000
,
00002000
00000000
02003000
00000000
03100000
10000000
00010000
00000000
,
10000000
01000000
00010000
00001000
00000100
00000000
00002002
00000000
,
00003003
00000000
00000000
00000000
;

//---------------dance-double - ----------------
#NOTES:
     dance-double:
     :
     Medium:
     12:
     0.531343,0.597543,0.264220,0.254057,0.294706,366.000000,340.000000,26.000000,25.000000,0.000000,0.000000,0.531343,0.597543,0.264220,0.254057,0.294706,366.000000,340.000000,26.000000,25.000000,0.000000,0.000000:
00000000
00000000
00000000
00000000
,
00000000
00000000
00000000
00000000
,
00000000
00000000
00000000
00000000
,
00000000
00000000
00000000
00000000
,
00000000
00000000
00000000
00000000
00000000
00000000
00010000
00001000
,
00010000
00000000
00000000
00000100
00010000
00000000
00000000
00000000
00001000
00000000
00000000
01000000
00001000
00000000
00000000
00000000
,
00010000
00000000
00000000
00000100
00010000
00000000
00001000
00000000
00200000
00000000
00000000
00000000
00301000
00000000
00010000
00000000
,
00001000
00000000
00000000
00010000
00000010
00000000
00000000
00000000
00010000
00000000
00001000
00000000
00100000
00000000
01000000
00000000
,
10020000
00000000
01030000
00000000
00010000
01000000
00100000
00000000
,
10000000
01000000
00100000
00000000
00010000
01000000
00001000
00000000
,
00021000
00000000
00030010
00000100
00000010
00000100
00001000
00000100
,
00000010
00000000
00001000
00000000
00000002
00000000
00000000
00000000
00001003
00000100
00001000
00000000
00000100
00000000
00010000
00000000
,
00002000
00000000
01003000
00100000
01000000
00100000
10000000
01000000
,
00100000
00010000
02000000
00000000
03001000
00010000
00000200
00000000
,
00002300
00000000
00003010
00000100
00000010
00000100
00000001
00002000
,
00000000
00003100
00010000
00001000
00101000
00000000
01100000
00000000
,
10000000
00000000
00000000
00010000
00000000
00000000
10000000
00000000
00200000
00000000
00000000
00000000
01300000
00000000
00010000
00000000
,
10000000
00000000
00010000
00000000
00100000
00000000
00001000
00000000
00010000
00000000
00000010
00000100
00000020
00000000
00000000
00000000
,
00001030
00000000
00000000
00000000
00000001
00000000
00000010
00000000
00000100
00000000
00000000
00000100
00010000
00000000
00001000
00000000
,
00100000
00000000
00000000
00100000
00001000
00000000
00010000
00000000
00000010
00000000
00000100
00000010
00000100
00000000
00000000
00000000
,
00000001
00000000
00000000
00001000
00000000
00000000
00000001
00000000
00000200
00000000
00000000
00000000
00000310
00000000
00001000
00000000
,
00000001
00000000
00001000
00000000
00000100
00000000
00010000
00000000
00001000
00000000
01000000
00100000
02000000
00000000
00000000
00000000
,
03010000
00000000
00000000
00000000
10000000
00000000
01000000
00000000
00100000
00000000
00000000
00100000
00001000
00000000
00010000
00000000
,
00010100
00101000
00011000
00010010
,
00001001
00000000
00000000
00000001
00000000
00000000
00000010
00000000
00000100
00000000
00001100
00000000
00001100
00000000
00000000
00000000
,
00000100
00000000
00000000
00010000
00000000
00000000
00001000
00000000
01000000
00000000
01010000
00000000
01010000
00000000
00000000
00000000
,
00010000
00000000
00000000
10000000
00000000
00000000
01000000
00000000
00200000
00000000
00000000
00000000
00310000
00000000
10000000
00000000
,
00200000
00000000
00010000
00000000
01000000
00000000
10300000
00010000
,
10010000
00000000
00000000
10000000
00000000
00000000
01000000
00000000
00100000
00000000
00110000
00000000
00110000
00000000
00000000
00000000
,
00100000
00000000
00000000
00001000
00000000
00000000
00010000
00000000
00000010
00000000
00001010
00000000
00001010
00000000
00000000
00000000
,
00001000
00000000
00000000
00000001
00000000
00000000
00000010
00000000
00000200
00000000
00000000
00000000
00001300
00000000
00000001
00000000
,
00000100
00000000
00000000
00000100
00000010
00000000
00000000
00000010
00001000
00000000
00000000
00001000
00000100
00000000
00000000
00000100
,
00010000
00000000
00000000
00000000
00010000
00000000
00000000
00000000
00001000
00000000
00000000
00000000
00001000
00000000
00000000
00000000
00000000
00000000
00001000
00000000
00000000
01000000
00000000
00000000
,
10010000
00000000
00000000
10000000
00010000
00000000
10000000
00000000
00100000
00000000
00000000
10000000
00010000
00000000
10000000
00000000
,
00100000
00000000
00000000
10000000
00010000
00000000
10000000
00000000
00200000
00000000
00000000
00000000
00310000
00000000
00001000
00000000
,
00000100
00000000
00000000
00000001
00001000
00000000
00000001
00000000
00000100
00000000
00000100
00000000
00000010
00000000
00000010
00000000
,
00001000
00000100
00000001
00000100
00000020
00000000
00000031
00001000
,
00001001
00000000
00000000
00000001
00001000
00000000
00000001
00000000
00000100
00000000
00000000
00000001
00001000
00000000
00000001
00000000
,
00000100
00000000
00000000
00000001
00001000
00000000
00000001
00000000
00000200
00000000
00000000
00000000
00001300
00000000
00010000
00000000
,
00100000
00000000
00000000
10000000
00010000
00000000
10000000
00000000
00100000
00000000
00100000
00000000
01000000
00000000
01000000
00000000
,
00010000
00000000
00100000
00000000
10000000
00000000
00100000
00000000
01000000
00100000
01000000
00000000
03100000
00000000
00010000
00000000
,
10000000
00000000
00000000
00010000
01000000
00010000
01000000
00000000
00010000
00000000
00000000
00100000
00001000
00100000
00001000
00000000
,
00100000
00000000
00000000
00001000
00010000
00001000
00010000
00000000
00001000
00000000
00000000
00000000
00010000
00000000
00000100
00000000
,
00001000
00000000
00000000
00000100
00001000
00000100
00001000
00000000
00000001
00000000
00000001
00000000
00000100
00000000
00000100
00000000
,
00000001
00000010
00001000
00000010
00000200
00000000
00001300
00000010
,
00010000
00001000
00000000
00000000
00000000
00000000
00010000
00001000
00000000
00000000
00000000
00000000
00101000
00000000
00000000
00000000
,
00001000
00010000
00000000
00000000
00000000
00000000
00001000
00010000
00000000
00000000
00000000
00000000
00010010
00000000
00000000
00000000
,
00010000
00001000
00000000
00000000
00001000
00100000
00000000
00000000
00100000
01000000
00000000
00000000
01000000
10000000
00000000
00000000
,
20020000
00000000
00000000
30030000
,
10000000
00010000
01000000
00000000
00010000
00100000
00001000
00000000
,
00020000
00000000
00030010
00000100
00000001
00000100
00000010
00001000
,
00000100
00010000
00010000
00000000
00001000
00100000
00100000
00000000
,
00001000
00010000
00000000
00000000
00000000
00000000
00001000
00010000
00000000
00000000
00000000
00000000
00101000
00000000
00000000
00000000
,
00001000
00010000
00000000
00000000
00000000
00000000
00001000
00010000
00000000
00000000
00000000
00000000
00010010
00000000
00000000
00000000
,
00010000
00000100
00000000
00000000
00000100
00000010
00000000
00000000
00000010
00000001
00000000
00000000
00000001
00001000
00000000
00000000
,
00000001
00000100
00001000
00010000
00100000
00000000
20020000
00000000
,
30030000
00000000
00000000
00000000
;

//---------------dance-double - ----------------
#NOTES:
     dance-double:
     :
     Easy:
     8:
     0.336807,0.398362,0.162597,0.518277,0.000000,232.000000,216.000000,16.000000,51.000000,0.000000,0.000000,0.336807,0.398362,0.162597,0.518277,0.000000,232.000000,216.000000,16.000000,51.000000,0.000000,0.000000:
00000000
00000000
00000000
00000000
,
00000000
00000000
00000000
00000000
,
00000000
00000000
00000000
00000000
,
00000000
00000000
00000000
00000000
,
00000000
00000000
00000000
00000000
00000000
00000000
00001000
00010000
,
00002000
00103000
00002000
00013000
,
00002000
00000000
00103000
00010000
00200000
00000000
00301000
00000000
,
00020000
00000000
00030010
00000000
00010000
00001000
00010000
00000000
,
00022000
00000000
00033000
00000000
00001000
00100000
00010000
00000000
,
00100000
00000000
01000000
00000000
10000000
00100000
01000000
00000000
,
00020000
00230000
00302000
00023000
,
00030100
00001000
00000020
00000000
00000200
00000000
00000330
00000000
,
00000001
00000100
00000001
00000000
00001000
00000100
00001000
00000000
,
00000100
00010000
00002000
00000000
00203000
00000000
00320000
00000000
,
20030000
00000000
30000000
00000000
00100000
01000000
00100000
00000000
,
10000000
01000000
00100000
00000000
01100000
00000000
10010000
00000000
,
20000000
00000000
31000000
00100000
00020000
00000000
02030000
00000000
,
03001000
00010000
00001000
00010000
00002000
00000000
00023000
00000000
,
00030100
00000000
00000100
00000100
,
00000010
00000000
00000010
00000001
00001000
00000000
00000000
00000000
,
00000001
00000000
00000100
00000010
00000100
00000000
00000001
00000000
,
00002000
00003200
00020300
00032000
,
01003000
00000000
00000000
00000000
00001000
01000000
00010000
00000000
,
10000000
01000000
00100000
00000000
10010000
00000000
00000000
00000000
,
10000000
00000000
10000000
01000000
00100000
00000000
00000000
00000000
,
00010000
00000000
00010000
01000000
00001000
00000000
00000000
00000000
,
00010000
00000000
00010000
00000100
00001000
00000000
00000100
00000000
,
00002002
00000000
00000000
00003003
,
00000001
00000000
00001000
00000100
00010000
00000000
00000000
00000000
,
00000100
00000000
00010000
00001000
01000000
00000000
00000000
00000000
,
00001000
00000000
01000000
00010000
10000000
00000000
01000000
00000000
,
02200000
00000000
00000000
03300000
,
00100000
00001000
00010000
00000000
,
00011000
00000000
00000010
00010000
00001000
00000000
00100000
00001000
,
00010000
00000000
00000010
00010000
00001000
00000000
00000000
00000000
,
00011000
00000000
01000000
00001000
00020000
00000000
00030200
00000000
,
00000320
00000230
00020300
00030000
,
00011000
00000000
00000010
00010000
00001000
00000000
00100000
00001000
,
00010000
00000000
00000010
00010000
00001000
00000000
00000000
00000000
,
00011000
00000000
01000000
00001000
00020000
00000000
00030200
00000000
,
00020300
00032000
02003000
03000000
,
00010000
01000000
00000000
01000000
00000000
00100000
01000000
00100000
,
00000000
10000000
00000000
10000000
00000000
01000000
00100000
01000000
,
00000000
00100000
00000000
00001000
00000000
00010000
00001000
00010000
,
00000000
00000010
00000000
00000100
00000000
00000010
00000100
00000010
,
00001000
00000000
00000000
00001001
00000000
00000000
00000001
00000000
,
00000010
00000000
00000000
00000110
00000000
00000000
00000100
00000000
,
00020000
00032000
02003000
03100000
,
20020000
00000000
00000000
30030000
,
00010000
00100000
00001000
00000000
,
00010000
00001000
00010000
00000010
,
00000100
00000010
00000010
00000000
00000100
00000010
00000010
00000000
,
00001000
00000000
00000000
00000001
00000000
00000000
00001001
00000000
,
00001000
00000000
00000000
00000100
00000000
00000000
00011000
00000000
,
00002000
02003000
03200000
20300000
,
30010000
00100000
10000000
01000000
00010000
00000000
20020000
00000000
,
30030000
00000000
00000000
00000000
;
