#TITLE:Santa Maria;
#SUBTITLE:(2002 Trance Remix);
#ARTIST:DJ Milano feat. Samantha Fox;
#TITLETRANSLIT:;
#SUBTITLETRANSLIT:;
#ARTISTTRANSLIT:;
#GENRE:EUROTRANCE;
#CREDIT:;
#BANNER:Santa Maria (2002 Trance Remix).png;
#BACKGROUND:Santa Maria (2002 Trance Remix)-bg.png;
#LYRICSPATH:;
#CDTITLE:cdtitle.png;
#MUSIC:Santa Maria (2002 Trance Remix).ogg;
#OFFSET:-1.164000;
#SAMPLESTART:41.277000;
#SAMPLELENGTH:15.000000;
#SELECTABLE:YES;
#DISPLAYBPM:140.000000;
#BPMS:0.000000=139.977997
;
#STOPS:
;
#BGCHANGES:;
#KEYSOUNDS:;
#ATTACKS:;

//---------------dance-single - Daff_4K----------------
#NOTES:
     dance-single:
     Daff_4K:
     Beginner:
     3:
     0.120203,0.168284,0.061353,0.000000,0.000000,96.000000,89.000000,7.000000,0.000000,0.000000,0.000000,0.120203,0.168284,0.061353,0.000000,0.000000,96.000000,89.000000,7.000000,0.000000,0.000000,0.000000:
0000
0000
0000
0000
,
0000
0000
0000
0000
,
0000
0000
0000
0000
,
0000
0000
0000
0000
,
1001
0000
0000
0001
,
0001
0000
0000
1000
,
1000
0000
0000
0000
,
1001
0000
0000
0000
,
0001
0000
0000
0000
,
0100
0000
0100
0000
,
0010
0000
0000
0000
,
1000
0000
0001
0000
,
1000
0000
0000
0000
,
0100
0000
0100
0000
,
0010
0000
0000
0000
,
0001
0000
0000
0000
,
1000
0000
0010
0000
,
1000
1000
0000
0000
,
0000
0100
0100
0000
,
0000
0010
0010
0000
,
0001
0000
0010
0000
,
0001
0001
0000
0000
,
1000
1000
0000
0000
,
1001
0000
0000
0000
,
0001
0000
0000
0000
,
0010
0000
0010
0000
,
0100
0000
0000
0000
,
0010
0000
0001
0000
,
1000
0000
0000
0000
,
0010
0000
0010
0000
,
0100
0000
0000
0000
,
0010
0000
0000
0000
,
1000
0000
0100
0000
,
1000
1000
0000
0000
,
0000
0010
0010
0000
,
0000
0100
0100
0000
,
0001
0000
0100
0000
,
0001
0001
0000
0000
,
1000
1000
0000
0000
,
1001
0000
0000
0000
,
1001
0000
0000
0000
,
0000
0000
0000
0000
,
0000
0000
0000
0000
,
0000
0000
0000
0000
,
1001
0000
0000
0000
,
1000
0000
0001
0000
,
1000
0000
0000
0000
,
0100
0000
0100
0000
,
0010
0000
0000
0000
,
0001
0000
0001
0000
,
1000
0000
0000
0000
,
0010
0000
0100
0000
,
0010
0000
0000
0000
,
1000
0000
1000
0000
,
0001
0000
0000
0000
,
0010
0000
0000
0000
,
0001
0000
0100
0000
,
0001
0000
0000
0000
,
0001
0000
0010
0000
,
0001
0000
0000
0000
,
1000
0000
0100
0000
,
1000
0000
0000
0000
,
1000
0000
0010
0000
,
1000
0000
0000
0000
,
1001
0000
0000
0000
;

//---------------dance-single - Daff_4K----------------
#NOTES:
     dance-single:
     Daff_4K:
     Easy:
     5:
     0.210355,0.252426,0.070118,0.184060,0.000000,168.000000,160.000000,8.000000,21.000000,0.000000,0.000000,0.210355,0.252426,0.070118,0.184060,0.000000,168.000000,160.000000,8.000000,21.000000,0.000000,0.000000:
0000
0000
0000
0000
,
0000
0000
0000
0000
,
0000
0000
0000
0000
,
0000
0000
0000
0000
,
0200
0000
0000
0300
,
0020
0000
0000
0030
,
1000
0001
1000
0001
,
1001
0000
0000
0000
,
2000
0000
3001
0000
,
1000
0010
0001
0010
,
1000
0100
0010
0010
,
0002
0003
2000
3000
,
0002
0000
1003
0000
,
0001
0010
1000
0010
,
0001
0000
1000
0000
,
0020
0030
0200
0300
,
0001
0000
0010
0000
,
1000
0010
0001
0000
,
1000
0010
0100
0000
,
0001
0010
0100
0000
,
1000
0000
0010
0000
,
0001
0010
1000
0000
,
0001
1000
0001
0000
,
1001
0000
0000
0000
,
2000
0000
3001
0000
,
1000
0100
0001
0100
,
1000
0010
0100
0100
,
0002
0003
2000
3000
,
0002
0000
1003
0000
,
0001
0100
1000
0100
,
0001
0000
1000
0000
,
0200
0300
0020
0030
,
0001
0010
0100
0010
,
0001
0000
1000
0000
,
0001
0100
1000
0000
,
1000
0100
0001
0000
,
1000
0010
0100
0010
,
1000
0000
0001
0000
,
1000
0100
0001
0000
,
0110
0000
0000
0000
,
1001
0000
0000
0000
,
0002
0000
0000
0003
,
2000
0000
0000
3000
,
0020
0030
0200
0300
,
0002
0000
1003
0000
,
0001
0010
1000
0000
,
0010
0100
0010
0000
,
0001
0001
1000
1000
,
1002
0000
0103
0000
,
0100
1000
0100
0010
,
0100
0001
1000
0000
,
1001
0000
0001
0000
,
2001
0000
3100
0000
,
0100
0001
0100
0010
,
0100
1000
0001
0000
,
0100
0001
1000
0000
,
0001
0010
0100
0000
,
0001
0100
0010
0000
,
0001
0100
1000
0000
,
0100
0010
0100
0001
,
1000
0010
0100
0000
,
1000
0100
0010
0000
,
1000
0100
0001
0000
,
0100
0010
0100
1000
,
1001
0000
0000
0000
;

//---------------dance-single - Daff_4K----------------
#NOTES:
     dance-single:
     Daff_4K:
     Medium:
     7:
     0.333062,0.392662,0.184060,0.359356,0.000000,266.000000,245.000000,21.000000,41.000000,0.000000,0.000000,0.333062,0.392662,0.184060,0.359356,0.000000,266.000000,245.000000,21.000000,41.000000,0.000000,0.000000:
0000
0000
0000
0000
,
0000
0000
0000
0000
,
0000
0000
0000
0000
,
0000
0000
0000
0000
,
0200
0000
0000
0000
,
0320
0000
0000
0000
,
2030
3002
2003
3001
,
1001
0000
0000
0000
,
2000
0001
0010
3100
,
1000
0100
0001
0000
0100
0000
1000
0000
,
0010
0100
0010
0000
1000
0001
1000
0000
,
0220
0330
2002
3003
,
0002
1000
0010
0103
,
0001
0100
1000
0000
0100
0000
0001
0000
,
0010
0100
0010
0000
0001
1000
0001
0000
,
0200
0310
2000
3001
,
1000
0000
0100
0000
0001
0000
0100
0010
,
0100
1000
0001
1000
,
1010
0101
1001
0000
,
0011
1100
1001
0000
,
0001
0000
0100
0000
1000
0000
0100
0010
,
0100
0000
0001
0000
1000
0000
0100
0010
,
0001
0000
0100
0010
1000
0000
0001
0000
,
2002
0000
0000
3003
,
2000
0010
0001
3100
,
1000
0100
0001
0000
0100
0000
0010
0000
,
0001
0100
0001
0000
1000
0100
1000
0000
,
0220
0330
2002
3003
,
0002
0010
1000
0103
,
0001
0100
1000
0000
0100
0000
0010
0000
,
1000
0001
1000
0000
0100
0010
0100
0000
,
2000
3001
0200
0310
,
1000
0000
0100
0000
0001
0000
0100
0010
,
0100
1000
0010
0001
,
0110
1001
1100
0000
,
0110
1001
0101
0000
,
0001
0000
0100
0000
1000
0000
0100
0010
,
0100
0000
0001
0000
1000
0000
0100
0010
,
0001
0000
0100
0010
1000
0000
0001
0000
,
2002
0000
0000
3003
,
2000
0000
0000
0000
,
3002
0000
0000
0000
,
0023
0000
0000
0000
,
0230
0000
2300
3001
,
0200
1000
0010
0301
,
0100
0010
0100
0000
0001
0000
1000
0000
,
0100
0010
0001
0000
0100
0010
1000
0000
,
0002
0013
2000
3010
,
0002
0100
1000
0013
,
0001
0100
1000
0000
0100
0000
0001
0000
,
0010
0100
0010
0000
0001
1000
0010
0000
,
0220
0330
2002
3003
,
2000
0100
0001
3010
,
1000
0100
0001
0000
0100
0000
1000
0000
,
0010
0100
0010
0000
1000
0001
0010
0000
,
0002
0103
2000
3100
,
0001
0000
0010
0100
0010
0000
0001
0000
,
1000
0000
0001
0100
0001
0000
1000
0000
,
0100
0000
0010
0001
0010
0000
0100
0000
,
1000
0000
0010
0100
0010
0000
1000
0100
,
1000
0000
0010
0100
0010
0000
1000
0000
,
0001
0000
1000
0100
1000
0000
0001
0000
,
0100
0000
0010
1000
0010
0000
0100
0000
,
0001
0000
0010
0100
1000
0000
0010
0100
,
0001
0000
0000
0000
;

//---------------dance-single - Daff_4K----------------
#NOTES:
     dance-single:
     Daff_4K:
     Hard:
     11:
     0.455769,0.532899,0.280473,0.385650,0.144619,364.000000,332.000000,32.000000,44.000000,0.000000,0.000000,0.455769,0.532899,0.280473,0.385650,0.144619,364.000000,332.000000,32.000000,44.000000,0.000000,0.000000:
0000
0000
0000
0000
,
0000
0000
0000
0000
,
0000
0000
0000
0000
,
0000
0000
0000
0000
,
0020
0000
0000
0000
0100
0000
1030
0001
,
0020
0000
0000
0000
0100
0000
0031
1000
,
0010
0010
0100
0100
0001
1000
0001
1000
,
2002
3003
0200
0310
,
2001
0010
0001
3100
,
1000
0010
0001
0010
1000
0000
1001
0000
,
0001
0010
0100
0000
1000
0010
0100
0000
,
1001
0000
0000
0001
0010
0000
0000
0000
1001
0000
0000
1000
0010
0000
0000
0000
,
1002
0010
1000
0103
,
0001
0010
0100
0000
1000
0010
0100
0000
,
0001
1000
0100
0010
0100
1000
0001
0000
,
1000
0010
0000
0000
0010
0000
0100
0000
0001
0010
0000
0000
0010
0000
0200
0000
,
0000
1300
0001
1000
0010
0100
0000
1002
,
0000
0013
0000
2001
0000
3010
0100
0002
,
0000
1003
0100
0000
1001
0000
0100
2000
,
0000
3001
0100
0000
1001
0000
0010
0200
,
0000
0301
1000
0001
0010
0100
0000
2001
,
0000
3010
0000
1002
0000
0013
0100
2000
,
0000
3010
0100
0002
0000
1003
0001
0000
,
2002
3003
0020
0130
,
1002
0100
1000
0013
,
0001
0100
1000
0100
0001
0000
1001
0000
,
1000
0100
0010
0000
0001
0100
0010
0000
,
1001
0000
0000
1000
0100
0000
0000
0000
1001
0000
0000
0001
0100
0000
0000
0000
,
2001
0100
0001
3010
,
1000
0100
0010
0000
0001
0100
0010
0000
,
1000
0001
0010
0100
0010
0001
1000
0000
,
0001
0100
0000
0000
0100
0000
0010
0000
1000
0100
0000
0000
0100
0000
0020
0000
,
0000
0031
1000
0001
0100
0010
0000
2010
,
0000
3100
0000
0012
0000
0103
0010
2000
,
0000
3001
1000
0000
1100
0000
0010
0002
,
0000
1003
0001
0000
0101
0000
0100
0020
,
0000
1030
0001
1000
0100
0010
0000
0012
,
0000
0103
0000
2010
0000
3100
0010
0002
,
0000
0103
0010
2000
0000
3001
1000
0000
,
2002
3003
0200
0310
,
2002
0000
0000
3000
,
0200
0000
0000
0003
,
0020
0000
0000
0300
,
2000
0030
3002
1003
,
2001
0100
0010
3001
,
1000
0100
0001
0000
0100
0010
0100
0000
,
1000
0010
0100
0000
0001
0010
0100
0000
,
1000
0010
0000
0000
0010
0000
1000
0000
0001
0010
0000
0000
0010
0000
0001
0000
,
0200
1000
0010
0301
,
1000
0100
0001
0100
1000
0000
1001
0000
,
0001
0100
0010
0000
1000
0100
0010
0000
,
0011
0000
0000
0001
1000
0000
0000
0000
1010
0000
0000
1000
0001
0000
0000
0000
,
1200
0001
0010
1300
,
0001
0100
1000
0000
0001
0010
1000
0001
,
1000
0100
0001
0000
1000
0010
0001
1000
,
0010
0100
0000
0000
0100
0000
0001
0000
0010
0100
0000
0000
0100
0000
1000
0000
,
0001
0100
0000
0000
0010
0000
0100
0000
0000
0001
0000
0000
1000
0000
0001
0000
,
0010
0100
0000
0000
1000
0000
0010
0000
0000
0100
0000
0000
0001
0000
1000
0000
,
0001
0010
0000
0000
0100
0000
0010
0000
0000
0001
0000
0000
1000
0000
0010
0000
,
0100
0001
0000
0000
0010
0000
0100
0000
0000
0010
0000
0001
1000
0000
0001
0000
,
1000
0100
0000
0000
0010
0000
0100
0000
0000
1000
0000
0000
0001
0000
1000
0000
,
0010
0100
0000
0000
0001
0000
0010
0000
0000
0100
0000
0000
1000
0000
0001
0000
,
1000
0010
0000
0000
0100
0000
0010
0000
0000
1000
0000
0000
0001
0000
0010
0000
,
0100
0010
0000
0100
1000
0000
0001
0000
1000
0001
0000
0100
0010
0000
0100
0000
,
1001
0000
0000
0000
;

//---------------dance-single - Daff_4K----------------
#NOTES:
     dance-single:
     Daff_4K:
     Challenge:
     13:
     0.543416,0.588993,0.219119,0.543416,0.354974,434.000000,409.000000,25.000000,62.000000,0.000000,0.000000,0.543416,0.588993,0.219119,0.543416,0.354974,434.000000,409.000000,25.000000,62.000000,0.000000,0.000000:
// measure 0
0000
0000
0000
0000
,  // measure 1
0000
0000
0000
0000
,  // measure 2
0000
0000
0000
0000
,  // measure 3
0000
0000
0000
0000
,  // measure 4
2002
0000
0003
0000
0100
0000
3010
1000
,  // measure 5
2002
0000
3000
0000
0100
0000
0013
0001
,  // measure 6
1000
0000
1000
0000
0001
0000
0001
0000
0100
0010
0100
0010
1000
0001
1000
0001
,  // measure 7
0020
0000
0000
0000
0100
0000
0130
1000
,  // measure 8
1002
0000
0000
0000
0100
0000
0000
0000
0013
0000
0000
0001
1000
0000
0001
0000
,  // measure 9
0100
0000
0010
0100
0001
0000
1000
0200
0000
0000
0301
0000
0100
0000
1000
0000
,  // measure 10
0001
0000
0100
0000
0010
0000
1000
0001
0000
0001
0010
0000
0100
0000
0000
0000
,  // measure 11
2100
3010
0102
0013
,  // measure 12
2001
0000
0000
0000
0100
0000
0000
0000
3010
0000
0000
1000
0001
0000
1000
0000
,  // measure 13
0100
0000
0010
0100
1000
0000
0001
0200
0000
0000
1300
0000
0100
0000
0001
0000
,  // measure 14
1000
0000
0100
0000
0010
0000
0001
1000
0000
1000
0010
0000
0100
0000
0001
0000
,  // measure 15
0020
0100
0000
0000
0031
0000
1000
0000
0020
0100
0000
0000
1030
0000
1002
0000
,  // measure 16
0000
0103
1000
0100
0001
0010
0100
2000
,  // measure 17
0000
3010
0000
0102
0000
0013
0100
2000
,  // measure 18
0000
3010
0001
0010
2000
0000
3001
1002
,  // measure 19
0000
0013
1000
0010
0001
0100
0010
2001
,  // measure 20
0000
3100
0001
0100
1000
0010
0100
0002
,  // measure 21
0000
0013
0000
2100
0000
3010
0100
0002
,  // measure 22
0000
0000
0013
0000
0100
0000
1000
0001
0000
1000
0001
0000
0100
0010
0100
0000
,  // measure 23
0020
0000
0000
0000
0000
0000
0000
0000
1000
0000
0000
0030
1000
0000
0001
0000
,  // measure 24
2001
0000
0000
0000
0100
0000
0000
0000
3010
0000
0000
1000
0001
0000
1000
0000
,  // measure 25
0100
0000
0010
0100
1000
0000
0001
0200
0000
0000
1300
0000
0100
0000
0001
0000
,  // measure 26
0010
0000
0100
0000
1000
0000
0001
0100
0000
0100
0010
0000
1000
0000
0000
0000
,  // measure 27
1002
0013
2001
3010
,  // measure 28
1002
0000
0000
0000
0100
0000
0000
0000
0013
0000
0000
0001
1000
0000
0001
0000
,  // measure 29
0100
0000
0010
0100
0001
0000
1000
0200
0000
0000
0301
0000
0100
0000
1000
0000
,  // measure 30
0010
0000
0100
0000
0001
0000
1000
0100
0000
0100
0010
0000
0001
0000
1000
0000
,  // measure 31
0020
0100
0000
0000
1030
0000
0001
0000
0020
0100
0000
0000
0031
0000
2001
0000
,  // measure 32
0000
3010
0100
1000
0100
0001
1000
0200
,  // measure 33
0000
0310
0001
0200
0000
0310
1000
0200
,  // measure 34
0000
0301
1000
0010
0002
0000
1003
0201
,  // measure 35
0000
1300
0001
0010
1000
0100
0010
1002
,  // measure 36
0000
0013
0100
0001
0100
1000
0001
0200
,  // measure 37
0000
0310
1000
0200
0000
0310
0001
2000
,  // measure 38
0000
0000
3010
0000
0100
0000
0001
1000
0000
0001
1000
0000
0100
0010
0100
0000
,  // measure 39
0020
0000
0000
0000
0001
0000
0031
1000
,  // measure 40
2020
0000
0000
3000
,  // measure 41
0002
0000
0000
0030
,  // measure 42
0200
0000
0000
0003
,  // measure 43
2000
0300
3002
1003
,  // measure 44
1020
0000
0000
0000
0100
0000
0000
0000
0031
0000
0000
0010
1000
0000
0001
0000
,  // measure 45
0010
0000
0100
0000
0010
0000
0001
2000
0000
0000
3001
0000
1000
0000
0010
0000
,  // measure 46
0100
0000
0010
0000
1000
0000
0001
2000
0000
0000
3100
0000
0010
0000
0001
0000
,  // measure 47
0200
0010
0000
0000
0301
0000
1000
0000
0200
0010
0000
0000
1300
0000
0001
0000
,  // measure 48
0201
0000
0000
0000
1000
0000
0000
0000
0310
0000
0000
0100
0001
0000
1000
0000
,  // measure 49
0001
0000
0010
0100
0010
0000
1000
0020
0000
0000
0031
0000
0100
0000
1000
0000
,  // measure 50
0001
0000
0010
0000
1000
0000
0100
0010
0000
0100
0010
0000
0001
0000
0000
0000
,  // measure 51
2001
3010
0102
1003
,  // measure 52
1200
0000
0000
0000
0001
0000
0000
0000
0310
0000
0000
0100
1000
0000
0001
0000
,  // measure 53
1000
0000
0010
0100
0010
0000
0001
0020
0000
0000
1030
0000
0100
0000
0001
0000
,  // measure 54
1000
0000
0010
0000
0001
0000
0100
0010
0000
0100
0010
0000
1000
0000
0001
0000
,  // measure 55
0020
0100
0000
0000
0031
0000
1000
0000
0020
0100
0000
0000
1030
0000
0001
0000
,  // measure 56
1000
0100
0000
0100
1000
0000
0001
0000
0000
0100
0000
0010
1000
0000
0100
0000
,  // measure 57
0000
0001
0000
0000
0100
0000
1000
0000
0000
0010
0000
0100
0001
0000
1000
0000
,  // measure 58
0100
0010
0000
0010
0001
0000
1000
0000
0000
0001
0000
0100
0010
0000
1000
0000
,  // measure 59
0000
0001
0000
0000
1000
0000
0100
0000
0010
0100
0000
0100
1000
0000
0001
1000
,  // measure 60
0001
0100
0000
0100
0001
0000
1000
0000
0000
0100
0000
0010
0001
0000
0100
0000
,  // measure 61
0000
1000
0000
0000
0100
0000
0001
0000
0000
0010
0000
0100
1000
0000
0001
0000
,  // measure 62
0100
0010
0000
0010
1000
0000
0001
0000
0000
1000
0000
0100
0010
0000
0001
0000
,  // measure 63
0100
0010
0000
0100
0010
0000
1000
0000
0100
0010
0000
0100
0010
0000
0001
0000
,  // measure 64
1001
0000
0000
0000
;
