#VERSION:0.83;
#TITLE:サクラあっぱれーしょん;
#SUBTITLE:;
#ARTIST:Remixed by BEMANI Sound Team "TAG" feat. 柊木りお;
#TITLETRANSLIT:Sakura apparition;
#SUBTITLETRANSLIT:;
#ARTISTTRANSLIT:Remixed by BEMANI Sound Team "TAG" feat. Rio Hiiragi;
#GENRE:;
#CREDIT:;
#MUSIC:Sakura apparition.ogg;
#BANNER:Sakura apparition-bn.png;
#BACKGROUND:Sakura apparition-bg.png;
#CDTITLE:;
#SAMPLESTART:77.190;
#SAMPLELENGTH:20.000;
#SELECTABLE:YES;
#OFFSET:-1.775;
#BPMS:0.000=140.000;
#STOPS:;
#SPEEDS:0.000=1.000=0.000=0;
#SCROLLS:0.000=1.000;
#TICKCOUNTS:0.000=4;
#TIMESIGNATURES:0.000=4=4;
#LABELS:0.000=Song Start;
#COMBOS:0.000=1;
#ORIGIN:;
#TAGS:;
#PREVIEWVID:;
#JACKET:Sakura apparition-jacket.png;
#CDIMAGE:;
#DISCIMAGE:;
#BGCHANGES:;
#FGCHANGES:;

//--------------- dance-single - ----------------
#NOTEDATA:;
#STEPSTYPE:dance-single;
#DESCRIPTION:;
#DIFFICULTY:Beginner;
#METER:2;
#RADARVALUES:0.109447,0.162386,0.008328,0,0,92,91,1,0,0,0,0,0,0,0.109447,0.162386,0.008328,0,0,92,91,1,0,0,0,0,0,0;
#CHARTNAME:;
#CHARTHASH:1860543627;
#BANNER:;
#CHARTSTYLE:;
#METERF:0.000000;
#LASTSECONDHINT:113.203575;
#CREDIT:ZSL;
#NOTES:
0000
0000
0000
0000
,
0000
0000
0000
0000
,
0000
0000
0000
0000
,
0000
0000
0000
0000
,
0001
0000
0000
0000
,
1000
0000
0000
0000
,
0010
0000
0000
0000
,
0100
0000
0000
0000
,
0001
0000
1000
0000
,
0100
0000
0000
0000
,
0010
0000
0001
0000
,
1000
0000
0000
0000
,
0010
0000
0100
0000
,
0001
0000
0000
0000
,
1000
0000
0100
0000
,
0010
0000
0000
0000
,
0001
0000
0000
0000
,
1000
0000
0000
0000
,
0100
0000
0000
0000
,
0010
0000
0000
0000
,
0001
0000
1000
0000
,
0010
0000
0000
0000
,
0100
0000
0001
0000
,
1000
0000
0000
0000
,
0100
0000
0010
0000
,
0001
0000
0000
0000
,
1000
0000
0010
0000
,
0100
0000
0000
0000
,
0001
0001
0000
0000
,
1000
0000
0000
0000
,
0100
0100
0000
0000
,
0010
0000
0000
0000
,
0001
0000
1000
0000
,
0010
0000
0000
0000
,
0100
0000
0001
0000
,
0100
0000
0100
0000
,
0010
0010
0000
0000
,
1000
0000
0000
0000
,
0001
0001
0000
0000
,
0010
0000
0000
0000
,
0100
0000
1000
0000
,
0001
0000
0000
0000
,
0100
0000
0010
0000
,
1000
0000
1000
0000
,
0001
0000
0000
0000
,
0010
0000
0000
0000
,
0100
0000
0000
0000
,
1000
0000
0000
0000
,
0001
0000
0001
0000
,
1000
0000
1000
0000
,
0010
0000
0100
0000
,
0001
0000
1000
0000
,
0001
0000
0000
0000
,
0100
0000
0000
0000
,
0010
0000
0000
0000
,
1000
0000
0000
0000
,
0100
0000
0100
0000
,
0010
0000
0010
0000
,
0001
0000
1000
0000
,
0010
0000
0100
0000
,
0001
0000
0000
0000
,
1000
0000
0000
0000
,
0100
0000
1000
0000
,
0010
0000
0100
0100
,
0100
0000
0000
0000
,
1001
0000
0000
0000
;

//--------------- dance-single - ----------------
#NOTEDATA:;
#STEPSTYPE:dance-single;
#DESCRIPTION:;
#DIFFICULTY:Easy;
#METER:6;
#RADARVALUES:0.247446,0.24358,0.024983,0,0,208,205,3,0,0,0,0,0,0,0.247446,0.24358,0.024983,0,0,208,205,3,0,0,0,0,0,0;
#CHARTNAME:;
#CHARTHASH:2189356508;
#BANNER:;
#CHARTSTYLE:;
#METERF:0.000000;
#LASTSECONDHINT:113.203575;
#CREDIT:ZSL;
#NOTES:
0000
0000
0000
0000
,
0000
0000
0000
0000
,
0000
0000
0000
0000
,
0000
0000
0000
0000
,
0001
0000
1000
0000
,
0010
0100
0001
0000
,
1000
0000
0001
0000
,
0010
0100
1000
0001
,
1000
0010
1000
0000
,
0001
0010
0100
0000
,
1000
0001
0100
0010
,
1000
0001
0010
0100
,
1000
0100
1000
0000
,
0001
0100
0010
1000
,
0001
0010
0100
1000
,
0100
1000
0010
0000
,
0100
0001
1000
0000
,
0100
0010
0001
0000
,
0010
0100
1000
0000
,
0001
1000
0010
1000
,
0100
0010
0001
0000
,
1000
0010
0100
0000
,
0010
1000
0001
0010
,
0110
0000
1100
0000
,
1000
0001
0100
0010
,
1000
0001
0010
0010
,
0100
1000
0010
0100
,
0001
1000
0001
0000
,
0010
0010
0010
0001
,
1000
0010
0100
0000
,
0001
0001
0001
0100
,
0010
0000
1000
0001
,
0010
0100
0010
0001
,
0100
0010
0100
0001
,
1000
0000
0001
0000
,
0010
0010
0010
0010
,
0100
0100
0100
1000
,
0001
0100
0010
0000
,
1000
1000
1000
0010
,
0100
0000
0001
0000
,
1000
0100
0010
0001
,
1000
0010
0100
0001
,
1000
0000
0100
0000
,
0010
0010
0010
0001
,
1000
0010
0100
0001
,
1000
0100
0010
0000
,
0100
1000
0001
0100
,
0010
0100
0001
0000
,
1000
1000
0010
0100
,
0001
0001
0010
0100
,
1000
0000
0001
0000
,
0100
0010
1000
1000
,
0001
0010
0100
1000
,
0001
0100
0010
0000
,
0100
0001
1000
0100
,
0010
0100
1000
0000
,
0001
0001
0010
0100
,
1000
1000
0010
0100
,
0001
0000
1000
0000
,
0100
0010
0001
0001
,
1000
0000
0010
0000
,
0100
0001
0100
0010
,
1000
0100
0010
0001
,
1000
0000
0010
0010
,
0010
0000
0000
0000
,
1001
0000
0000
0000
;

//--------------- dance-single - ----------------
#NOTEDATA:;
#STEPSTYPE:dance-single;
#DESCRIPTION:;
#DIFFICULTY:Medium;
#METER:9;
#RADARVALUES:0.396151,0.43303,0.041638,0.049965,0,333,328,5,6,0,0,0,0,0,0.396151,0.43303,0.041638,0.049965,0,333,328,5,6,0,0,0,0,0;
#CHARTNAME:;
#CHARTHASH:1042976953;
#BANNER:;
#CHARTSTYLE:;
#METERF:0.000000;
#LASTSECONDHINT:113.203575;
#CREDIT:ZSL;
#NOTES:
0000
0000
0000
0000
,
0000
0000
0000
0000
,
0000
0000
0000
0000
,
0000
0000
0000
0000
,
0001
0000
0010
0000
0100
1000
0001
0000
,
0100
0010
1000
0001
0010
0000
0100
0000
,
1000
0000
0010
0000
0100
0001
1000
0000
,
0100
0010
0001
1000
0010
0000
0100
0000
,
0001
0000
1000
0100
0010
0100
1000
0000
,
0001
0100
0010
0000
1000
0001
0000
0000
,
0010
0100
1000
0001
0100
0010
1000
0000
,
0001
0100
0010
1000
0001
0010
0100
1000
,
0001
0000
0100
0000
0010
1000
0010
0000
,
0100
0000
0001
0000
0010
0100
0010
0000
,
0100
0000
1000
0000
0001
0100
0010
0000
,
1000
0100
0010
0001
0200
0000
0300
0000
,
0010
0000
1000
0000
0001
0010
0100
0000
,
1000
0001
0100
0001
0010
0100
1000
0000
,
0100
0000
1000
0000
0001
0100
0010
0000
,
1000
0001
0010
0001
0100
0010
1000
0001
,
1000
0000
0001
0100
0010
0100
0001
0000
,
1000
0100
0000
0000
0010
0001
0000
0000
,
1000
0010
1000
0001
0010
0001
0100
0000
,
0010
0010
0000
0000
1000
1000
0000
0000
,
0001
0010
0100
0000
0010
0001
1000
0010
,
0100
0001
1000
0100
0010
0100
0100
0000
,
1000
0001
0100
0001
1000
0010
1000
0000
,
0100
0010
0100
1000
0010
0000
1000
0000
,
0100
0000
1000
0001
1000
0000
0010
0000
,
0100
0001
1000
0100
0010
0000
0001
0000
,
0010
0000
0001
0100
0001
0000
1000
0000
,
0010
0000
0000
0000
0100
0001
1000
0000
,
0100
1000
0001
0010
0001
0000
0100
0000
,
0010
1000
0100
0010
0100
0000
1000
0000
,
0001
0101
1000
1100
,
0010
0001
0010
0001
1000
0010
1000
0010
,
0100
0000
0001
1000
0001
0000
0010
0000
,
0100
1000
0001
0100
0010
0000
1000
0000
,
0010
0000
1000
0100
1000
0000
0001
0000
,
0010
0000
0000
0000
0100
1000
0001
0000
,
0100
0001
1000
0010
1000
0000
0100
0000
,
0010
0001
0100
0010
0100
0000
0001
0000
,
1000
1100
0001
0101
,
0010
1000
0010
1000
0001
0010
0100
0000
,
0010
0100
1000
0001
,
0100
0010
1000
0001
1000
0000
0000
0000
,
0010
0100
0001
1000
,
0100
0010
0001
1000
0001
0000
0000
0000
,
1000
0000
1000
0000
0010
0100
0001
0010
,
0100
0000
0100
0000
0010
0001
0100
0000
,
0010
0000
1000
0001
1000
0000
0010
0000
,
0100
0001
1000
0100
0010
0100
1000
0000
,
0010
0100
0001
1000
,
0100
0010
0001
1000
0001
0000
0000
0000
,
0010
0100
1000
0001
,
0100
0010
1000
0001
1000
0000
0000
0000
,
0001
0000
0001
0000
0010
0100
1000
0010
,
0100
0000
0100
0000
0010
1000
0100
0000
,
0010
0000
0001
1000
0001
0000
0010
0000
,
0100
0000
1000
0001
0100
0000
0000
0000
,
0020
0000
2030
3000
,
0001
0000
0010
0100
1000
0000
0100
0000
,
1000
0100
1000
0100
0010
0001
1000
0000
,
0001
0100
0010
0000
0200
0300
0002
0003
,
2000
0000
0000
3000
,
1001
0000
0000
0000
;

//--------------- dance-single - ----------------
#NOTEDATA:;
#STEPSTYPE:dance-single;
#DESCRIPTION:;
#DIFFICULTY:Hard;
#METER:12;
#RADARVALUES:0.518685,0.487159,0.016655,0.091603,0.308118,436,434,2,11,0,0,0,0,0,0.518685,0.487159,0.016655,0.091603,0.308118,436,434,2,11,0,0,0,0,0;
#CHARTNAME:;
#CHARTHASH:3055914910;
#BANNER:;
#CHARTSTYLE:;
#METERF:0.000000;
#LASTSECONDHINT:113.203575;
#CREDIT:ZSL;
#NOTES:
0000
0000
0000
0000
,
0000
0000
0000
0000
,
0000
0000
0000
0000
,
0000
0000
0000
0000
,
0001
0000
0000
1000
0000
0000
0010
0000
0100
0000
0000
0000
0001
0000
0000
0000
,
1000
0100
0010
0001
1000
1000
0001
0000
,
1000
0000
0000
0001
0000
0000
0010
0000
0100
0000
0000
0000
1000
0000
0000
0000
,
0001
0100
0010
1000
1000
0001
1000
0010
,
0100
0000
0000
0000
0001
0000
1000
0000
0100
0000
0010
0001
0000
0000
1000
0000
,
0010
0000
0100
0000
0001
0000
1000
0000
0100
0000
0100
0000
0000
0010
0000
0001
,
1000
0000
0001
1000
0000
0010
0000
0100
0000
0000
0001
0000
1000
0000
0100
0000
,
0010
0100
1000
0001
0100
0001
0010
0100
,
1000
0000
0000
0001
0000
0000
0100
0001
0000
1000
0000
0000
0010
0000
1000
0000
,
0100
0010
0001
1000
0010
0100
0001
1000
,
0010
1000
0100
1000
0010
0100
0001
1000
,
0100
0001
0100
1000
0020
0000
0030
0000
,
0100
0000
0000
0001
0000
0000
1000
0000
0100
0000
0000
0000
0010
0000
0001
0000
,
1000
0010
0000
0010
0100
0000
0010
0000
0001
0000
0010
0000
1000
0000
0000
0000
,
0100
0000
0000
1000
0000
0000
0001
0000
0100
0000
0000
0000
0010
0000
1000
0000
,
0001
0010
0000
0010
0100
0000
0010
0000
1000
0000
0010
0000
0001
0000
1000
0000
,
0010
0000
0100
0001
1000
0100
0010
0001
,
1000
0000
0010
0000
0000
0100
0000
0000
0001
0000
0100
0000
0000
0010
0000
1000
,
0001
0000
0100
0010
0000
1000
0000
0100
0000
0000
1000
0000
0001
0000
0010
0000
,
0100
0220
0000
0330
0010
0022
0000
0033
,
0001
1000
0010
0000
1000
0010
1000
0100
,
0010
0001
1000
0010
0100
1000
0100
0001
,
1000
0100
0010
0001
1000
0010
0100
0001
,
0010
0001
0100
0010
2000
0000
3001
1000
,
0010
0000
0000
0010
0000
0000
0010
0000
0000
0000
1000
0000
0001
0000
0010
0000
,
1000
0000
0010
0000
0100
0000
1000
0001
0000
0000
0100
0000
0010
0000
1000
0000
,
0100
0000
0000
0100
0000
0000
0100
0000
0000
0010
0000
0001
1000
0000
0001
0000
,
0100
0000
0010
0000
0100
0001
1000
0100
,
1000
0000
0010
0000
1000
0000
0001
0100
0000
0000
0001
0000
1000
0000
0001
0000
,
0010
0000
0001
0000
0100
0000
0010
1000
0000
0010
0000
0000
1000
0000
0001
0000
,
0010
0000
0000
0100
0000
1000
0000
0000
0010
0000
0000
0100
0000
0001
0000
0000
,
1000
1000
0010
0010
0100
0100
0001
0001
,
0010
0000
0000
0010
0000
0000
0010
0000
0000
0000
0001
0000
1000
0000
0010
0000
,
0001
0000
0010
0000
0100
0000
0001
1000
0000
0000
0100
0000
0010
0000
0001
0000
,
0100
0000
0000
0100
0000
0000
0100
0000
0000
0010
0000
1000
0001
0000
1000
0000
,
0100
0000
0010
0000
0100
1000
0001
0100
,
0001
0000
0010
0000
0001
0000
1000
0100
0000
0000
1000
0000
0001
0000
1000
0000
,
0010
0000
1000
0000
0100
0000
0010
0001
0000
0010
0000
0000
0001
0000
1000
0000
,
0010
0000
0000
0100
0000
0001
0000
0000
0010
0000
0000
0100
0000
1000
0000
0000
,
0001
0001
0010
0010
0100
0100
1000
0001
,
0100
0000
0000
0000
0010
0000
0000
0000
1000
0000
0000
0001
0000
0000
0010
0000
,
0100
0000
1000
0000
0001
0000
0100
0010
0000
0000
1000
0000
1000
0000
0001
0000
,
0010
0000
0001
0000
0100
0000
0010
0000
1000
0000
0000
0010
0000
0000
0100
0000
,
0001
0000
1000
0000
0010
0000
1000
0100
0000
0000
0010
0000
0100
0000
1000
0000
,
0001
0100
0010
0100
1000
0100
0010
0000
,
1000
0100
0010
0100
0001
0100
0010
0000
,
0001
1000
0000
0001
0000
0000
0100
0000
0010
0100
0000
0010
0100
0000
0001
0000
,
1000
0000
0100
0000
1000
0000
0010
0000
0100
0001
0100
0000
0001
0000
0000
0000
,
0010
0000
0000
0000
0100
0000
0000
0000
1000
0000
0000
0001
0000
0000
0100
0000
,
0010
0000
1000
0000
0001
0000
0010
0100
0000
0000
1000
0000
1000
0000
0001
0000
,
0100
0000
0001
0000
0010
0000
0100
0000
1000
0000
0000
0100
0000
0000
0010
0000
,
0001
0000
1000
0000
0100
0000
1000
0010
0000
0000
0100
0000
0010
0000
1000
0000
,
0001
0100
0000
0100
0001
0000
1000
0000
0100
0000
0010
0000
0100
0000
0000
0000
,
0010
0001
0100
1000
0100
0001
0010
0000
,
0100
0000
0000
1000
0000
0000
0001
0000
0100
0010
0000
0010
1000
0000
0001
0000
,
0010
0000
0000
0000
0100
0000
1000
0000
0010
0000
0100
0000
0001
1000
0001
1000
,
0002
0000
0203
0300
,
0010
0000
0000
1000
0000
0000
0100
0000
0010
0000
0100
0000
1000
0000
0001
0000
,
1000
0010
0000
1000
0001
0000
0010
0000
0100
1000
0000
0001
1000
0000
0010
0000
,
0100
0001
1000
0000
0200
0300
0020
0030
,
0002
0000
0000
1000
0000
0000
1000
0000
0000
0000
1003
0000
0010
0000
1000
0001
,
0010
0000
0000
0000
;

//--------------- dance-single - ----------------
#NOTEDATA:;
#STEPSTYPE:dance-single;
#DESCRIPTION:;
#DIFFICULTY:Challenge;
#METER:15;
#RADARVALUES:0.674528,0.730739,0.091603,0.19986,0.791113,567,556,11,24,0,0,0,0,0,0.674528,0.730739,0.091603,0.19986,0.791113,567,556,11,24,0,0,0,0,0;
#CHARTNAME:;
#CHARTHASH:3391854987;
#BANNER:;
#CHARTSTYLE:;
#METERF:0.000000;
#LASTSECONDHINT:113.203575;
#CREDIT:ZSL;
#NOTES:
0000
0000
0000
0000
,
0000
0000
0000
0000
,
0000
0000
0000
0000
,
0000
0000
0000
0000
,
0001
0000
0000
0010
0000
0000
0100
1000
0000
0001
0000
0100
0010
0000
1000
0000
,
0001
1000
0000
1000
0100
0000
0010
0000
0001
0000
0001
0000
1000
0000
0000
0000
,
0100
0000
0000
1000
0000
0000
0001
0100
0000
0010
0000
1000
0001
0000
1000
0000
,
0100
0010
0000
0010
0001
0000
1000
0010
0100
0000
0001
0000
1000
0000
0001
0000
,
0110
0000
0000
0000
1000
0000
0100
0000
0010
0000
0001
0010
0000
0000
0001
0010
,
0100
1000
0001
0100
0010
0000
1000
0000
0100
0010
0001
0000
0000
0100
0000
0001
,
1000
0000
0100
1000
0000
0001
0000
0100
0000
0010
0100
0001
1000
0000
0100
0000
,
0010
0001
1000
0001
0100
0010
1000
0001
,
0010
0000
0000
0100
0000
0000
1000
0001
0000
0100
0000
0010
0100
0000
0001
0000
,
1000
0001
0010
0000
0100
0000
1000
0000
0010
1000
0001
0000
1000
0000
0010
0000
,
0100
0000
0001
0000
0100
0000
0010
0100
0001
1000
0000
0001
0010
0000
0100
0000
,
1000
0001
1000
0100
0020
0000
0030
0000
,
0100
0000
1000
0001
0000
0000
0100
0010
0000
0100
0000
0001
1000
0000
0100
0000
,
1000
0000
0000
0010
0000
0000
0000
0000
0000
0010
0000
0000
0100
0000
0000
0001
0000
0000
1000
0000
0000
0100
0000
0000
0010
0000
0100
0000
0010
0000
0100
0000
0000
0000
0000
0000
1000
0000
0000
0000
0000
0000
0000
0000
0000
0000
0000
0000
,
0010
0000
1000
0001
0000
0000
0010
0100
0000
0010
0000
0001
1000
0000
0010
0000
,
1000
0000
0000
0100
0000
0000
0000
0000
0000
0100
0000
0000
0010
0000
0000
0001
0000
0000
1000
0000
0000
0010
0000
0000
0100
0000
0010
0000
0100
0000
0010
0000
0000
0000
0000
0000
1000
0000
0000
0000
0000
0000
0001
0000
0000
0000
0000
0000
,
0100
0000
0000
0000
0001
0000
0100
0000
0010
0000
1000
0000
0100
0000
1000
0100
,
0010
0001
1000
0000
0000
0001
0000
0000
0100
0010
1000
0000
0000
0010
0000
0100
,
0010
0000
1000
0100
0000
0010
0000
0100
0000
0000
1000
0000
0001
0000
0100
0000
,
0110
2020
0000
3030
1100
0022
0000
0033
,
0001
1000
0010
1000
0001
0000
0000
0000
1000
0100
0010
0100
1000
0000
0010
0100
,
0001
0000
1000
0000
0010
0000
1000
0000
0100
0000
0020
0031
2000
0000
3010
0000
,
0100
0001
1000
0010
0100
0000
0001
0000
1000
0100
0010
0001
1000
0000
0010
0000
,
0100
0000
0001
0000
0100
0000
0010
0000
1000
0000
0001
0000
0010
0100
0010
0100
,
1000
0000
0100
0001
0000
0100
0001
0000
0000
0100
1000
0001
0100
0000
0010
1000
,
0001
0000
1000
0000
0100
0000
0010
0100
0000
1000
0000
0100
0010
0001
1000
0010
,
1000
0000
0010
0001
0000
0010
0001
0000
0000
0010
0000
1000
0001
0000
0010
0000
,
0100
0000
0000
0000
1000
0000
0000
0000
0001
1000
0000
0010
1000
0000
0001
0010
,
0100
0000
1000
0000
0001
0000
0100
0010
0000
1000
0010
1000
0100
0010
0001
0010
,
0100
0000
1000
0010
0100
0000
0001
0100
0000
0010
0000
1000
0010
0000
1000
0000
,
0100
0000
0001
0100
0000
1000
0000
0000
0010
0000
0001
0010
0000
1000
0000
0002
,
0100
2003
0100
3002
0100
2003
0010
3001
,
0011
0000
0010
1000
0000
0010
1000
0000
0000
0010
0001
1000
0010
0000
0100
0001
,
1000
0000
0001
0000
0010
0000
0100
0010
0000
0001
0000
0010
0100
1000
0001
0100
,
0001
0000
0100
1000
0000
0100
1000
0000
0000
0100
0000
0001
1000
0000
0100
0000
,
0010
0000
0001
0000
1000
0010
0100
0001
,
0100
0001
1000
0000
0001
0000
0010
0100
0000
0010
0000
0001
1000
0001
0100
0010
,
1000
0001
0010
0000
0100
0000
1000
0100
0000
1000
0000
0001
0100
0000
0010
0000
,
1000
0001
0000
0100
0001
0100
0000
0000
0001
0010
0001
1000
0000
0010
0000
2000
,
0100
3002
0100
2003
0100
3002
0010
0013
,
1001
0000
0000
0000
0001
0000
0000
0000
0101
0000
0000
0010
0000
0000
1000
0000
,
0100
0000
0010
0000
1000
0000
0010
0001
0000
0000
1000
0000
1000
0000
0010
0000
,
0100
0000
0001
0000
0100
0000
1000
0000
0100
0000
0000
0001
0000
0000
0010
0000
,
0001
0000
1000
0000
0010
0000
1000
0100
0000
0000
0010
0000
0001
0000
1000
0000
,
1001
0000
0001
0200
0010
0000
0301
0100
0010
1000
0100
0010
0001
0000
1000
0001
,
1000
0000
0001
0020
0100
0000
0031
0010
0100
1000
0010
0000
1000
0000
0001
1000
,
0100
0010
0000
0100
0000
0000
1000
0000
0100
0010
0001
0100
0010
0000
0100
0000
,
0001
0000
1000
0000
0001
0000
0010
0000
0100
1000
0100
1000
0010
0000
0000
0000
,
1001
0000
0000
0000
1000
0000
0000
0000
1100
0000
0000
0010
0000
0000
0001
0000
,
0100
0000
0010
0000
0001
0000
0010
1000
0000
0000
0001
0000
0001
0000
0010
0000
,
0100
0000
1000
0000
0100
0000
0001
0000
0100
0000
0000
1000
0000
0000
0010
0000
,
1000
0000
0001
0000
0010
0000
0001
0100
0000
0000
0010
0000
1000
0000
0001
0000
,
0010
0001
0000
0001
0100
0010
0000
0010
1000
0001
0000
1000
0001
0000
0010
0000
,
0100
0000
1000
0001
0100
0010
0100
0001
0010
0100
1000
0000
0100
0000
1000
0001
,
0010
0000
0000
0001
0100
0000
0010
0000
1000
0010
0000
0010
0100
0000
0001
0000
,
2000
0000
0000
0000
3100
0000
0010
0000
0001
1000
0001
1000
0001
1000
0001
1000
,
0020
0000
0230
0300
,
0002
0000
0000
0010
0000
0000
1000
0000
0103
0000
0001
0000
0100
0000
0010
0000
,
1000
0100
0000
0010
0001
1000
0010
0100
0001
1000
0000
1000
0100
0000
0100
0010
,
0001
1000
0010
0000
0200
0300
0002
0003
,
2000
0000
0000
0001
0000
0000
0100
0000
0000
0000
3100
0010
0001
1000
0100
1000
,
0010
0000
0000
0000
;
