#TITLE:SYMPHONY SAGA;
#SUBTITLE:;
#ARTIST:Kaystar;
#TITLETRANSLIT:;
#SUBTITLETRANSLIT:;
#ARTISTTRANSLIT:;
#GENRE:Adventurous Rave!;
#CREDIT:;
#MUSIC:SYMPHONY SAGA.ogg;
#BANNER:SYMPHONY SAGA.png;
#BACKGROUND:SYMPHONY SAGA-bg.png;
#CDTITLE:cdtitle.png;
#SAMPLESTART:10.907;
#SAMPLELENGTH:10.000;
#SELECTABLE:YES;
#OFFSET:0.000;
#BPMS:0.000=176.000
,207.000=88.000
,223.000=176.000
;
#STOPS:28.000=0.170
,28.500=0.170
,29.000=0.170
,29.500=0.170
,90.000=0.170
,90.500=0.170
,91.000=0.170
,91.500=0.170
,137.500=0.341
,168.500=0.341
,191.500=0.341
,235.000=0.170
,235.500=0.170
,236.000=0.170
,236.500=0.170
;
#BGCHANGES:27.626=SYMPHONY SAGA.avi=1.000=0=0=1===CrossFade_Fastest==,
301.000=SYMPHONY SAGA bg.png=1.000=0=0=1,
99999.000=-nosongbg-=1.000=0=0=0=StretchNoLoop====
;
#FGCHANGES:;

//--------------- dance-single - KAYSTAR ----------------
#NOTES:
     dance-single:
     KAYSTAR:
     Beginner:
     4:
     0,0,0,0,0:
0000
0000
0000
0000
,
0000
0000
0000
0000
,
0000
0000
0000
0000
,
0000
0000
0000
0000
,
0000
1000
0000
1000
,
0000
0001
0000
0001
,
0000
0100
0000
0100
,
0000
0000
0000
0010
,
0010
0000
1000
0000
,
1000
0000
0000
0001
,
0001
0000
0010
0000
,
0010
0000
0000
0100
,
0100
0000
1000
0000
,
1000
0000
0020
0000
,
0030
0000
0200
0000
,
0300
0000
0000
0001
,
0001
0000
0010
0000
,
0010
0000
0000
0100
,
0100
0000
1000
0000
,
1000
0000
0000
0010
,
0010
0000
0100
0000
,
0100
0000
0002
0000
,
2000
0000
3003
0000
,
0000
0000
1000
0000
,
1000
0000
0000
0001
,
0000
0100
0000
0100
,
0000
0000
0010
0000
,
1000
0000
1000
0000
,
0000
0000
0001
0000
,
0010
0000
0100
0000
,
1000
0000
0001
0001
,
0001
0000
0100
0100
,
0100
0000
0010
0000
,
1000
0000
0100
0100
,
0100
0000
0000
0000
,
0010
0020
0000
0000
,
0030
0000
0001
0000
,
0100
0000
0010
0020
,
0030
1000
1000
1000
,
0000
0100
0100
0100
,
0000
0010
0000
0001
,
0000
0100
0100
0100
,
0000
0000
0000
0010
,
0020
0000
0000
0030
,
0000
1000
0000
0100
,
0000
0010
0010
0010
,
0000
0001
0000
0001
,
0000
1000
0000
1000
,
0000
0000
0000
0010
,
0010
0010
0000
0002
,
0003
0020
0030
0200
,
0300
2000
3000
0020
,
0000
0000
0000
0000
,
0000
0030
0000
1000
,
0000
0001
0001
0001
,
0000
0010
0010
0020
,
0000
0030
0000
0001
,
0000
0010
0000
0100
,
0100
0200
0000
0300
,
0000
0000
1000
1000
,
0000
0010
0000
0010
,
0000
0000
0100
0100
,
0000
0001
0000
0001
,
0000
2000
3000
1000
,
0000
0200
0300
0100
,
0000
0020
0030
0010
,
0000
0001
0001
0001
,
0000
1000
1000
2000
,
3000
0010
0000
0010
,
0000
0100
0100
0200
,
0300
0001
0000
0001
,
0000
0010
0010
0010
,
0000
0200
0300
0100
,
0000
1000
1000
2000
,
0000
0002
0000
0000
,
0000
3003
0000
0000
;

//--------------- dance-single - KAYSTAR ----------------
#NOTES:
     dance-single:
     KAYSTAR:
     Easy:
     7:
     0,0,0,0,0:
0000
0000
0000
0000
,
0000
0000
0000
0000
,
0000
0000
0000
0000
,
0000
0000
0000
0000
,
0000
1000
0000
1000
,
0000
0001
0000
0001
,
0100
0100
0010
0010
,
2000
0000
0000
3000
0000
0000
0100
0000
,
1000
0000
0001
0000
,
0001
0000
0100
0010
,
1000
0000
0100
0000
,
0100
0000
1000
0010
,
0100
0000
0001
0000
,
0001
0000
0020
0030
,
0020
0030
0001
0100
,
0010
1000
0100
0010
,
0001
0000
0100
0000
,
0100
0000
0001
0010
,
0100
0000
1000
0000
,
1000
0000
0010
0100
,
0001
0000
0010
0000
,
0010
0000
0001
0100
,
0010
0000
1000
0000
0200
0000
0000
0300
,
0000
0000
1000
0000
,
0001
0000
0000
0001
0000
0000
0100
0000
,
0000
0020
0030
1000
,
0000
1000
0000
0000
0100
0000
0000
0000
,
0020
0030
0001
0100
,
0010
0000
1000
0000
,
1000
0000
0001
0000
,
0001
0000
0010
0010
,
0100
0000
1000
1000
,
0010
0000
0100
0000
,
0100
0000
0001
0010
,
0100
1000
0000
0010
,
0010
0020
0000
0000
,
0030
1000
0000
1000
,
0000
0001
0000
0001
,
0000
0100
0100
0010
,
0000
1000
1000
0100
,
0000
0010
0000
0010
,
0000
0001
0100
0010
,
1000
0000
0100
0100
,
0200
0000
0000
0300
,
1000
0000
1000
0000
,
0001
0100
0010
1000
,
0001
0010
0100
0000
,
1000
0010
0100
0000
,
0000
0001
0001
0100
,
0010
1000
0100
0020
,
0030
0002
0003
2000
,
3000
0020
0000
0200
,
0000
0000
0000
0000
,
0000
0330
0000
0010
,
0010
0000
1000
0100
0010
0000
0001
0000
,
0001
0000
1000
0010
0100
0000
0002
0000
,
0000
0003
0000
1000
,
0100
0010
0000
0001
,
1000
0010
0100
0002
,
0000
0003
0000
0000
0100
0000
0001
0000
,
1000
0010
0000
0010
,
0000
1000
0100
0010
,
0001
0100
0000
0100
,
0000
0010
1000
0001
,
0000
0010
0001
1000
,
0000
0010
0100
0001
,
0000
0020
0030
0020
,
0030
0001
0100
0010
,
1000
1000
0100
0010
,
0001
0001
1000
0010
,
0100
0100
0001
0010
,
0100
2000
3000
0010
,
1000
0002
0003
0100
,
0001
0010
0100
1000
,
0020
0200
0000
0000
,
0000
0330
0000
0000
;

//--------------- dance-single - KAYSTAR ----------------
#NOTES:
     dance-single:
     KAYSTAR:
     Medium:
     11:
     0,0,0,0,0:
0000
0000
0000
0000
,
0000
0000
0000
0000
,
0000
0000
0000
0000
,
0000
0000
0000
0000
,
0001
0000
0000
1000
0000
0000
0010
0000
0000
0000
0000
0000
0220
0000
0000
0000
,
0000
0330
0010
1000
,
0100
0100
0010
0010
,
0002
0000
0000
0003
0000
0000
0101
0000
,
1010
0000
1000
0002
0000
0103
0001
2000
,
0000
3100
1000
0002
0000
0003
0011
0000
,
1100
0000
1000
0020
0000
0000
0100
0000
,
1000
0130
1010
0101
,
1010
0000
1000
0002
0000
0013
0001
2000
,
0000
3100
1000
0020
0000
0130
0001
0020
,
0000
0031
1000
0200
0000
1300
0010
0200
,
0000
0001
0301
0000
0011
0000
1100
0000
,
0011
0000
0001
2000
0000
3100
1000
0002
,
0000
0103
0001
2000
0000
3000
1010
0000
,
0101
0000
0001
0020
0000
0000
0100
0000
,
0001
0130
0011
1100
,
0011
0000
0001
2000
0000
3010
1000
0002
,
0000
0103
0001
1000
0010
1000
0010
0100
,
0001
0010
0100
1000
0020
0000
0000
0030
,
0000
0000
0000
1000
0010
0100
0001
1000
,
0000
1001
0000
1000
0100
0010
0002
0000
,
0000
1000
1003
0000
0000
0001
1000
0000
,
0010
0010
0010
0000
0100
0001
0010
0100
,
1000
0010
0000
0000
0200
0000
0000
0010
,
0310
0000
0202
0303
,
2020
3030
2200
3300
,
0022
0000
0033
0000
1000
0100
0010
0001
,
0010
0100
1000
0000
0001
0100
0010
1000
,
0010
0100
0001
0000
1000
0010
0100
0001
,
0010
0001
0100
0010
1000
0100
1000
0001
,
0010
0100
1000
0020
0030
0000
0110
0000
,
1001
2200
0000
3300
,
1001
0000
0001
0010
0001
0010
0100
1000
,
0001
0001
0000
1000
1000
0000
0010
1000
,
0010
1000
0001
0100
0010
0100
0001
0010
,
0100
1000
0010
1000
0100
0010
0001
1000
,
0010
0100
0001
0010
0001
0010
0100
1000
,
0100
1000
0010
0000
0110
0000
0100
0001
,
0010
0200
0300
0000
0110
0000
1001
0000
,
0202
0000
0303
1001
,
1000
0010
1000
0010
0100
0001
0010
0100
,
1000
0100
0010
0001
0100
0010
2000
0000
,
3100
0000
1100
0000
1000
0010
0100
0001
,
0010
0000
0011
0000
0001
0100
0010
2000
,
3000
0000
0001
0010
0100
0000
1000
0010
,
0100
0001
0010
0100
0010
0100
2000
0000
,
3001
0202
0303
2020
,
3030
2200
3300
0022
,
0000
0000
0000
0000
,
0000
0000
0033
0000
0000
0000
0001
0001
,
0100
0000
0001
1000
0100
0010
0001
0001
,
0100
0000
0001
1000
0100
0010
0002
0000
,
0000
0000
1003
0000
1001
0000
0001
0100
,
0010
0000
1000
0100
0010
0000
0001
0100
,
0001
0100
0010
1000
0100
0010
0002
0000
,
0000
0003
0000
0000
1010
0000
0101
0000
,
1000
0200
0000
0310
0001
0200
0000
0310
,
1000
0001
0000
0000
0011
0000
1100
0000
,
0001
0200
0000
0310
1000
0200
0000
0310
,
0001
2000
0000
3100
0010
0002
0000
0103
,
0010
2000
0000
3010
0100
0002
0000
0013
,
0100
1000
0001
0000
0100
0010
0000
0100
,
0010
0110
1010
1100
,
0110
0000
0001
0010
0100
2000
0000
3001
,
0100
0010
1000
0100
0010
0001
0100
0010
,
1000
0200
0000
0310
0001
0200
0000
0310
,
1000
0100
1000
0010
0100
0001
0010
0100
,
1000
0000
1000
0000
0002
0000
0000
0003
0100
0000
0001
0000
0100
0000
0001
0000
,
1000
0020
0000
0130
0001
0020
0000
0130
,
1000
0010
0100
0001
0100
0001
1000
0010
,
0100
0001
0020
0000
0000
0000
0000
0000
,
0000
0030
0000
0000
;

//--------------- dance-single - KAYSTAR ----------------
#NOTES:
     dance-single:
     KAYSTAR:
     Hard:
     14:
     0,0,0,0,0:
0000
0000
0000
0000
,
0000
0000
0000
0000
,
0000
0000
0000
0000
,
0000
0000
0000
0000
,
2000
0001
0000
0010
,
0000
0000
3001
0000
0000
1000
0100
0010
,
0001
0000
0000
1000
0000
0000
0100
0000
0000
0000
1000
0000
0000
0001
0000
0000
,
0200
0000
0000
0300
0010
0100
0001
1000
,
0010
0100
0001
2000
0000
3100
0010
0002
,
0000
0103
0010
2000
0000
3001
0010
0100
,
1000
0000
0001
0000
0010
0000
0200
0000
0000
0000
0310
0000
0100
0010
0100
0000
,
0000
0010
0001
0100
0010
1000
0100
0010
,
0001
1000
0100
0020
0000
0031
1000
0200
,
0000
1300
0001
0200
0000
1300
0100
0020
,
0000
1030
0001
0010
1000
0010
0100
1000
,
0001
0000
1000
0001
1000
0000
0000
0000
1000
0000
1000
0000
0001
0000
0001
0000
,
0100
0010
1000
0200
0000
1300
0001
0020
,
0000
0031
1000
0020
0000
0130
0001
0010
,
0100
0000
1000
0000
0010
0000
0200
0000
0000
0000
0310
0000
0100
0010
0100
0000
,
0000
0000
0110
0000
0000
0000
0010
0100
0010
0000
1000
0000
0001
0000
0100
0000
,
0010
1000
0100
0020
0000
0031
1000
0200
,
0000
1300
0001
0200
0000
1300
0001
0010
,
1000
0100
0010
0001
0200
0000
0000
0300
,
0001
0000
0000
1000
0010
0100
0001
0010
,
0010
0000
0001
0100
1000
0100
0020
0000
,
1030
0001
0010
0100
1000
0010
0010
0000
,
1000
0000
0001
1000
0001
1000
0001
0000
1000
0000
0100
0000
0010
0000
0001
0000
,
0200
0000
0000
0000
0310
0000
0100
0000
0100
0000
0000
0000
0001
0100
0001
0000
,
0000
0000
1000
0000
0000
0000
0010
0100
0010
0000
0000
0000
1000
0000
0001
0000
,
0010
0001
0000
0000
0100
0000
0010
0000
1000
0100
0000
0010
0001
0000
1000
0001
,
1000
0000
0000
0000
2002
0000
3003
0000
0001
0000
0000
0001
1000
0000
0100
0000
,
0010
0000
0001
0000
0101
0000
0000
0000
1000
0000
0000
1000
0001
0000
0010
0000
,
0100
0000
1000
0000
1010
0000
0000
0000
0010
0000
0000
0010
1000
0000
0100
0000
,
0010
0000
0000
0010
0001
0000
0100
0000
0010
0000
0000
1000
0100
0000
0000
0010
,
0001
0100
0010
2000
3001
0000
1000
0010
,
0100
0001
0020
0000
1000
0000
0100
0100
,
0130
0000
1000
0100
0001
0100
0010
0001
,
1000
1000
0000
0001
0001
0000
0010
0210
,
0000
0000
0300
0000
1000
0100
1000
0000
0001
0000
1000
0100
1000
0000
0001
0000
,
0100
0010
0100
0000
0001
0000
0100
0010
0100
0000
0001
0000
1000
0000
0100
0000
,
0001
0000
0100
0000
0010
0000
0001
0010
0001
0000
1000
0100
1000
0000
0001
1000
,
0001
1000
0001
0000
0010
0000
0000
0001
0100
0000
0000
0010
1000
0000
0100
0000
,
0010
0002
1003
0000
0001
0010
0100
1000
,
0020
0000
0001
0000
0100
0100
0130
0000
,
0001
0100
1000
0100
0010
1000
0001
0100
,
0010
0000
0010
0000
1000
0000
1000
0000
0001
0010
0100
0000
2000
0000
0000
0000
,
3001
0000
0000
0010
0001
0000
0100
0000
0010
0000
1000
0000
0100
1000
0000
0000
,
0001
0000
0000
0100
0001
0000
0010
0000
0100
0000
1000
0000
0010
2000
0000
3000
,
0001
0000
1000
0100
0010
0000
0001
0100
,
0001
0000
0100
0000
0010
1000
0010
1000
0001
0000
1000
0100
0020
0000
0000
0000
,
0031
0201
0310
2010
,
3100
2002
3003
0220
,
0000
0000
0000
0000
,
0000
0000
0000
0000
0330
0000
0000
0000
0000
0000
0000
0000
1001
0000
0001
0100
,
0001
0100
0000
0000
0010
0000
0010
1000
0000
1000
0001
0000
1001
0000
1000
0100
,
1000
0100
0000
0000
0010
0000
0010
0001
0000
0100
0010
0100
0020
0000
0000
0000
,
1000
1000
0100
0001
,
0001
0000
0100
0000
1030
0000
0001
0010
,
0100
1000
0001
0100
1000
0100
0020
0000
,
0000
0000
0030
0000
1000
0000
0000
1000
0001
0000
0000
0001
0100
0000
0010
0000
,
1000
0000
0000
0000
0200
0000
0000
0000
0000
0000
0000
0300
1000
0000
0100
0000
1000
0000
0000
0000
0001
0000
0000
0000
0010
0000
0000
0000
1000
0000
0000
0000
,
0010
0000
0100
0000
1000
0000
0000
1000
0001
0000
0000
0001
0010
0000
0001
0000
,
0100
0000
0000
0000
0020
0000
0000
0000
0000
0000
0000
0030
1000
0000
0010
0000
1000
0000
0000
0000
0001
0000
0000
0000
0100
0000
0000
0000
1000
0000
0000
0000
,
0100
0020
0000
0031
0010
0200
0000
0301
,
1000
0200
0000
0301
0100
0020
0000
0031
,
1001
0000
0000
0000
1000
0100
0000
0000
1000
0000
0001
0000
0010
0001
0000
0000
,
0100
0000
0010
0000
1000
0100
0000
0000
0100
0010
0000
0000
0010
0001
0000
0000
,
1000
0000
1000
0000
0001
0100
0001
0000
1000
0000
0020
0000
0000
0000
0031
0000
,
0010
0000
1000
0000
0001
0010
0001
0000
1000
0000
0100
0000
0001
0000
0100
0000
,
0020
1000
0000
0031
1000
0200
0000
0001
,
0301
0000
0100
0000
1000
0100
1000
0000
0001
0000
0100
0010
0100
0000
0001
0000
,
0010
0100
2000
0000
3001
0100
1000
0100
,
0001
0000
1000
0100
0020
0000
0000
0000
0031
0000
1000
0000
0010
0000
1000
0000
,
0100
0000
0010
0000
0002
0000
1000
0000
1000
0000
1003
0000
0001
0100
0001
0100
,
0010
1000
0010
1000
0002
0000
0000
0000
0000
0000
0000
0000
0000
0000
0000
0000
,
0000
0003
0000
0000
;

//--------------- dance-single - KAYSTAR ----------------
#NOTES:
     dance-single:
     KAYSTAR:
     Challenge:
     17:
     0,0,0,0,0:
0000
0000
0000
0000
,
0000
0000
0000
0000
,
0000
0000
0000
0000
,
0000
0000
0000
0000
,
1000
0000
0000
0001
0000
0000
0200
0000
0000
0000
0000
0000
1000
0000
0000
0000
,
0000
0000
0001
0000
0300
0010
1000
0100
,
0010
0000
0010
0001
0000
0000
1000
0000
0000
0000
0010
0000
0010
1000
0000
0000
,
0200
0300
0000
0020
0030
0000
0200
0300
0000
0020
0030
0000
0001
0000
0000
1000
0000
0000
0100
0000
0000
0010
0000
0000
,
0001
0000
1000
0100
0000
1000
0001
0000
0100
0000
1000
0000
0100
0000
0020
0000
,
0000
1030
0001
0200
0000
1300
0100
0001
,
0100
0000
0010
1000
0000
0001
1000
0000
0001
0000
0010
0000
0001
0010
0001
0000
,
1000
0100
0001
0100
1000
0001
0010
0100
,
1000
0000
0001
0100
0000
0001
1000
0000
0010
0000
0001
0000
0010
0000
0200
0000
,
0000
0301
1000
0200
0000
0301
1000
0020
,
0000
0031
1000
0100
0010
0100
1000
0001
,
0100
0000
0010
0001
0010
0000
0100
0000
0001
0000
0001
0000
1000
0000
1000
0000
,
0100
0000
1000
0001
0000
0010
0001
0000
1000
0000
0010
0000
0001
0000
0020
0000
,
0000
1030
0001
0200
0000
1300
0100
0001
,
1000
0000
0001
0010
0000
0001
1000
0000
0100
0000
0001
0000
0100
0010
0100
0000
,
0010
0000
1000
0000
0010
0000
0100
0010
0001
0000
1000
0000
0100
0000
0001
0000
,
0100
0000
1000
0001
0000
0010
0001
0000
1000
0000
0010
0000
0001
0000
0010
0000
,
0100
0000
0001
1000
0000
0010
1000
0000
0001
0000
0001
0000
1000
0000
1000
0000
,
0001
0000
0000
0100
0000
0000
0010
0000
0000
1000
0000
0000
0100
0000
0000
0010
0000
0000
0001
0000
0000
0000
0000
0000
2000
0000
3000
0000
0000
0000
0002
0000
0003
0000
0000
0000
2000
0000
3000
0000
0000
0000
0002
0000
0003
0000
0000
0000
,
0200
0000
0310
1000
0100
0001
0100
1000
,
0010
0000
0100
0001
0100
0000
0010
0000
1000
0000
0100
0000
0020
0000
0000
0000
,
0031
0100
1000
0100
0010
0010
2000
0000
,
3001
0000
0100
0010
0100
0010
0100
0000
0001
0000
1000
0010
0000
0100
0001
0000
,
1000
0100
0010
0001
0000
0000
0100
0000
0100
0000
0001
0000
1000
0010
1000
0000
,
0001
0000
0100
0000
0000
0000
1000
0100
0020
0000
0000
0030
1000
0001
1000
0001
,
0200
0000
0000
0300
0001
1000
0001
1000
0010
0000
0000
0100
0001
0000
1000
0010
,
1000
0000
0100
1000
0200
0000
0000
0000
0301
0000
0100
0010
0001
0000
0010
0100
,
1000
0000
0100
0010
0001
0000
1000
0000
0010
0000
0100
0010
1000
0000
0010
0100
,
0001
0000
1000
0000
0010
1000
0001
1000
0001
0000
0010
0001
0100
0000
0001
0000
,
1000
0000
0010
1000
0100
0000
1000
0000
1001
0000
0000
0001
0010
0000
0000
1000
,
0010
0000
0100
1000
0100
1000
0002
0000
1003
0000
0000
0001
0010
0000
0001
0000
,
1000
0100
1000
0000
0001
0000
0010
0000
0100
0000
0000
1000
0010
0000
0100
0001
,
0200
0000
1300
0100
0001
1000
0010
0001
,
0010
0110
0000
0100
0101
0000
1010
2002
,
0000
0000
3003
0000
1000
0010
0100
0010
1000
0000
0001
0010
0100
0010
0001
0000
,
1000
0010
0100
1000
0100
0000
0010
1000
0010
0100
0001
0000
1000
0100
0010
0000
,
0100
0001
0100
0010
0001
0000
0010
0100
0010
0000
0100
1000
0100
0000
1000
0010
,
1000
0010
0100
0001
1000
0000
0000
0001
0010
0000
0000
1000
0010
0000
0100
1000
,
0100
1000
0002
0000
1003
0000
0000
0001
0010
0000
0001
0000
0100
0010
0100
0000
,
0001
0000
1000
0000
0010
0000
0000
1000
0100
0000
0010
0100
0020
0000
0000
0000
,
1030
0010
0001
1000
0100
0001
0200
0000
,
1300
0000
0001
0010
0100
0000
1000
0010
0100
0010
0100
0001
0100
0000
0000
0000
,
0110
0000
0000
0010
1000
0000
0001
0000
0100
0000
0010
0000
1000
0100
1000
0000
,
0001
0000
0000
0010
0001
0000
1000
0000
0100
0000
0010
0000
0001
0100
0002
0000
,
1003
0001
0100
1000
0100
0010
1000
1000
,
0001
0000
0001
1000
0100
0001
0100
0010
0001
1000
0010
0100
0002
0000
0000
0000
,
1003
0010
0001
0020
0000
0000
1030
0000
0000
1200
0000
0001
,
0300
0000
0000
0000
0010
0000
0000
0000
0100
0000
0000
0000
1000
0000
0000
0000
0000
0000
0001
0000
0000
0100
0000
0000
0010
0000
0000
1000
0000
0000
0100
0000
0000
0010
0000
0000
0002
0000
0000
0000
0000
0000
0000
0000
0000
0000
0000
0000
,
0000
0000
0000
0000
,
0000
0000
0000
0000
0003
0000
0000
0000
0000
0000
0000
0000
1001
0000
0001
0100
,
1000
0000
0100
0000
0010
0000
0000
0000
1000
0000
0001
0100
0001
0000
2000
0000
0000
0000
0010
0000
3010
0000
0000
0000
1001
0000
0000
0000
1000
0000
0100
0000
,
0001
0000
0100
0000
0010
0000
0000
0000
0001
0000
1000
0100
1000
0000
0001
0000
0000
0000
0100
0000
0100
0000
0010
0100
0020
0000
0000
0000
0000
0000
0000
0000
,
0130
0000
0001
0000
0010
0000
0100
0000
1000
0001
1000
0001
0010
0000
0001
0000
,
0100
0000
0010
0000
1000
0000
0100
0000
1000
0001
1000
0001
0010
0000
0001
0100
,
0001
0000
0000
0100
0000
0000
0010
0000
0000
1000
0000
0000
0010
0000
0000
1000
0000
0000
0001
0000
0000
0010
0000
0000
1000
0000
0000
0010
0000
0000
0100
0000
0000
1000
0000
0000
0002
0000
0003
0000
0000
0000
0020
0000
0030
0000
0000
0000
,
0200
0000
0300
0000
0000
0000
2000
0000
3000
0000
0000
0000
0001
0000
0000
0000
0000
0000
0100
0000
0000
0001
0000
0000
0100
0000
0000
0000
0000
0000
0010
0000
0000
1000
0000
0000
0010
0000
0000
0000
0000
0000
1000
0000
0000
0100
0000
0000
,
0001
0000
0100
0000
1000
0000
0010
1000
0010
0000
0100
0001
0100
0000
0001
0010
,
1000
0000
0000
0000
0020
0000
0000
0000
0000
0000
0000
0030
0100
0000
0010
0000
0001
0000
0000
0000
1000
0000
0100
0000
1000
0000
0000
0000
0001
0000
0100
0000
,
1000
0000
0100
0000
0001
0000
1000
0010
1000
0000
0020
0000
0000
0000
0031
0000
,
1000
0100
0010
0000
2000
0000
3200
0000
0301
0000
2000
0000
3020
0000
0031
0000
,
1000
0100
1000
0000
0002
0000
0203
0000
1300
0000
0002
0000
0023
0000
1030
0000
,
0001
0100
0001
0000
1000
0100
0001
0000
0100
0000
1000
0000
0001
0010
1000
0000
,
0010
0000
0001
0000
1000
0100
0010
0000
0001
0100
0010
0000
2000
0000
0000
0000
,
3001
0000
1001
0000
1000
0100
0001
0100
1000
0000
0001
0020
0000
0000
1030
0000
,
0010
0100
1000
0000
0001
0100
1000
0100
0010
0000
0100
0010
0001
0010
1000
0000
,
0001
0200
1000
0000
0310
0000
1000
0001
1000
0000
0001
0010
0100
0000
0001
1000
,
0010
0100
1000
0000
0010
0001
1000
0100
0010
0000
0100
0001
0100
0010
1000
0100
,
0020
0000
0130
0000
0110
0000
0000
0000
1000
0100
1000
0000
0001
0010
0001
0000
,
1000
0020
0001
0000
0130
0000
0001
1000
0001
0000
1000
0100
0010
0000
1000
0000
,
0001
0000
0100
0000
1000
0000
1000
0000
0001
0000
0001
0100
1000
0100
0010
1000
,
0001
0010
0100
2000
0002
0000
0000
0000
0000
0000
0000
0000
0000
0000
0000
0000
,
0000
3003
0000
0000
;

//--------------- dance-double - KAYSTAR ----------------
#NOTES:
     dance-double:
     KAYSTAR:
     Easy:
     7:
     0,0,0,0,0:
00000000
00000000
00000000
00000000
,
00000000
00000000
00000000
00000000
,
00000000
00000000
00000000
00000000
,
00000000
00000000
00000000
00000000
,
00000000
00010000
00000000
00010000
,
00000000
00001000
00000000
00001000
,
00000000
00100000
00100000
00100000
,
00000000
00000000
00000000
00010000
,
01000000
00100000
10000000
00000000
,
10000000
00000000
01000000
00100000
,
00010000
01000000
00001000
00000000
,
00001000
00000000
00010000
00000010
,
00001000
00000100
00000010
00000000
,
00000010
00000000
00000001
00000100
,
00000010
00000000
00001000
00000100
,
00000010
00000000
00000001
00001000
,
00000010
00000100
00000001
00000000
,
00000001
00000000
00000010
00000100
,
00001000
00000010
00010000
00000000
,
00010000
00000000
00001000
01000000
,
00010000
00100000
01000000
00000000
,
01000000
00000000
10000000
00100000
,
01000000
00010000
00000000
00000000
,
00000000
00000000
00100000
00000000
,
00001000
00000000
00000000
00001000
00000000
00000000
00010000
00000000
,
00000000
00000020
00000030
00010000
,
00000000
00010000
00000000
00000000
00001000
00000000
00000000
00000000
,
00200000
00300000
00010000
01000000
,
00100000
00000000
20000000
30000000
,
02000000
03000000
00200000
00300000
,
00020000
00030000
01000000
01000000
,
00001000
00000000
00010000
00010000
,
00000010
00000000
00001000
00000100
,
00000010
00000001
00000100
00000100
,
00000100
00000100
00000000
00000010
,
00001000
00000200
00000000
00000300
,
00000000
00001000
00000010
00000100
,
00000001
00000010
00000000
00000220
,
00000330
00000100
00000100
00010000
,
00000000
00001000
00001000
00100000
,
00000000
00010000
01000000
00100000
,
10000000
01000000
01000000
01000000
,
01000000
00000000
10000000
00100000
,
02000000
00000000
03000000
00000000
,
00010000
00100000
01000000
10000000
,
00010000
00010000
01000000
00100000
,
20000000
30000000
02000000
03000000
,
00200000
00300000
00020000
00030000
,
00000000
01000000
01000000
00001000
,
00010000
00000010
00000010
00002000
,
00003000
00000200
00000300
00000020
,
00000030
00000002
00000003
00000200
,
00000000
00000000
00000000
00000000
,
00000000
00000300
00000000
00001001
,
00001000
00000000
00000010
00010000
00001000
00100000
00010000
00000000
,
00010000
00000000
10000000
01000000
00100000
00010000
02000000
00000000
,
00000000
03000000
00000000
00010000
,
00010000
10000000
10000000
02200000
,
00000000
00000000
00000000
03300000
,
00000000
00000000
10000000
00010000
,
00100000
00001000
00000000
00001000
,
00000000
01000000
00010000
00100000
,
00001000
00010000
00000000
00010000
,
00000000
00000010
00001000
00000100
,
00000010
00000010
00000001
00000100
,
00000010
00000020
00000030
00000020
,
00000030
00001000
00000100
00000010
,
00000001
00001000
00000010
00010000
,
00010000
00001000
00100000
00010000
,
10000000
00100000
01000000
00010000
,
00010000
10000000
01000000
00100000
,
00010000
02000000
03000000
00010000
,
00100000
00002000
00003000
00010000
,
00000010
00001000
00000100
00000010
,
00000001
00000200
00000000
00000000
,
00000000
00000300
00000000
00000000
;

//--------------- dance-double - KAYSTAR ----------------
#NOTES:
     dance-double:
     KAYSTAR:
     Medium:
     11:
     0,0,0,0,0:
00000000
00000000
00000000
00000000
,
00000000
00000000
00000000
00000000
,
00000000
00000000
00000000
00000000
,
00000000
00000000
00000000
00000000
,
10000000
00000000
00000000
00010000
00000000
00000000
01000000
00000000
00000000
00000000
00000000
00000000
02200000
00000000
00000000
00000000
,
00000000
03300000
00100000
10000000
,
01000000
01000000
00100000
00100000
,
00020000
00000000
00000000
00030000
00000000
00000000
01010000
00000000
,
01001000
00000000
00001000
00010000
00000000
00001000
00010000
00000020
,
00000000
00001030
00000001
00000020
00000000
00000030
00000011
00000000
,
00001100
00000000
00010000
00002000
00000000
00000000
00010000
00000000
,
00000010
00013000
00011000
00101000
,
00011000
00000000
00001000
01000000
00000000
00001000
01000000
00020000
,
00000000
00130000
01000000
20000000
00000000
30100000
01000000
00020000
,
00000000
00030000
10000000
01000000
00010000
01000000
00100000
00020000
,
20000000
30030000
00101000
00110000
,
00101000
00000000
00001000
00010000
00000000
00001000
00010000
00000200
,
00000000
00001300
00000001
00000200
00000000
00000300
00000101
00000000
,
00001010
00000000
00010000
00002000
00000000
00000000
00010000
00000000
,
00000100
00013000
00011000
01001000
,
00011000
00000000
00001000
00100000
00000000
00001000
00100000
00020000
,
00000000
01030000
00100000
20000000
00000000
31000000
00100000
00020000
,
00000000
10000000
10000000
20000000
00000000
00000000
00000000
30030000
,
00000000
00000000
00000000
10000000
01000000
00000000
10000000
00100000
,
00000000
10100000
00000000
10000000
01000000
00100000
00020000
00000000
,
00000000
01000000
01030000
00000000
00000000
00001000
00020000
00000000
,
00000010
00030010
00000000
00001000
00000001
00000010
00000100
00001000
,
00000010
00000000
00000000
00000100
00000001
00000000
00000010
00000001
,
00000000
00000011
00000000
00002000
00000200
00000000
00003300
00000000
,
00020200
00030300
00202000
00303000
,
00220000
00000000
00330000
00000000
10010000
00000000
10000000
01000000
,
00100000
00010000
01000000
00000000
01001000
00000000
00001000
00010000
,
00100000
00010000
00001000
00000000
00011000
00000000
00010100
00000000
,
00000100
00000010
00000001
00000000
00000101
00000000
00000110
00000000
,
00000100
00000000
00001000
00000000
00020000
00000000
00000000
00030000
00000000
00000000
00000000
00000000
00011000
00000000
00000000
00000000
,
00101000
02100000
00010000
10000000
,
03100000
00110000
11000000
10010000
,
10000000
00100000
00000000
01000000
00010000
00000000
10010000
20020000
,
00000000
30030000
10000000
00100000
10000000
00100000
01000000
00010000
,
00100000
00001000
00010000
00000100
00010000
00000100
00001000
00000001
,
00000010
00000100
00001000
00000001
00000100
00000010
00001000
00000001
,
00000010
00000100
00001000
00000000
00000101
00000000
00000100
00001000
,
00020000
00000000
00000000
00030000
00000000
00000000
00000000
00000000
00011000
00000000
00000000
00000000
01001000
00000000
00000000
00000000
,
01200000
00010000
10000000
01300000
,
01010000
00000000
10000000
01000000
00100000
00010000
01000000
00000000
,
00001000
00010000
00001000
00010000
00000010
00000000
00001001
00000000
,
00000001
00000100
00000010
00001000
00000100
00000000
00010100
00000000
,
00101000
00000000
00000000
00000000
00100000
00000000
00010000
00000000
01000000
00000000
00100000
00000000
20000000
00000000
00000000
30000000
,
00000000
00000000
00010000
00100000
01000000
00000000
10000000
00100000
,
10000000
00100000
01000000
00010000
00100000
00001000
00020000
00000000
,
00030000
00002020
00003030
00000202
,
00000303
00002002
00003003
00000220
,
00000000
00000000
00000000
00000000
,
00000000
00000000
00000330
00000000
00000000
00000000
00000001
00000001
,
00001000
00000000
00001000
00000000
00000100
00000000
00000000
00010000
00002000
00000000
00100000
00000000
00013000
00000000
00010000
00000000
,
00001000
00000000
00001000
00000000
01000000
00000000
00000000
00100000
20000000
00000000
00000000
00000000
30010000
00000000
00000000
00000000
,
00000000
00000000
10000000
01000000
00100000
00000000
00010000
01000000
,
00100000
00000000
10000000
00010000
10000000
00010000
00100000
00001000
,
00010000
00000010
00001000
00000100
00000010
00000001
00000200
00000000
,
00000000
00000300
00000000
00000000
00001010
00000000
00010010
00000000
,
00010000
00001000
01000000
00010000
00100000
02000000
00000000
13000000
,
00010000
00200000
00000000
00300000
11000000
00000000
00101000
00000000
,
00001000
00010000
00000100
00000010
00000001
00000200
00000000
00000310
,
00001000
00000100
00000010
00000001
00001000
00000010
00000100
00000010
,
00001000
00000000
00000010
00000100
00000001
00000010
00000001
00000100
,
00000010
00000000
00001000
00000000
00000100
00000010
00000000
00000100
,
00000010
00000002
00000203
00002300
,
00013000
00000000
00011000
00000000
00001000
00100000
00010000
01000000
,
00100000
01000000
00100000
10000000
01000000
00100000
00010000
10000000
,
00100000
02000000
00000000
03010000
10000000
02000000
00000000
03010000
,
01000000
00100000
00010000
01000000
00001000
01000000
00001000
00010000
,
00000010
00001000
00000002
00000000
00000013
00000100
00001000
00000001
,
00000010
00000200
00000000
00001300
00000001
00000200
00000000
00001300
,
00000100
00000010
00001000
00001000
00000001
00000001
00001000
00000100
,
00010000
00001000
00200000
00000000
00000000
00000000
00000000
00000000
,
00000000
00300000
00000000
00000000
;

//--------------- dance-double - KAYSTAR ----------------
#NOTES:
     dance-double:
     KAYSTAR:
     Hard:
     14:
     0,0,0,0,0:
00000000
00000000
00000000
00000000
,
00000000
00000000
00000000
00000000
,
00000000
00000000
00000000
00000000
,
00000000
00000000
00000000
00000000
,
10000000
00000000
00000000
00010000
00000000
00000000
00200000
00000000
00000000
00000000
00000000
00000000
00001000
00000000
00000000
00000000
,
00000000
00010000
00000000
00301000
,
00010000
00000000
00000000
00000100
00000000
00000000
00001000
00000000
00000000
00000000
00000001
00000000
00000000
00000100
00000000
00000000
,
00000020
00000000
00000000
00000030
00001000
00000010
00000100
00000001
,
00001000
00000010
00000100
00000002
00000000
00000013
00000100
00002000
,
00000000
00003010
00000100
00000002
00000000
00000013
00000100
00001000
,
00000001
00000010
00000100
00002000
00000000
00003010
00010000
00002000
,
00000000
01003000
00001000
00010000
00100000
10000000
01000000
00100000
,
00010000
10000000
01000000
00200000
00000000
00301000
00100000
00020000
,
00000000
01030000
00001000
00020000
00000000
00130000
00010000
00002000
,
00000000
00013000
00000010
00002000
00000000
00003100
00010000
00002000
,
00000000
00000010
00003010
00000000
00000001
00000100
00000010
00001000
,
00000001
00000100
00000010
00002000
00000000
00003100
00010000
00002000
,
00000000
00103000
00010000
20000000
00000000
30100000
01000000
00010000
,
10000000
00100000
01000000
00020000
00000000
00130000
00001000
00020000
,
00000000
01030000
00010000
00001000
00000010
00000001
00001000
00000010
,
00000100
00000001
00001000
00000020
00000000
00010030
00000010
00002000
,
00000000
00003100
00010000
00002000
00000000
00103000
00001000
00010000
,
01000000
10000000
00100000
01000000
00020000
00000000
00000000
00030000
,
10000000
00000000
00000000
00100000
00100000
10000000
01000000
00100000
,
00010000
00000000
01000000
01000000
00001000
00010000
00000020
00000000
,
00000000
00001000
00001030
00000000
00000001
00000010
00000100
00000000
,
00001000
00000000
00000001
00000100
00000001
00000100
00000001
00000000
00001000
00000000
00000000
00000000
00000010
00000000
00010000
00000000
,
00001000
01000000
00010000
00000000
10000000
00000000
01000000
01000000
,
00000000
00000000
10000000
00000000
00000000
00000000
00010000
00100000
00010000
00000000
00100000
00000000
00001000
00000000
00010000
00000000
,
00000100
00001000
00000100
00000000
00001000
00000000
00000001
00000000
00000010
00000100
00000000
00000100
00001000
00000000
00000002
00000000
,
00002000
00000000
00000000
00000000
00003003
00000000
00000000
00000000
00000001
00000000
00000000
00001000
00000010
00000000
00001000
00000000
,
00000100
00000000
00010000
00001000
00010000
00000000
00000000
00000000
00001000
00000000
00000000
01000000
00010000
00000000
01000000
00000000
,
00100000
00000000
10000000
00000000
00010000
10000000
00010000
10000000
00010000
00000000
00000000
00100000
01000000
00000000
10000000
00000000
,
00010000
00000000
00000000
01000000
00100000
00000000
10000000
00000000
01000000
00000000
00100000
00000000
00010000
00000000
01000000
00000000
,
00001000
00010000
00100000
20000000
30010000
00000000
10100000
00000000
,
10010000
00000000
00010000
01000000
00002000
00000000
00013000
00000010
,
00002000
00003001
00000101
00001001
,
00000100
00020000
00000000
00031000
00101000
00000000
00010000
20020000
,
00000000
00000000
30030000
00000000
10000000
00000000
00010000
01000000
00010000
00000000
10000000
00000000
00010000
01000000
00010000
00000000
,
10000000
01000000
00010000
00001000
00000010
00000001
00000100
00000010
,
00001000
00000001
00001000
00000001
00001000
00000000
00000010
00000100
00000010
00000000
00000100
00000010
00000100
00000000
00000001
00000000
,
00000010
00000000
00000100
00000000
00001000
00000000
00000000
00000010
00010000
00000000
00000000
00001000
00000100
00000000
00000010
00000000
,
00001000
00000002
00001003
00000000
00000011
00000000
00001001
00000000
,
00001000
00000100
00020000
00000000
00031000
00100000
00020000
00000000
,
10030000
00000000
00010000
01000000
00100000
10000000
02000000
00000000
,
03010000
00000000
00001000
00000000
00100000
00000000
00010000
00000000
10000000
00010000
10000000
00010000
10000000
00000000
00000000
00000000
,
00100000
00000000
00000000
01000000
00010000
00000000
10000000
00000000
00100000
00000000
01000000
00000000
00010000
00100000
00000000
00000000
,
00001000
00000000
00000000
00010000
00000100
00000000
00001000
00000000
00000001
00000000
00000100
00000000
00000010
00002000
00000000
00003000
,
00000001
00000000
00001000
00000100
00010000
00001000
01000000
00010000
,
00100000
00000000
01000000
00000000
10000000
00010000
10000000
00010000
10000000
00000000
01000000
00100000
00020000
00000000
00000000
00000000
,
10030000
02010000
03001000
00021000
,
00030100
00002002
00003003
00000220
,
00000000
00000000
00000000
00000000
,
00000000
00000000
00000330
00000000
00000000
00000000
00001001
00000001
,
00001000
00000000
00000010
00000000
00010000
00000000
00001000
00010000
00000000
00001000
00010000
00000000
01000000
00000000
10000000
00000000
,
00010000
00000000
00100000
00000000
00001000
00000000
00010000
00001000
00000000
00010000
00001000
00000000
00000200
00000000
00000000
00000000
,
00000000
00000000
00000010
00000000
00000310
00000000
00001000
00000100
,
00000010
00000000
00000001
00000100
00000010
00000000
00001000
00000100
,
00010000
01000000
10000000
00010000
01000000
00100000
20000000
00000000
,
00000000
30000000
00010000
00000000
11000000
00000000
01000000
00010000
,
00001000
00100000
00001000
00010000
00000010
00000200
00000000
00001300
,
00000100
00000010
00001000
00000000
00000101
00000000
00000100
00001000
,
00010000
00000010
00010000
00001000
00100000
02000000
00000000
03010000
,
01000000
00000000
00100000
00000000
00010000
10000000
00010000
00000000
10000000
00000000
01000000
00000000
00100000
00000000
00001000
00000000
,
00020000
00000000
01030000
00010000
00001000
00000010
00000100
00001000
,
00000001
00001000
00000001
00000000
00002000
00000000
00000000
00000000
00003010
00000000
00000100
00000000
00000002
00000000
00000000
00000000
,
00000013
00000100
00001000
00000000
00010010
00000000
00011000
00000000
,
01001000
00000000
10010000
10000000
00100000
00020000
00000000
00031000
,
01000000
00000000
00010000
00000000
10000000
00010000
10000000
00000000
01000000
00000000
00010000
00000000
00001000
00000000
00000010
00000000
,
00000001
00002000
00000000
00003100
00010000
00002000
00000000
00003010
,
00001000
00000000
00010000
00000000
00000100
00001000
00000100
00000000
00001000
00000000
00000001
00000010
00000100
00000000
00001000
00000000
,
00000010
00000100
00002000
00000000
01003000
00010000
01000000
00010000
,
10000000
00000000
01000000
00100000
00020000
00000000
00000000
00000000
10030000
00000000
00100000
00000000
00010000
00000000
00100000
00000000
,
01000000
00000000
00010000
00000000
10000000
00000000
10000000
00000000
00010000
00000000
00010000
00000000
00100000
00001000
00100000
00001000
,
00010000
00000100
00010000
00000100
00002000
00000000
00000000
00000000
00000000
00000000
00000000
00000000
00000000
00000000
00000000
00000000
,
00000000
00003000
00000000
00000000
;

//--------------- dance-double - KAYSTAR ----------------
#NOTES:
     dance-double:
     KAYSTAR:
     Challenge:
     17:
     0,0,0,0,0:
00000000
00000000
00000000
00000000
,
00000000
00000000
00000000
00000000
,
00000000
00000000
00000000
00000000
,
00000000
00000000
00000000
00000000
,
10000000
00000000
10000000
00010000
00000000
00000000
02000000
00000000
00000000
00000000
00000000
00000000
10000000
00000000
00000000
00000000
,
00000000
00010000
00000000
03100000
,
01000000
00000000
01000000
00001000
00000000
00000000
00010000
00000000
00000000
00000000
00000010
00000000
00000010
00001000
00000000
00000000
,
00000002
00000003
00000000
00002000
00003000
00000000
00000002
00000003
00000000
00002000
00003000
00000000
00000001
00000000
00000000
00000100
00000000
00000000
00000010
00000000
00000000
00001000
00000000
00000000
,
00000100
00000000
00010000
00001000
00000000
00010000
00000010
00000000
00001000
00000000
00000001
00000000
00000100
00000000
00002000
00000000
,
00000000
00013000
00000010
00001000
00000001
00000010
00000100
00001000
,
00000010
00000000
00010000
00001000
00000000
00010000
00000100
00000000
00001000
00000000
00000001
00000000
00000100
00000010
00000100
00000000
,
00000001
00000010
00001000
00010000
01000000
10000000
00010000
01000000
,
00100000
00000000
10000000
01000000
00000000
00100000
00010000
00000000
10000000
00000000
00100000
00000000
00010000
00000000
00002000
00000000
,
00000000
01003000
00010000
20000000
00000000
31000000
00010000
00002000
,
00000000
00003010
00000100
00001000
00000001
00000100
00001000
00000100
,
00000010
00000000
00010000
00001000
00010000
00000000
00000100
00000000
00001000
00000000
00001000
00000000
00000001
00000000
00000001
00000000
,
00001000
00000000
00000010
00010000
00000000
00001000
00010000
00000000
00000100
00000000
00001000
00000000
00000001
00000000
00000200
00000000
,
00000000
00001300
00010000
00200000
00000000
10300000
00010000
00100000
,
01000000
00000000
10000000
00010000
00000000
01000000
00001000
00000000
00010000
00000000
00100000
00000000
01000000
00010000
01000000
00000000
,
00010000
00000000
10000000
00000000
01000000
00000000
10000000
01000000
10000000
00000000
00010000
00000000
00100000
00000000
01000000
00000000
,
00010000
00000000
00001000
00010000
00000000
00000010
00010000
00000000
00000001
00000000
00000100
00000000
00001000
00000000
00020000
00000000
,
00000000
00030010
00001000
00010000
01000000
00100000
10000000
00010000
,
10000000
00000000
00000000
01000000
00000000
00000000
10000000
00000000
00000000
01000000
00000000
00000000
00100000
00000000
00000000
00010000
00000000
00000000
10000000
00000000
00000000
00000000
00000000
00000000
00200000
00000000
00300000
00000000
00000000
00000000
02000000
00000000
03000000
00000000
00000000
00000000
00200000
00000000
00300000
00000000
00000000
00000000
02000000
00000000
03000000
00000000
00000000
00000000
,
00010000
00000000
10000000
01000000
00010000
01000000
10000000
00010000
,
00000000
01010000
00000000
01000000
00100000
00010000
00002000
00000000
,
00000000
01003000
01001000
00001000
00010000
00000010
00002000
00000000
,
00003001
00000000
00001000
00000001
00001000
00000001
00001000
00000000
00000001
00000000
00000010
00000001
00000000
00001000
00000100
00000000
,
00000010
00000000
00001000
00000000
00010000
00000000
01000000
00000000
00100000
00000000
00010000
00000000
10000000
00010000
10000000
00000000
,
00010000
00000000
01000000
00000000
00000000
00000000
10000000
01000000
00200000
00000000
00000000
00300000
10000000
00010000
10000000
00010000
,
02000000
00000000
00000000
03000000
00001000
00010000
00001000
00010000
00000020
00000000
00000000
00001030
00000001
00000000
00001000
00000100
,
00000010
00000000
00000010
00000000
00000002
00000000
00000000
00000000
00001003
00000000
00000010
00000100
00001000
00000000
00010000
00000000
,
00000010
00000000
00001000
00000000
00001020
00000000
00000000
00000000
00010030
00000000
00001000
00010000
00100000
00000000
01000000
00000000
,
01020000
00000000
00000000
00000000
00000000
00000000
00000000
00030000
10000000
00000000
00010000
00000000
10000000
00000000
00010000
00000000
10000000
00000000
00000000
00000000
00000000
00000000
00100000
00000000
10000000
00000000
00000000
00000000
01000000
00000000
00000000
00000000
,
00100000
00000000
00000000
00010000
01000000
00000000
00100000
00000000
10000000
00000000
01000000
10000000
01000000
00000000
10000000
00010000
,
10000000
00000000
00010000
00100000
00010000
00100000
00002000
00000000
00013000
00000000
00000000
00000000
00001000
00000000
00000010
00000000
,
00000100
00001000
00000100
00000000
00001000
00000000
00000001
00000000
00000001
00000000
00000000
00001000
00000010
00000000
00000100
00000001
,
00000200
00000000
00000301
00001000
00000010
00010000
00100000
10000000
,
01000000
00200000
00000000
01300000
01100000
00000000
10010000
20020000
,
00000000
00000000
30030000
00000000
10000000
00010000
10000000
00010000
01000000
00000000
00100000
01000000
00010000
01000000
00100000
00000000
,
00010000
00001000
00010000
00001000
00000100
00000000
00000010
00000100
00000001
00000100
00000010
00000000
00001000
00000100
00000010
00000000
,
00000001
00000100
00000010
00000000
00001000
00000000
00000100
00010000
00000100
00000000
00010000
00001000
00010000
00000000
01000000
00010000
,
01000000
00010000
00001000
00100000
00010000
00000000
00000000
10000000
01000000
00000000
00000000
10000000
00100000
00000000
01000000
00001000
,
01000000
00001000
00020000
00000000
00031000
00000000
00000000
00000000
00010000
00000000
00100000
00000000
01000000
00010000
01000000
00000000
,
00010000
00000000
10000000
00000000
10000000
00000000
00000000
00010000
00100000
00000000
01000000
10000000
02000000
00000000
00000000
00000000
,
13000000
00010000
01000000
00001000
00000100
00000001
00000010
00000100
,
00001000
00000000
00000001
00000010
00000001
00000000
00001000
00000100
00010000
00000100
00010000
00001000
00100000
00000000
00000000
00000000
,
00011000
00000000
00000000
00010000
01000000
00000000
10000000
00000000
00010000
00000000
00100000
00000000
00001000
00010000
00001000
00000000
,
00011000
00000000
00000000
00001000
00000100
00000000
00000001
00000000
00001000
00000000
00000010
00000000
00010000
00001000
00020000
00000000
,
00031000
00000000
00100000
00001000
00010000
00000010
00000100
00001000
,
00010000
00000000
00100000
00000000
01000000
00010000
01000000
00010000
10000000
01000000
00100000
00010000
20000000
00000000
00000000
00000000
,
30100000
10000000
00010000
00200000
00000000
00000000
00301000
00000000
00000000
00012000
00000000
00000010
,
00000000
00000000
00000000
00000000
00013000
00000000
00000000
00000000
00001000
00000000
00000000
00000000
00000100
00000000
00000000
00000000
00000000
00000000
00000010
00000000
00000000
00001000
00000000
00000000
00000001
00000000
00000000
00000010
00000000
00000000
00000100
00000000
00000000
00002000
00000000
00000000
00000002
00000000
00000000
00000000
00000000
00000000
00000000
00000000
00000000
00000000
00000000
00000000
,
00000000
00000000
00000000
00000000
,
00000000
00000000
00000000
00000000
00003003
00000000
00000000
00000000
00000000
00000000
00000000
00000000
00001001
00000000
00000001
00000010
,
00001000
00010000
00000100
00000000
00000010
00001000
00010000
02000000
00000000
00100000
03100000
00000000
10010000
00000000
10000000
00100000
,
00010000
00000000
00001000
00000000
01000000
00000000
00000000
00000000
00100000
00000000
00010000
00000000
00001000
00000000
00000100
00000000
00000000
00000000
00000010
00000000
00000010
00000000
00001000
00000002
00002000
00000000
00000000
00000000
00000000
00000000
00000000
00000000
,
00003003
00000000
00000001
00000100
00000010
00001000
00000100
00000001
,
00000100
00000000
00001000
00000000
00010000
00000000
00100000
00000000
10000000
00000000
00100000
00000000
00010000
00000000
10000000
00100000
,
10000000
00000000
00000000
00000000
00010000
00000000
01000000
00000000
00010000
00000000
01000000
00000000
00001000
00000000
00010000
00000000
00000010
00000000
00001000
00000000
00000100
00000000
00000010
00000000
00000002
00000003
00000000
00000000
00002000
00003000
00000000
00000000
,
00000002
00000003
00000000
00000000
00002000
00003000
00000000
00000000
00000001
00000000
00000000
00000000
00000100
00000000
00000010
00000000
00001000
00000000
00000000
00000000
00000001
00000000
00000100
00000000
00000010
00000000
00000000
00000000
00001000
00000000
00000000
00000000
,
00000100
00000000
00020000
00000000
00000000
00030000
01000000
00010000
01000000
00000000
00010000
00000000
00001000
00000000
00100000
00000000
,
00010000
10000000
00010000
00000000
10000000
00000000
00100000
01000000
00010000
00000000
10000000
00100000
01000000
00000000
00010000
00000000
,
00100000
00000000
00002000
00000000
00000000
00003000
00000010
00001000
00000010
00000000
00001000
00000000
00010000
00000000
00000100
00000000
,
00001000
00000000
00000001
00000010
00000100
00000000
00002000
00000000
00003020
00000000
00000230
00000000
00002300
00000000
00023000
00000000
,
00230000
00300000
10010000
00020000
00230000
02300000
03020000
00032000
,
00003020
00000000
00000030
00000000
00001001
00000000
00000001
00000000
00000100
00000000
00001000
00000000
00010000
00000010
00010000
00000000
,
00002000
00000000
00000000
00000000
00000000
00000000
00000000
00003000
01000000
00000000
00010000
00000000
01000000
00000000
00000000
00000000
00100000
00000000
10000000
00000000
00100000
00000000
00000000
00000000
20000000
00000000
00000000
00000000
00000000
00000000
00000000
00000000
,
30010000
00000000
10010000
00000000
10000000
01000000
00100000
00010000
10000000
00000000
01000000
00020000
00000000
00000000
00031000
00000000
,
00010000
00000000
00100000
00000000
10000000
00010000
00100000
01000000
10000000
00000000
00010000
01000000
00100000
00010000
00001000
00000000
,
00010000
00000010
00002000
00000000
00000000
00000000
00003100
00010000
00001000
00000000
00000020
00000000
00000000
00000000
00000031
00001000
,
00000100
00000010
00000001
00000000
00001000
00000010
00000100
00000001
00001000
00000000
00000100
00001000
00010000
00100000
00001000
00000000
,
00010000
00000000
01000000
00000000
20000000
00000000
00000000
00000000
30100000
00000000
10000000
00100000
10000000
00000000
00010000
01000000
,
00010000
00000000
10000000
01000000
00200000
00000000
00000000
00000000
00310000
00000000
01000000
00002000
00000000
00000000
00010000
00003000
,
00010000
00001000
00000100
00000000
00000001
00000000
00000001
00000000
00001000
00000000
00001000
00000000
00000100
00000001
00000100
00001000
,
00000010
00010000
00000010
00002000
00000002
00000000
00000000
00000000
00000000
00000000
00000000
00000000
00000000
00000000
00000000
00000000
,
00000000
00003003
00000000
00000000
;
