#VERSION:0.83;
#TITLE:SAVE THIS WRLD;
#SUBTITLE:;
#ARTIST:Exyl;
#TITLETRANSLIT:;
#SUBTITLETRANSLIT:;
#ARTISTTRANSLIT:;
#GENRE:;
#ORIGIN:;
#CREDIT:;
#BANNER:banner.png;
#BACKGROUND:bg.png;
#PREVIEWVID:;
#JACKET:jacket.png;
#CDIMAGE:;
#DISCIMAGE:;
#LYRICSPATH:;
#CDTITLE:;
#MUSIC:SAVE THIS WRLD.ogg;
#OFFSET:-0.024000;
#SAMPLESTART:80.024971;
#SAMPLELENGTH:16.000000;
#SELECTABLE:YES;
#BPMS:0.000=120.000;
#STOPS:;
#DELAYS:;
#WARPS:;
#TIMESIGNATURES:0.000=4=4;
#TICKCOUNTS:0.000=4;
#COMBOS:0.000=1;
#SPEEDS:0.000=1.000=0.000=0;
#SCROLLS:0.000=1.000,
34.000=0.000,
35.000=0.500,
36.000=1.000,
100.000=0.500,
101.000=1.000,
160.000=0.500,
164.000=1.000,
228.000=0.500,
229.000=1.000;
#FAKES:;
#LABELS:0.000=Song Start;
#BGCHANGES:;
#KEYSOUNDS:;
#ATTACKS:
;

//---------------dance-single - FS XO DS- SS-----------------
#NOTEDATA:;
#CHARTNAME:;
#STEPSTYPE:dance-single;
#DESCRIPTION:FS XO DS- SS-;
#CHARTSTYLE:;
#DIFFICULTY:Challenge;
#METER:16;
#RADARVALUES:0.532597,0.700381,0.222685,0.445370,0.836865,519.000000,488.000000,31.000000,62.000000,19.000000,0.000000,0.000000,0.000000,0.000000,0.532597,0.700381,0.222685,0.445370,0.836865,519.000000,488.000000,31.000000,62.000000,19.000000,0.000000,0.000000,0.000000,0.000000;
#CREDIT:Kingly;
#NOTES:
// measure 0
0000
0000
0000
0000
,  // measure 1
0000
0000
0000
0000
,  // measure 2
0000
0000
0000
0000
,  // measure 3
0000
0000
0000
0000
,  // measure 4
0000
0000
0000
0000
,  // measure 5
1000
0000
0000
0000
0100
1000
0100
0010
0000
0001
1000
0000
0100
1000
0000
0010
,  // measure 6
0000
1000
0001
0000
0100
0001
0100
0010
0000
1000
0001
0000
0020
0000
0000
0000
,  // measure 7
0130
0000
0000
1000
0001
0000
1001
0000
0000
0001
0000
0100
0001
0000
0101
0000
,  // measure 8
0000
1000
0000
0100
1000
0000
1100
0000
0110
0000
0000
0000
0000
0000
0000
0000
,  // measure 9
2001
0000
0000
0000
0000
0000
0000
0000
3100
00M0
0100
0000
0001
0000
0100
0000
0000
0000
0010
0000
1000
0000
0000
0000
0100
0000
1000
0000
0000
0000
0010
0000
,  // measure 10
0000
0000
1000
0000
0001
0000
0000
0000
0100
00M0
0100
0000
1000
0000
0100
0000
0000
0000
0010
0000
0001
0000
0000
0000
0021
0000
0000
0000
0000
0000
0000
0000
,  // measure 11
0230
0000
0000
0000
1300
0100
0000
0001
0000
0100
0010
0000
1000
0000
0010
0000
,  // measure 12
0001
1000
0000
0010
0000
1000
0100
0000
0010
0001
0000
1000
0010
1000
0100
0010
,  // measure 13
0002
0000
0000
0000
0000
0000
0000
0000
0103
00M0
0100
0000
1000
0000
0100
0000
0000
0000
0010
0000
0001
0000
0000
0000
0100
0000
0001
0000
0000
0000
0010
0000
,  // measure 14
0000
0000
0001
0000
1000
0000
0000
0000
0100
00M0
0100
0000
0001
0000
0100
0000
0000
0000
0010
0000
1000
0000
0000
0000
1020
0000
0000
0000
0000
0000
0000
0000
,  // measure 15
0230
0000
0000
0000
0301
0100
0000
1000
0000
0100
0010
0000
0001
0000
0010
0000
,  // measure 16
1000
0100
0000
0001
0000
0100
0010
0000
0012
0000
0000
1003
0010
0000
0100
0000
,  // measure 17
0102
0000
0000
0000
0000
0000
0000
0000
0000
0000
0000
0000
0000
0000
0000
0000
0000
0000
0000
0000
0000
0000
0000
0000
0000
0000
0000
0000
0000
0000
0000
0000
0000
0000
0000
0000
0000
0000
0000
0000
0000
0000
0000
0000
0000
0000
0000
0000
0103
0000
0000
0000
0000
0000
00M0
0000
0000
0000
0000
0000
0100
0000
0000
0000
0000
0000
0000
0000
0000
0000
0000
0000
1000
0000
0000
0000
0000
0000
0000
0000
0000
0000
0000
0000
0020
0030
0000
0000
0000
0000
0000
0000
0000
0000
0000
0000
0000
0000
0000
0000
0000
0000
0000
0000
0000
0000
0000
0000
0100
0000
0000
0000
0000
0000
0000
0000
0000
0000
0000
0000
0001
0000
0000
0000
0000
0000
0000
0000
0000
0000
0000
0000
0000
0000
0000
0000
0000
0000
0000
0000
0000
0000
0000
0000
0010
0000
0000
0000
0000
0000
0000
0000
0000
0000
0000
0000
0001
0000
0000
0000
0000
0000
0000
0000
0000
0000
0000
0000
0000
0000
0000
0000
0000
0000
0000
0000
0000
0000
0000
0000
0200
0300
0000
0000
0000
0000
0000
0000
0000
0000
0000
0000
,  // measure 18
0000
0000
0000
0000
0000
0000
0000
0000
0000
0000
0000
0000
0001
0000
0000
0000
0000
0000
0000
0000
0000
0000
0000
0000
1000
0000
0000
0000
0000
0000
0000
0000
0000
0000
0000
0000
0000
0000
0000
0000
0000
0000
0000
0000
0000
0000
0000
0000
0100
0000
0000
0000
0000
0000
00M0
0000
0000
0000
0000
0000
0100
0000
0000
0000
0000
0000
0000
0000
0000
0000
0000
0000
0001
0000
0000
0000
0000
0000
0000
0000
0000
0000
0000
0000
0020
0030
0000
0000
0000
0000
0000
0000
0000
0000
0000
0000
0000
0000
0000
0000
0000
0000
0000
0000
0000
0000
0000
0000
0100
0000
0000
0000
0000
0000
0000
0000
0000
0000
0000
0000
1000
0000
0000
0000
0000
0000
0000
0000
0000
0000
0000
0000
0000
0000
0000
0000
0000
0000
0000
0000
0000
0000
0000
0000
1200
0000
0000
0000
0000
0000
0000
0000
0000
0000
0000
0000
0000
0000
0000
0000
0000
0000
0000
0000
0000
0000
0000
0000
0000
0000
0000
0000
0000
0000
0000
0000
0000
0000
0000
0000
0000
0000
0000
0000
0000
0000
0000
0000
0000
0000
0000
0000
,  // measure 19
0320
0000
0000
0000
0031
0010
0000
1000
0000
0010
0100
0000
0001
0000
0100
0000
,  // measure 20
1000
0000
0000
0001
0000
0000
0000
0000
0000
0100
0000
0000
0000
0000
0000
0001
0000
0000
0010
0000
0000
0000
0000
0000
0100
0000
0000
1000
0000
0000
0000
0000
0000
0001
0000
0000
0100
0000
0000
0001
0000
0000
1000
0000
0100
0000
0010
0000
,  // measure 21
0002
0000
0000
0000
0000
0000
0000
0000
0103
00M0
0100
0000
1000
0000
0100
0000
0000
0000
0010
0000
0001
0000
0100
0000
0001
0000
1000
0010
1000
0000
0001
0000
,  // measure 22
0000
0000
0100
0000
0001
0000
1000
0000
0100
00M0
0100
0000
0001
0000
0100
0000
0000
0000
0010
0000
1000
0000
0000
0000
1020
0000
0000
0000
0000
0000
0000
0000
,  // measure 23
0230
0000
0000
0000
0301
0100
0000
1000
0000
0100
0010
0000
0001
0000
0010
0000
,  // measure 24
1000
0100
0000
0001
0000
0100
0010
0000
0002
0000
0000
0000
2003
0000
0000
0000
,  // measure 25
3100
0000
0000
0000
0110
0000
0000
1000
0000
0001
0100
0000
0010
0000
2000
0000
,  // measure 26
0100
0000
0000
3010
0000
0100
0001
0000
1000
0000
0100
0000
2200
0000
3300
0000
,  // measure 27
0102
0000
0000
0000
1003
0000
0000
0001
0000
1000
0100
0000
0010
0000
0002
0000
,  // measure 28
0100
0000
0000
0013
0000
0100
1000
0000
0100
0000
0001
0000
0200
0000
0000
0000
,  // measure 29
1300
0000
0000
0000
1001
0000
0000
0001
0000
1000
0100
0000
0010
0000
0002
0000
,  // measure 30
0100
0000
0000
0013
0000
0100
1000
0000
0001
0000
0100
0000
0202
0000
0303
0000
,  // measure 31
2100
0000
0000
0000
3001
0100
0000
1000
0000
0100
0010
0000
0001
0000
0010
0000
,  // measure 32
1000
0001
0000
0010
0000
0001
0100
0000
0020
0000
0000
0000
0000
0000
0000
0000
,  // measure 33
0030
0000
0000
0000
,  // measure 34
0000
0000
0000
0000
,  // measure 35
0000
0000
0000
0000
,  // measure 36
0000
0000
0000
0000
,  // measure 37
1000
0000
0000
0000
0001
0100
0000
0010
0000
0100
0001
0000
1000
0100
0000
0010
,  // measure 38
0000
0100
1000
0000
0001
0010
0000
0100
0000
1000
0001
0000
1001
0000
0000
0000
,  // measure 39
0001
0000
0000
0000
1000
0100
0000
0010
0000
0100
1000
0000
0001
0100
0000
0010
,  // measure 40
2000
0000
0200
3000
0020
0300
0002
0033
,  // measure 41
2001
0000
0000
0000
0000
0000
0000
0000
3100
00M0
0100
0000
0001
0100
0010
0000
0000
0000
1000
0000
0001
0000
0000
0000
0100
0000
0001
0000
0000
0000
0010
0000
,  // measure 42
0000
0000
0001
0000
1000
0000
0000
0000
0100
00M0
0100
0000
0001
0100
0010
0000
0000
0000
1000
0000
0001
0000
0000
0000
0021
0000
0000
0000
0000
0000
0000
0000
,  // measure 43
0230
0000
0000
0000
1300
0100
0000
0001
M000
0001
0010
0000
0100
0000
1000
0000
,  // measure 44
0001
0000
0000
0100
0000
0000
0000
0000
0000
0010
0000
0000
0000
0000
0000
1000
0000
0000
0001
0000
0000
0000
0000
0000
0010
0000
0000
0200
0000
0000
0000
0000
0000
0000
0000
0000
1300
0000
0000
0000
0000
0000
0001
0000
0100
0000
0010
0000
,  // measure 45
2000
0000
0000
0000
0000
0000
0000
0000
3100
00M0
0100
0000
0001
0100
0010
0000
0000
0000
1000
0000
0001
0000
0000
0000
0100
0000
0001
0000
0000
0000
0010
0000
,  // measure 46
0000
0000
0001
0000
1000
0000
0000
0000
0100
00M0
0100
0000
0001
0100
0010
0000
0000
0000
1000
0000
0001
0000
0000
0000
0021
0000
0000
0000
0000
0000
0000
0000
,  // measure 47
0230
0000
0000
0000
1300
0100
0000
0001
0000
0100
0010
0000
1000
0000
0010
0000
,  // measure 48
0001
0000
0000
0100
0000
0000
0000
0000
0000
1000
0000
0000
0000
0000
0000
0100
0000
0000
0010
0000
0000
0000
0000
0000
2010
0000
0000
0000
0000
0000
0000
0000
0000
0000
0000
0000
3001
0000
0000
0000
0001
0000
0000
0000
0001
0000
0000
0000
,  // measure 49
1002
0000
0000
0000
0000
0000
0000
0000
0103
00M0
0100
0000
1000
0100
0010
0000
0000
0000
0001
0000
1000
0000
0000
0000
0100
0000
1000
0000
0000
0000
0010
0000
,  // measure 50
0000
0000
1000
0000
0001
0000
0000
0000
0100
00M0
0100
0000
1000
0100
0010
0000
0000
0000
0001
0000
1000
0000
0000
0000
1020
0000
0000
0000
0000
0000
0000
0000
,  // measure 51
0230
0000
0000
0000
0301
0100
0000
1000
000M
1000
0010
0000
0100
0000
0001
0000
,  // measure 52
1000
0000
0000
0100
0000
0000
0000
0000
0000
0010
0000
0000
0000
0000
0000
0001
0000
0000
1000
0000
0000
0000
0000
0000
0010
0000
0000
0200
0000
0000
0000
0000
0000
0000
0000
0000
0301
0000
0000
0000
0000
0000
1000
0000
0100
0000
0010
0000
,  // measure 53
0002
0000
0000
0000
0000
0000
0000
0000
0103
00M0
0100
0000
1000
0100
0010
0000
0000
0000
0001
0100
0001
0000
0000
0000
0100
00M0
0100
0000
1000
0100
0010
0000
,  // measure 54
0000
0000
0001
0100
0001
0000
0000
0000
0100
00M0
0100
0000
1000
0000
0001
0000
0100
0000
0010
0000
1000
0000
0000
0000
1020
0000
0000
0000
0000
0000
0000
0000
,  // measure 55
0230
0000
0000
0000
0301
0100
0000
1000
0000
0100
0010
0000
0001
0000
0010
0000
,  // measure 56
1000
0100
0000
0001
0000
0100
0010
0000
0012
0000
0000
0000
2003
0000
0000
0000
,  // measure 57
3100
0000
0000
0000
0110
0000
0000
0001
0000
1000
0100
0000
0010
0000
0002
0000
,  // measure 58
0100
0000
0000
0013
0000
0100
1000
0000
0001
0000
0100
0000
0202
0000
0303
0000
,  // measure 59
2100
0000
0000
0000
3001
0000
0000
1000
0000
0001
0100
0000
0010
0000
2000
0000
,  // measure 60
0100
0000
0000
3010
0000
0100
0001
0000
0100
0000
1000
0000
0200
0000
0000
0000
,  // measure 61
0302
0000
0000
0000
0013
0100
0010
1000
0000
0010
0001
0000
0100
0000
0001
0000
,  // measure 62
1000
0000
0100
0001
0000
0100
1000
0000
0001
0000
0100
0000
0202
0000
0303
0000
,  // measure 63
2100
0000
0000
0000
3001
0100
0000
1000
0000
0100
0010
0000
0001
0000
0010
0000
,  // measure 64
1000
0001
0000
0010
0000
0001
0100
0000
0020
0000
0000
0000
0000
0000
0000
0000
,  // measure 65
0030
0000
0000
0000
;

//---------------dance-single - ----------------
#NOTEDATA:;
#CHARTNAME:;
#STEPSTYPE:dance-single;
#DESCRIPTION:;
#CHARTSTYLE:;
#DIFFICULTY:Hard;
#METER:13;
#RADARVALUES:0.467947,0.560305,0.050284,0.395087,0.678831,456.000000,449.000000,7.000000,55.000000,0.000000,0.000000,0.000000,0.000000,0.000000,0.467947,0.560305,0.050284,0.395087,0.678831,456.000000,449.000000,7.000000,55.000000,0.000000,0.000000,0.000000,0.000000,0.000000;
#CREDIT:Kingly;
#NOTES:
0000
0000
0000
0000
,
0000
0000
0000
0000
,
0000
0000
0000
0000
,
0000
0000
0000
0000
,
0000
0000
0000
0000
,
1000
0000
0000
0000
0001
0100
0000
0010
0000
0100
0001
0000
1000
0100
0000
0010
,
0000
0100
1000
0000
0001
0100
0000
0010
0000
0100
0001
0000
2000
0000
0000
0000
,
3100
0000
0000
0000
0010
0001
0000
0100
0000
0001
0010
0000
0100
1000
0000
0010
,
0000
1000
0100
0000
1000
0001
0000
1000
0001
0000
0000
0000
0000
0000
0000
0000
,
1001
0000
0000
0000
0001
0100
0001
0100
0000
0010
1000
0000
0001
0010
0000
0100
,
0000
0010
0001
0000
1000
0100
1000
0100
0000
0010
0001
0000
2000
0000
0000
0000
,
3020
0000
0000
0000
0130
0001
0000
0100
0000
0001
0100
0000
1000
0000
0100
0000
,
0010
1000
0000
0010
0000
1000
0010
0000
0200
0000
0000
0000
0301
1000
0001
1000
,
0002
0000
0000
0000
1003
0100
1000
0100
0000
0010
0001
0000
1000
0010
0000
0100
,
0000
0010
1000
0000
0001
0100
0001
0100
0000
0010
1000
0000
0002
0000
0000
0000
,
0023
0000
0000
0000
0130
1000
0000
0100
0000
1000
0100
0000
0001
0000
0100
0000
,
0010
0001
0000
1000
0000
0001
0100
0000
0020
0000
0000
0000
1030
0000
0001
0000
,
1001
0000
0000
0000
1000
0010
1000
0010
0000
0100
0001
0000
1000
0100
0000
0010
,
0000
0100
1000
0000
0001
0010
0001
0010
0000
0100
1000
0000
0002
0000
0000
0000
,
0203
0000
0000
0000
0310
1000
0000
0010
0000
1000
0010
0000
0001
0000
0010
0000
,
0100
0001
0000
0100
0000
0001
0100
0000
0020
0000
0000
0000
1030
0001
1000
0001
,
2000
0000
0000
0000
3001
0010
0001
0010
0000
0100
1000
0000
0001
0100
0000
0010
,
0000
0100
0001
0000
1000
0010
1000
0010
0000
0100
0001
0000
2000
0000
0000
0000
,
3200
0000
0000
0000
0310
0001
0000
0010
0000
0001
0010
0000
1000
0000
0010
0000
,
0100
1000
0000
0001
0000
1000
0010
0000
0200
0000
0000
0000
0302
0000
0000
0000
,
2003
0000
0000
0000
3200
0000
0000
0010
0000
0310
0000
0000
0001
0000
1000
0000
,
0200
0000
0000
0301
0000
0100
0010
0000
0001
0000
0010
0000
0200
0000
0000
0000
,
1300
0000
0000
0000
1002
0000
0000
0100
0000
0103
0000
0000
0010
0000
1000
0000
,
0200
0000
0000
1300
0000
0001
0100
0000
1000
0000
0100
0000
0001
0000
1000
0000
,
0002
0000
0000
0000
0203
0000
0000
0010
0000
0310
0000
0000
1000
0000
0001
0000
,
0200
0000
0000
1300
0000
0100
0010
0000
1000
0000
0010
0000
0200
0000
0000
0000
,
0302
0000
0000
0000
0013
0001
0000
0010
0000
0001
0010
0000
1000
0000
0010
0000
,
0100
1000
0000
0100
0000
1000
0100
0000
0020
0000
0000
0000
0000
0000
0000
0000
,
0030
0000
0000
0000
,
0000
0000
0000
0000
,
0000
0000
0000
0000
,
0000
0000
0000
0000
,
0001
0000
0000
0000
1000
0000
0000
0010
0000
0000
0100
0000
0001
0000
0000
0010
,
0000
0000
0100
0000
1000
0000
0000
0010
0000
0000
0100
0000
0001
0000
0000
0000
,
1000
0000
0000
0000
0001
0000
0000
0010
0000
0000
0100
0000
1000
0000
0000
0010
,
0200
0302
2000
3003
,
1001
0000
0000
0000
1000
0100
0010
0001
0000
0100
0001
0000
1000
0100
0000
0010
,
0000
0100
1000
0000
0001
0100
0010
1000
0000
0100
1000
0000
0020
0000
0000
0000
,
2030
0000
0000
0000
3001
0100
0000
1000
0000
0100
0001
0000
1000
0000
0100
0000
,
0010
0001
0000
1000
0000
0001
0010
0000
0100
2000
0000
0000
3001
0000
0000
0000
,
1001
0000
0000
0000
0001
0100
0010
1000
0000
0100
1000
0000
0001
0100
0000
0010
,
0000
0100
0001
0000
1000
0100
0010
0001
0000
0100
0001
0000
2000
0000
0000
0000
,
3020
0000
0000
0000
0130
0001
0000
1000
0000
0001
0100
0000
1000
0000
0100
0000
,
0010
0000
0000
1000
0000
0000
0000
0000
0000
0001
0000
0000
0000
0000
0000
1000
0000
0000
0100
0000
0000
0000
0000
0000
0020
0000
0000
0000
0000
0000
0000
0000
0000
0000
0000
0000
0031
0000
0000
0000
1000
0000
0000
0000
0001
0000
0000
0000
,
2000
0000
0000
0000
3001
0100
0010
1000
0000
0100
1000
0000
0001
0100
0000
0010
,
0000
0100
0001
0000
1000
0100
0010
0001
0000
0100
0001
0000
0020
0000
0000
0000
,
0032
0000
0000
0000
1003
0100
0000
0001
0000
0100
1000
0000
0001
0000
0100
0000
,
0010
1000
0000
0001
0000
1000
0010
0000
0100
0002
0000
0000
1003
0000
0000
0000
,
1001
0000
0000
0000
1000
0100
0010
0001
0000
1000
0100
1000
0001
0100
0010
1000
,
0000
0001
0100
0001
1000
0100
0010
0001
0000
1000
0001
0000
0200
0000
0000
0000
,
0320
0000
0000
0000
0130
0001
0000
0010
0000
0001
0100
0000
1000
0000
0100
0000
,
0010
1000
0000
0001
0000
1000
0100
0000
0020
0000
0000
0000
0032
0000
0000
0000
,
2003
0000
0000
0000
3020
0000
0000
0100
0000
0130
0000
0000
0001
0000
1000
0000
,
0020
0000
0000
0031
0000
0010
0100
0000
0001
0000
0100
0000
0020
0000
0000
0000
,
1030
0000
0000
0000
1002
0000
0000
0010
0000
0013
0000
0000
0100
0000
1000
0000
,
0020
0000
0000
1030
0000
0001
0010
0000
1000
0000
0010
0000
0001
0000
1000
0000
,
0002
0000
0000
0000
0013
0100
1000
0001
0000
0001
0000
0000
1000
0000
0001
0000
,
0010
0000
0100
0001
0000
0100
1000
0000
0001
0000
0100
0000
0020
0000
0000
0000
,
2030
0000
0000
0000
3100
0010
0000
0001
0000
0010
0100
0000
0001
0000
0100
0000
,
1000
0001
0000
0100
0000
0001
1000
0000
0020
0000
0000
0000
0000
0000
0000
0000
,
0030
0000
0000
0000
;
