#TITLE:Rush;
#SUBTITLE:;
#ARTIST:Troye Sivan;
#TITLETRANSLIT:;
#SUBTITLETRANSLIT:;
#ARTISTTRANSLIT:;
#GENRE:;
#CREDIT:;
#MUSIC:Rush.ogg;
#BANNER:;
#BACKGROUND:bg_rush.png;
#CDTITLE:;
#SAMPLESTART:0.000;
#SAMPLELENGTH:0.000;
#SELECTABLE:YES;
#OFFSET:-0.005;
#BPMS:0.000=126.000
,80.000=63.000
,88.000=126.000
,184.000=63.000
,192.000=126.000
;
#STOPS:;
#BGCHANGES:;
#FGCHANGES:;

//--------------- dance-single - AlienSix ----------------
#NOTES:
     dance-single:
     AlienSix:
     Hard:
     12:
     0,0,0,0,0:
0000
0000
0000
0000
,
0000
0000
0000
0000
,
0000
0000
0000
0000
,
0000
0000
0000
0000
0000
0000
0000
0000
1000
0001
0000
0001
0000
0000
1000
0000
,
0200
0000
0310
0001
1000
0010
1000
0100
,
0110
0000
0001
0100
0010
1000
0100
0010
,
0110
0000
1000
0010
0100
0001
1000
0001
,
0101
0000
1000
0010
1000
0001
1000
0100
,
2100
0000
0010
0000
0100
0100
3100
0000
,
0021
0000
0100
0000
0001
0001
0031
0000
,
2001
0000
0010
0000
0001
0001
3001
0000
,
1002
0000
0000
0000
0010
0000
0000
0000
1003
0100
0000
0100
0000
0000
0001
0000
,
0200
0000
0310
0001
1000
0010
1000
0100
,
0110
0000
0001
0100
0010
1000
0100
0010
,
0110
0000
1000
0010
0100
0001
1000
0001
,
0101
0000
1000
0010
1000
0001
1000
0100
,
2100
0000
0010
0000
0100
0100
3100
0000
,
0021
0000
0100
0000
0001
0001
0031
0000
,
2001
0000
0010
0000
0001
0001
3001
0000
,
1002
0000
0000
0000
0010
0000
0000
0000
1003
0100
0000
0010
0000
0000
0001
0000
,
2000
3200
0320
0032
,
2003
0000
0000
0000
3200
0000
0000
0000
0320
0000
0000
0000
0032
0000
0000
0000
0023
0000
0000
0000
0230
0000
0000
0000
0320
0000
0000
0030
0001
0100
0010
1000
,
0010
0100
0001
1000
0100
0010
0100
1000
,
0010
0100
0001
1000
0100
0010
0100
1000
,
0001
1000
0010
0100
0001
1000
0010
0200
,
0000
0301
0010
0200
0000
0010
0010
0310
,
0100
0010
0001
1000
0010
0100
0010
1000
,
0100
0010
0001
1000
0010
0100
0010
1000
,
0001
1000
0100
0010
0001
1000
0100
0020
,
0000
0031
0100
0020
0000
0100
0100
0130
,
0002
2003
3020
0230
,
0302
2003
3020
0230
,
0302
0000
1000
0000
1003
0010
0100
0020
,
0000
0130
0010
0200
0000
0010
0010
0310
,
2000
3002
0023
0230
,
2300
3020
0230
0302
,
2003
0000
0010
0000
3100
0010
0001
0020
,
0000
0130
1000
0200
0000
0000
0010
0000
,
0310
0000
0000
0000
,
0020
0000
0130
0001
1000
0100
1000
0010
,
0110
0000
0001
0010
0100
1000
0010
0100
,
0110
0000
1000
0100
0010
0001
1000
0001
,
0012
0000
0100
0000
0010
0010
0013
0000
,
1200
0000
0010
0000
1000
1000
1300
0000
,
1002
0000
0100
0000
1000
1000
1003
0000
,
2001
0000
0000
0000
0100
0000
0000
0000
3001
0010
0000
0100
0000
0000
1000
0000
,
0002
0023
0230
2300
,
3002
0000
0000
0000
0023
0000
0000
0000
0230
0000
0000
0000
2300
0000
0000
0000
3200
0000
0000
0000
0320
0000
0000
0000
0230
0000
0000
0300
1000
0010
0100
0001
,
0100
0010
1000
0001
0010
0100
0010
0001
,
0100
0010
1000
0001
0010
0100
0010
0001
,
1000
0001
0100
0010
1000
0001
0100
0020
,
0000
1030
0100
0020
0000
0100
0100
0130
,
0010
0100
1000
0001
0100
0010
0100
0001
,
0010
0100
1000
0001
0100
0010
0100
0001
,
1000
0001
0010
0100
1000
0001
0010
0200
,
0000
1300
0010
0200
0000
0010
0010
0310
,
2000
3002
0203
0320
,
2030
3002
0203
0320
,
2030
0000
0001
0000
3001
0100
0010
0200
,
0000
0310
0100
0020
0000
0100
0100
0130
,
0002
2003
3200
0320
,
0032
0203
0320
2030
,
3002
0000
0100
0000
0013
0100
1000
0200
,
0000
0310
0001
0020
0000
0100
0100
0130
,
0200
0000
0300
1000
0010
0000
0100
0000
0001
0000
1000
0000
0001
0000
1000
0000
,
0020
0000
0030
1000
0001
0000
1000
0000
0010
0000
1000
0000
0100
0000
0010
0000
,
0002
0000
0003
1000
0010
0000
0100
0000
0001
0000
1000
0000
0100
0000
2000
0000
,
0000
3001
0010
0002
0000
0000
0003
0000
;
