#VERSION:0.83;
#TITLE:Rota Fortunae;
#SUBTITLE:;
#ARTIST:dj VERTICAI;
#TITLETRANSLIT:;
#SUBTITLETRANSLIT:;
#ARTISTTRANSLIT:;
#GENRE:;
#ORIGIN:;
#TAGS:;
#CREDIT:;
#BANNER:Rota Fortunae.png;
#BACKGROUND:Rota Fortunae-bg.png;
#PREVIEWVID:;
#JACKET:Rota Fortunae-jacket.png;
#CDIMAGE:;
#DISCIMAGE:;
#LYRICSPATH:;
#CDTITLE:;
#MUSIC:Rota Fortunae.ogg;
#OFFSET:-0.016000;
#SAMPLESTART:82.724098;
#SAMPLELENGTH:15.000000;
#SELECTABLE:YES;
#BPMS:0.000000=148.000000
;
#STOPS:;
#DELAYS:;
#WARPS:;
#TIMESIGNATURES:0.000000=4=4
;
#TICKCOUNTS:0.000000=4
;
#COMBOS:0.000000=1
;
#SPEEDS:0.000000=1.000000=0.000000=0
;
#SCROLLS:0.000000=1.000000
;
#FAKES:;
#LABELS:0.000000=Song Start
;
#BGCHANGES:;
#KEYSOUNDS:;
#ATTACKS:
;

//---------------dance-single - ----------------
#NOTEDATA:;
#CHARTNAME:;
#CHARTHASH:100684001;
#STEPSTYPE:dance-single;
#BANNER:;
#DESCRIPTION:;
#CHARTSTYLE:;
#DIFFICULTY:Beginner;
#METER:2;
#METERF:2.000000;
#LASTSECONDHINT:118.394379;
#RADARVALUES:0.102726,0.169332,0.054124,0.000000,0.000000,93.000000,86.000000,7.000000,0.000000,0.000000,0.000000,0.000000,0.000000,0.000000,0.102726,0.169332,0.054124,0.000000,0.000000,93.000000,86.000000,7.000000,0.000000,0.000000,0.000000,0.000000,0.000000,0.000000;
#CREDIT:;
#NOTES:
0000
0000
0000
0000
,
0000
0000
0000
0000
,
0000
0000
0000
0000
,
0000
0000
0000
0000
,
0000
0000
0000
0000
,
1000
0000
0000
0000
,
0000
0000
0000
0000
,
0001
0000
0000
0000
,
0000
0000
0000
0000
,
1000
0000
0000
0000
,
0001
0000
0000
0000
,
1000
0000
0000
0000
,
0010
0000
0000
0000
,
0100
0000
0000
0000
,
0000
0000
0000
0100
,
0001
0000
0000
0000
,
1001
0000
0000
0000
,
1000
0000
0000
1000
,
1000
0000
0000
0000
,
0001
0000
0000
0000
,
0001
0000
0000
0000
,
0010
0000
0000
0010
,
0010
0000
0000
0000
,
0001
0000
0100
0000
,
0010
0000
1000
0000
,
0001
0000
0000
0001
,
0001
0000
0000
0000
,
1000
0000
0000
0000
,
1000
0000
0000
0000
,
0010
0000
0000
0000
,
0100
0000
0000
0000
,
0001
0000
0000
0000
,
1000
0000
0000
0000
,
0001
0000
0001
0000
,
0001
0001
0001
0000
,
1000
1000
0000
0000
,
1000
0000
1000
0000
,
0010
0000
0010
0000
,
0010
0010
0010
0000
,
0100
0000
0100
0000
,
0010
0000
0000
0000
,
1001
0000
0000
0000
,
0000
0000
0000
0000
,
0110
0000
0000
0000
,
0000
0000
0000
0000
,
0001
0000
0001
0000
,
1000
0000
1000
0000
,
0100
0000
0000
0000
,
0010
0000
0000
0000
,
1001
0000
0000
0000
,
0000
0000
0000
0000
,
0001
0000
0001
0000
,
0001
0000
0000
0000
,
0100
0000
0100
0000
,
0010
0000
0010
0000
,
1000
0000
1000
0000
,
1000
0000
0000
0000
,
0100
0000
0100
0000
,
0010
0000
0000
0000
,
0100
0000
0100
0000
,
0100
0000
0000
0000
,
1000
0000
1000
0000
,
0001
0000
0000
0000
,
0010
0000
0000
0000
,
0001
0000
1000
0000
,
0001
0000
0000
0000
,
0100
0000
0000
0000
,
1001
0000
0000
0000
,
0000
0000
0000
0000
,
0110
0000
0000
0000
,
0000
0000
0000
0000
,
1001
0000
0000
0000
,
0000
0000
0000
0010
,
0100
0000
0000
0000
;

//---------------dance-single - ----------------
#NOTEDATA:;
#CHARTNAME:;
#CHARTHASH:2710111010;
#STEPSTYPE:dance-single;
#BANNER:;
#DESCRIPTION:;
#CHARTSTYLE:;
#DIFFICULTY:Easy;
#METER:6;
#METERF:6.000000;
#LASTSECONDHINT:121.434914;
#RADARVALUES:0.207660,0.289468,0.061856,0.402066,0.000000,188.000000,180.000000,8.000000,52.000000,0.000000,0.000000,0.000000,0.000000,0.000000,0.207660,0.289468,0.061856,0.402066,0.000000,188.000000,180.000000,8.000000,52.000000,0.000000,0.000000,0.000000,0.000000,0.000000;
#CREDIT:;
#NOTES:
0000
0000
0000
0000
,
0000
0000
0000
0000
,
0000
0000
0000
0000
,
0000
0000
0000
0000
,
0000
0000
0000
0000
,
1000
0000
0000
0000
,
0100
0000
0000
0000
,
0001
0000
0000
0000
,
0010
0000
0000
0000
,
2000
0000
0000
3002
,
0203
0300
0100
0001
,
2000
0000
0000
3002
,
0023
0000
0000
0230
,
2300
0000
0000
3000
,
1000
0001
1000
0010
,
0200
0000
0000
0000
,
0300
0000
0000
0000
,
0001
0100
0001
0100
,
0010
1000
0010
1000
,
0100
1000
0100
1000
,
0001
0010
0001
0010
,
0100
1000
0001
0100
,
0001
1000
0100
1000
,
0002
0003
0020
0030
,
2000
3000
0200
0300
,
0001
0010
0100
1000
,
0100
0010
0001
1000
,
0001
0100
0010
1000
,
0010
0100
0001
1000
,
0100
0010
0100
0010
,
0001
1000
0001
1000
,
0020
0000
0000
0030
,
2002
0000
3003
1000
,
0010
0000
0100
0000
,
0010
0100
0001
1000
,
0100
0020
0000
0030
,
0200
0300
0010
0001
,
1000
0010
0100
0001
,
1000
0100
0010
0100
,
1000
0010
0200
0300
,
0002
0003
1000
1000
,
2002
0000
0000
3003
0000
0000
2002
0000
,
0000
3003
0000
0000
1000
0000
0001
0000
,
0220
0000
0000
0330
0000
0000
0220
0000
,
0000
0330
0000
0000
0010
0000
0100
0000
,
1001
0001
0100
0010
,
1000
0100
0010
0001
,
2000
0000
3000
1000
,
0002
0000
0000
0003
,
0220
0000
0000
0330
,
1000
0100
0010
0001
,
0200
0300
0200
0300
,
0100
0001
1000
0001
,
0020
0030
0002
0003
,
1000
0001
1000
0010
,
0200
0300
0200
0300
,
0100
0010
1000
0100
,
0020
0030
0200
0300
,
2000
3000
0001
1000
,
0020
0030
0020
0030
,
0010
1000
0100
0010
,
0200
0300
1000
0001
,
0020
0030
0001
1000
,
0020
0030
0200
0300
,
0001
0100
0010
1000
,
0002
0000
0003
0110
,
2000
0000
0000
3000
,
0001
0100
0000
0100
,
0000
0100
0000
0001
,
1000
0100
0000
0100
,
0000
0100
0000
0100
,
0020
0000
0000
0000
,
0000
0000
0000
0032
,
0203
0000
0000
0000
,
0000
0000
0000
0000
0000
0000
0000
0300
;

//---------------dance-single - ----------------
#NOTEDATA:;
#CHARTNAME:;
#CHARTHASH:4248375774;
#STEPSTYPE:dance-single;
#BANNER:;
#DESCRIPTION:;
#CHARTSTYLE:;
#DIFFICULTY:Medium;
#METER:10;
#METERF:10.000000;
#LASTSECONDHINT:121.434914;
#RADARVALUES:0.330268,0.405255,0.085052,0.525779,0.092784,299.000000,288.000000,11.000000,68.000000,0.000000,0.000000,0.000000,0.000000,0.000000,0.330268,0.405255,0.085052,0.525779,0.092784,299.000000,288.000000,11.000000,68.000000,0.000000,0.000000,0.000000,0.000000,0.000000;
#CREDIT:;
#NOTES:
0000
0000
0000
0000
,
0000
0000
0000
0000
,
0000
0000
0000
0000
,
0000
0000
0000
0000
,
0000
0000
0000
0000
,
1000
0000
0000
2000
0000
0000
0000
0000
3000
0000
0000
0000
0000
0000
0000
0000
,
0001
0000
0000
0002
0000
0000
0000
0000
0003
0000
0000
0000
0000
0000
0100
0000
,
0001
0000
0000
0002
0000
0000
0000
0000
0003
0000
0000
0000
0000
0000
0000
0000
,
1000
0000
0000
2000
0000
0000
0000
0000
3001
0000
0000
0000
1001
0000
0000
0000
,
0002
0203
0320
0100
,
2030
3200
0320
0100
,
0032
0023
0230
0010
,
2300
3020
0230
0010
,
0301
0000
0000
0001
0000
0000
0000
0000
0100
0000
0001
0000
0100
0000
0010
0000
,
1000
0000
0000
1000
0000
0000
0000
0000
0100
0000
1000
0000
0100
0000
0010
0000
,
0002
0203
0320
2030
,
3200
0000
0000
0300
,
1000
0000
0001
0000
0100
0000
0010
1000
,
0001
0000
0000
0000
1000
0000
0000
0000
0100
0000
0010
0000
0000
0100
0000
0000
,
1000
0000
0000
0001
0000
0000
0100
0000
0000
0010
0000
1000
,
0001
0000
1000
0000
0100
0010
0000
0010
,
0100
0000
1000
0000
0001
0000
0010
0001
,
0100
0001
1000
0010
,
2000
0100
0001
0100
,
0010
0001
3200
0320
,
0031
0000
1000
0000
0010
0000
0100
0001
,
1000
0000
0000
0000
0001
0000
0000
0000
0010
0000
0100
0000
0000
0010
0000
0000
,
0001
0000
0000
1000
0000
0000
0010
0000
0000
0100
0000
0001
,
1000
0000
0001
0000
0010
0001
0000
1000
,
0100
0000
0000
1000
0000
0000
0010
0000
0000
0100
0000
0100
,
0001
0000
0010
0000
0100
0000
0010
0001
,
1000
0001
0100
0001
,
0020
0000
0000
0000
0030
0000
0100
1000
,
0002
0000
0003
0001
2000
0000
3000
1000
,
0001
0100
0001
0000
1000
0010
1000
0000
,
0001
0010
0200
0000
0000
0000
0300
0100
,
2000
0000
3000
0000
0010
1000
0001
0000
,
0100
0010
1000
0000
0010
0100
0001
0000
,
2000
0000
3002
0000
0013
0100
0010
0000
,
0001
1000
0020
0000
0230
0000
0300
0000
,
2002
0000
3003
0000
0001
0100
0010
1000
,
0001
0000
0000
0001
0000
0000
0001
0000
0000
0000
0100
0000
0001
0000
0000
0001
,
0000
0001
0000
0000
0020
0000
0230
0000
,
1300
0000
0000
1000
0000
0000
1000
0000
0000
0000
0100
0000
1000
0000
0000
1000
,
0000
1000
0000
0000
0020
0000
2030
0000
,
3001
0101
0110
1010
,
1001
0000
0000
0000
1000
0000
0000
1000
0100
0000
0000
0000
0010
0000
0000
0000
,
0002
0100
0010
0100
,
2000
0000
0000
3003
,
0220
0000
0000
0330
,
0100
1000
0100
0010
0001
0001
0001
0000
,
0001
0000
0000
0000
0100
0000
0000
0010
1000
0000
0000
0000
0100
0000
0000
0010
,
0001
0010
0100
0000
1000
0010
0100
0000
,
0002
0000
0003
0001
2000
0000
3000
0000
,
0020
0000
0030
0010
0200
0000
0310
0000
,
1000
0000
0000
0000
0010
0000
0000
0100
0001
0000
0000
0000
0010
0000
0000
0100
,
1000
0100
1000
0000
0001
0010
0001
0000
,
2000
3010
0020
0230
,
0302
0000
0000
0000
1003
0001
1000
0001
,
0010
0000
0000
0000
0001
0000
0100
0000
0010
0000
0000
0000
1000
0000
0000
0100
,
0010
0000
0100
1000
0001
0000
0001
1000
,
0010
0000
0100
0010
0100
0000
0101
0000
,
1010
0000
1000
0000
1000
0100
1000
0001
,
0020
0000
0030
0001
0200
0000
0300
0010
,
0200
0302
2003
3200
,
0320
0032
0203
2300
,
3020
0000
0000
0030
,
0011
0000
0000
0001
0000
0000
0000
0000
0000
0000
0000
0000
0001
0000
0000
0000
,
1000
0000
0000
1000
0000
0000
0000
0000
0000
0000
0000
0000
1000
0000
0000
0000
,
0001
0000
0000
0001
0000
0000
0000
0000
0000
0000
0000
0000
0001
0000
0000
0000
,
0020
0130
0200
0310
,
0220
0000
0000
0000
,
0000
0000
0300
0032
,
2000
0000
0000
0000
,
0000
0000
0000
0000
0000
0000
0000
3003
;

//---------------dance-single - ----------------
#NOTEDATA:;
#CHARTNAME:;
#CHARTHASH:2547189978;
#STEPSTYPE:dance-single;
#BANNER:;
#DESCRIPTION:;
#CHARTSTYLE:;
#DIFFICULTY:Hard;
#METER:13;
#METERF:13.000000;
#LASTSECONDHINT:121.434914;
#RADARVALUES:0.498164,0.549990,0.154641,0.649491,0.282219,451.000000,431.000000,20.000000,84.000000,0.000000,0.000000,0.000000,0.000000,0.000000,0.498164,0.549990,0.154641,0.649491,0.282219,451.000000,431.000000,20.000000,84.000000,0.000000,0.000000,0.000000,0.000000,0.000000;
#CREDIT:;
#NOTES:
0000
0000
0000
0000
,
0000
0000
0000
0000
,
0000
0000
0000
0000
,
0000
0000
0000
0000
,
0000
0000
0000
0000
,
1000
0000
0000
2200
0000
0000
0000
0000
3300
0000
0000
0000
0000
0000
0000
0000
,
0010
0000
0000
2020
0000
0000
0000
0000
3030
0000
0000
0000
0000
0000
1000
0000
,
0001
0000
0000
0202
0000
0000
0000
0000
0303
0000
0000
0000
0000
0000
0000
0000
,
0010
0000
0000
0022
0000
0000
0033
0000
0001
1000
0000
1000
0020
0000
0000
0000
,
1030
0000
0000
1001
0000
0000
0000
0000
0001
0000
0100
0000
0010
0000
1000
0000
,
0100
0000
0000
0011
0000
0000
0000
0000
0001
0010
0000
0010
0100
0000
1000
0000
,
0001
0000
0000
1001
0000
0000
0000
0000
1000
0000
0010
0000
0100
0000
0001
0000
,
0010
0000
0000
1100
0000
0000
0100
0000
1000
0000
0001
0000
2000
0000
0000
0000
,
3001
0000
0100
0000
0010
0000
1000
0000
0001
0000
0100
0000
0010
0000
1000
0001
,
1000
0100
0010
0001
1000
0100
0010
0001
,
0100
0010
1000
0100
0010
0001
0100
0010
,
0220
0000
0000
0330
,
1000
0000
0000
1000
0010
0000
0100
0000
1000
0000
0100
0000
0002
0000
0000
0000
,
1003
0000
0000
0001
0010
0000
1000
0000
0010
0000
0200
0000
0000
0320
0000
0000
,
0031
0000
0000
0000
0000
0000
0000
0000
0000
0001
0000
0000
0010
0000
0000
0000
0000
0000
0100
0000
0000
0000
0000
0000
0001
0000
0000
0000
0000
0000
0100
0000
0000
0000
0000
0000
1000
0000
0000
0000
0100
0000
0000
0000
1000
0000
0000
0000
,
0001
0000
0000
1000
0010
0000
0100
0000
0010
0000
0000
1000
0001
0000
0010
0000
,
0100
0000
0000
1000
0100
0000
0010
0000
0001
0000
0010
0000
0100
0000
1000
0001
,
0100
0000
0000
0100
0001
0000
0010
0000
0001
0000
0100
0000
0010
0000
1000
0000
,
0020
2030
3002
0023
,
2030
3200
0302
0023
,
0031
0000
0000
0001
0100
0000
0010
0000
1000
0000
0100
0000
0020
0000
0000
0000
,
0031
0000
0000
0010
0100
0000
1000
0000
0001
0000
0200
0000
0000
0320
0000
0000
,
1030
0000
0000
0000
0000
0000
0000
0000
0000
1000
0000
0000
0100
0000
0000
0000
0000
0000
0010
0000
0000
0000
0000
0000
0001
0000
0000
0000
0000
0000
0100
0000
0000
0000
0000
0000
0001
0000
0000
0000
0010
0000
0000
0000
0001
0000
0000
0000
,
1000
0000
0000
0001
0010
0000
0001
0000
0100
0002
0000
0000
0003
0000
1000
0010
,
1000
0000
0000
0010
0000
0000
0100
0000
0000
0010
0000
0000
1000
0000
0000
0010
0000
0000
0100
0000
0001
0000
1000
0000
,
0100
0010
0001
0010
0100
0010
0001
0001
,
0100
0001
0010
0100
1000
0010
0100
0001
,
2002
0000
0000
0000
3003
0000
0000
0000
1000
0001
0000
0001
0010
0000
0100
0000
,
0020
0000
0000
0000
0030
0000
0001
0010
0200
0000
0000
0000
0300
0000
1000
0001
,
0010
0001
0100
0001
1000
0100
1000
0010
,
0200
0000
0010
0000
0302
0000
0000
0000
0023
0000
0100
0000
0031
0000
0000
0001
,
2000
0000
0000
0000
3000
0000
0000
1000
0001
0000
0100
0000
0010
0000
0100
0000
,
0002
0010
2003
0100
3002
0100
2003
0010
,
3002
0000
0203
0000
0310
0000
0000
0010
1000
0000
0100
0000
0010
0000
0001
0000
,
1000
0000
0001
0000
0010
0000
0000
0010
0200
0000
0000
0000
0300
0000
1000
0100
,
0020
0000
0030
0001
0100
0001
1000
0010
,
2010
0000
0000
0001
0000
0000
3100
0000
0000
0000
0001
0000
2010
0000
0000
0001
,
0000
3100
0000
0100
1000
0010
0100
0001
,
0012
0000
0000
1000
0000
0000
0103
0000
0000
0000
1000
0000
0012
0000
0000
1000
,
0000
0000
0103
0000
0000
0000
0100
0010
0100
0000
0001
0000
0010
0000
0100
0000
,
1000
0010
1000
0100
1000
0001
0100
0001
,
1000
0000
0001
0000
0010
0000
0001
0010
0100
0000
1000
0000
0001
0000
0100
0000
,
0020
0000
0000
0000
0000
0000
0230
0000
0000
0000
0000
0000
0302
0000
0000
0000
0000
0000
0003
0000
0000
0001
0010
0001
,
0020
0230
2300
3010
,
2002
0000
0000
3003
,
0001
0100
0000
0001
0000
1000
0000
1000
0100
0000
0110
0000
0210
0000
0000
0000
,
2300
0000
0000
0000
0000
0000
0000
0000
0000
0000
0000
0000
3100
0000
0000
0000
0000
0000
0010
0000
0001
0000
0010
0000
0002
0000
0000
0000
0000
0000
0000
0000
0000
0000
0000
0000
0103
0000
0000
0000
0000
0000
0000
0000
0000
0010
0000
0000
,
1000
0010
0100
0001
1000
0100
1000
0001
,
0020
0000
0000
0000
0031
0000
0010
0100
1000
0000
1000
0000
0001
0000
0100
0000
,
0020
0000
0000
0000
1030
0000
0010
0100
0001
0000
0001
0000
1000
0000
1000
0000
,
0002
0000
0000
0000
0000
0000
0000
0000
0000
0000
0000
0000
0103
0000
0000
0000
0000
0000
0010
0000
1000
0000
0010
0000
2000
0000
0000
0000
0000
0000
0000
0000
0000
0000
0000
0000
3100
0000
0000
0000
0000
0000
0010
0000
0000
0100
0000
0000
,
0010
0001
0010
0100
1000
0010
1000
0001
,
0020
0000
0000
0000
0030
0000
0010
0001
2000
0000
0000
0000
3000
0000
1000
0010
,
0200
0000
0300
0000
0100
0001
1000
0001
,
0020
0000
0000
0000
0031
0000
0001
1000
0020
0000
0000
0000
0130
0000
0000
0100
,
0001
0010
0100
0010
0001
0100
0010
1000
,
0200
0000
0000
0000
0300
0000
1000
0001
1000
0000
0010
0000
0100
0000
0000
0100
,
0010
1000
0100
0010
0002
0023
2030
3020
,
0230
0000
0000
0000
1300
0000
0010
1000
0002
0000
0000
0000
0003
0000
0100
0000
,
0001
0100
1000
0100
0010
1000
0001
0010
,
0120
0000
0001
0000
0100
0000
0031
1000
,
1020
0000
0000
0000
0100
0000
0000
0000
1030
0000
0000
0010
0100
0000
0100
0000
,
0002
0100
0000
0100
,
2003
0000
0000
0000
0100
0000
0000
0000
3000
0000
0000
1000
0100
0000
0010
0000
,
0002
0100
0000
1000
,
0023
0001
0030
0010
,
2002
0000
0000
0000
,
0000
0000
0003
3020
,
0200
0000
0000
0000
,
0000
0000
0000
0000
0000
0000
0000
0330
;

//---------------dance-single - ----------------
#NOTEDATA:;
#CHARTNAME:;
#CHARTHASH:1638529773;
#STEPSTYPE:dance-single;
#BANNER:;
#DESCRIPTION:;
#CHARTSTYLE:;
#DIFFICULTY:Challenge;
#METER:14;
#METERF:14.000000;
#LASTSECONDHINT:121.434914;
#RADARVALUES:0.640655,0.810511,0.317014,0.456190,0.556707,580.000000,539.000000,41.000000,59.000000,0.000000,0.000000,0.000000,0.000000,0.000000,0.640655,0.810511,0.317014,0.456190,0.556707,580.000000,539.000000,41.000000,59.000000,0.000000,0.000000,0.000000,0.000000,0.000000;
#CREDIT:;
#NOTES:
// measure 0
0000
0000
0000
0000
,  // measure 1
0000
0000
0000
0000
,  // measure 2
0000
0000
0000
0000
,  // measure 3
0000
0000
0000
0000
,  // measure 4
0000
0000
0000
0000
,  // measure 5
1000
0000
0000
1100
0000
0100
0000
1000
0001
0000
0010
0000
0002
0000
0000
0000
,  // measure 6
0103
0000
0000
0101
0000
0001
0000
0100
0010
0000
1000
0000
0010
0000
0100
0000
,  // measure 7
0001
0000
0000
0011
0000
0010
0000
0001
1000
0000
0100
0000
2000
0000
0000
0000
,  // measure 8
3010
0000
0000
1010
0000
0010
0000
1000
0001
0000
0100
0000
0001
0000
1000
0000
,  // measure 9
1010
0000
0000
1000
0010
0000
0100
0000
0010
0000
0001
0000
0010
0000
1000
0000
,  // measure 10
0001
0000
0000
0001
0010
0000
0100
0000
0010
0000
0010
0100
1000
0000
0001
0000
,  // measure 11
0011
0000
0000
0001
0010
0000
0100
0000
0010
0000
1000
0000
0010
0000
0001
0000
,  // measure 12
0101
0000
0000
0100
0010
0000
1000
0000
0010
0000
0100
0000
0002
0000
0000
0000
,  // measure 13
1003
0000
1000
0000
0100
0000
0100
0000
0010
0000
0010
0000
0001
0000
1000
0001
,  // measure 14
0100
0000
0100
0000
0001
0000
0100
0001
1000
0010
1000
0000
0010
0000
0010
0100
,  // measure 15
0001
0100
0001
1000
0100
1000
0100
0010
0001
1000
0010
0100
0001
0100
0010
1000
,  // measure 16
0002
0000
0000
0000
0000
0000
0000
0000
0000
0000
0100
0000
0000
1000
0000
0000
,  // measure 17
0013
0000
0000
0010
0100
0000
0001
0000
0100
0000
1000
0000
0020
0000
0000
0000
,  // measure 18
1030
0000
0000
0010
0100
0000
1000
0000
0100
0000
0002
0000
0000
2003
0000
0000
,  // measure 19
3100
0000
0000
0000
0000
0000
0000
0000
0000
0010
0000
0000
1000
0000
0000
0000
0000
0000
0010
0000
0000
0000
0000
0000
0001
0000
0000
0000
0000
0000
0100
0000
0000
0000
0000
0000
0010
0000
0000
0000
1000
0000
0000
0000
0001
0000
0000
0000
,  // measure 20
0100
0000
0000
0010
0001
0000
0010
0000
1000
0001
0000
0001
1000
0000
0100
0010
,  // measure 21
0100
0000
0000
1000
0100
0000
0010
0000
1000
0000
0010
0000
0001
0000
1000
0001
,  // measure 22
0100
0000
0000
0001
0100
0000
0010
0000
0001
0000
0010
0000
1000
0000
0001
0000
,  // measure 23
0020
0030
2002
3003
2200
3300
2020
3030
,  // measure 24
0220
0000
0330
0000
2002
0000
3003
0000
0022
0000
0033
0000
0010
0000
0001
1000
,  // measure 25
0001
0000
0000
0001
0100
0000
0010
0000
0100
0000
0001
0000
0010
0000
0100
0000
,  // measure 26
1000
0000
0000
1000
0010
0000
0100
0000
0010
0000
2000
0000
0000
3002
0000
0000
,  // measure 27
1003
0000
0000
0000
0000
0000
0000
0000
0000
1000
0000
0000
0100
0000
0000
0000
0000
0000
0010
0000
0000
0000
0000
0000
0100
0000
0000
0000
0000
0000
1000
0000
0000
0000
0000
0000
0001
0000
0000
0000
1000
0000
0000
0000
0010
0000
0000
0000
,  // measure 28
0100
0000
0000
0100
0001
0000
0010
0000
0100
0020
0000
0000
0030
0100
1000
0001
,  // measure 29
0010
0000
0000
0000
0000
0000
0000
0000
0000
0010
0000
0000
0001
0000
0000
0000
0000
0000
0100
0000
0000
0000
0000
0000
0010
0000
0000
0000
0000
0000
1000
0000
0000
0000
0000
0000
0100
0000
0000
0000
1000
0000
0000
0000
0001
0000
0000
0000
,  // measure 30
0100
0000
0000
0100
0001
0000
0010
0000
1000
0000
0010
0000
0100
0000
1000
0000
,  // measure 31
0010
0000
0010
1000
0010
0000
1000
0000
0001
0000
0001
0010
0001
0000
1000
0000
,  // measure 32
2002
0000
0000
0000
3003
0000
0000
0000
0001
1000
0000
1000
0010
0000
0100
0000
,  // measure 33
0002
0000
0000
0003
0000
0001
0010
0001
2000
0000
0000
0000
3000
0000
0010
1000
,  // measure 34
0001
0100
0010
0100
1000
0100
0001
0010
,  // measure 35
1000
0000
0010
0000
0012
0000
0000
0000
0103
0000
0010
0000
1010
0000
1000
0010
,  // measure 36
0200
0000
0000
0000
0300
0000
0100
0001
1000
0000
0001
0000
0010
0000
0100
0000
,  // measure 37
2000
0010
3002
0100
2003
0100
3002
0010
,  // measure 38
1003
0000
0001
0000
0010
0000
0010
0100
1000
0000
0001
0000
0100
0000
0010
0000
,  // measure 39
0001
0000
0010
0000
1000
0000
0000
1000
0200
0000
0000
0000
0300
0000
1000
0001
,  // measure 40
0020
0000
0000
0000
0030
0000
0001
0000
0100
0000
0001
0000
1000
0000
0000
1000
,  // measure 41
0010
0000
0000
1001
0000
0000
1100
0000
0100
0000
0010
0000
0011
0000
0000
1001
,  // measure 42
0000
0101
0100
0010
1000
0001
0010
0100
,  // measure 43
1100
0000
0000
1001
0000
0000
0101
0000
0100
0000
0001
0000
0011
0000
0000
1001
,  // measure 44
0000
0000
1010
0000
0010
0000
0100
0010
0100
0000
0001
0000
0010
0000
0100
0000
,  // measure 45
0010
0001
0100
0001
1000
0100
1000
0010
,  // measure 46
0200
0000
0000
0000
0310
0000
1000
0001
1000
0000
0100
0000
0010
0000
0001
0000
,  // measure 47
1000
0000
0000
0000
0000
0000
0000
0000
0000
1000
0000
0000
0100
0000
0000
0000
0000
0000
0100
0000
0000
0000
0000
0000
1000
0000
0000
0000
0000
0000
0000
0000
0000
1000
0000
0000
0100
0000
0000
0000
0000
0000
0010
0000
0001
0000
0010
0000
,  // measure 48
0001
0000
0000
0001
0100
0000
0001
0000
1000
0010
0000
0010
0100
0000
0100
0000
,  // measure 49
2002
0000
0000
3003
,  // measure 50
1000
0100
0000
0001
0000
0100
0000
0100
0010
0000
0110
0000
1002
0000
0000
0000
,  // measure 51
0203
0000
0000
0000
0000
0000
0000
0000
0000
0000
0000
0000
0310
0000
0000
0000
0000
0000
1000
0000
0010
0000
1000
0000
0020
0000
0000
0000
0000
0000
0000
0000
0000
0000
0000
0000
1030
0000
0000
0000
0000
0000
0001
0000
0000
0010
0000
0000
,  // measure 52
0001
0000
1000
0100
1000
0000
0001
0000
0010
0000
0100
0000
0010
0000
0001
0000
,  // measure 53
2000
0000
0000
0000
3001
0000
1000
0010
0100
0000
0100
0000
0010
0000
1000
0000
,  // measure 54
0002
0000
0000
0000
1003
0000
0001
0010
0100
0000
0010
0000
0100
0000
1000
0000
,  // measure 55
0200
0000
0000
0000
0000
0000
0000
0000
0000
0000
0000
0000
0310
0000
0000
0000
0000
0000
0001
0000
0010
0000
0001
0000
0020
0000
0000
0000
0000
0000
0000
0000
0000
0030
0000
0000
0001
0000
0000
0010
0000
0000
0001
0000
0000
1000
0000
0000
,  // measure 56
0100
0100
1000
0001
1000
0010
0100
0010
,  // measure 57
2000
0000
0000
0000
3001
0000
0001
0100
0020
0000
0000
0000
1030
0000
1000
0010
,  // measure 58
0200
0000
0000
0000
0301
0000
0000
0001
1000
0000
0100
0000
1000
0000
0001
0000
,  // measure 59
0020
0000
0000
0000
0031
0000
0001
1000
0020
0000
0000
0000
0130
0000
0000
0100
,  // measure 60
0001
0000
0001
0010
0100
0000
0100
1000
0001
0000
1000
0010
0100
0000
0001
0000
,  // measure 61
0020
0000
0000
0000
0130
0000
0010
0001
1000
0000
0010
0000
0100
0000
0010
0100
,  // measure 62
0010
1000
0001
0000
1000
0001
0010
0100
0010
0001
0000
1001
0000
2100
0000
0000
,  // measure 63
3001
0000
0000
0001
0010
0000
0010
0100
1000
0000
0000
1000
0010
0000
0100
0000
,  // measure 64
0001
0000
0100
0010
1000
0000
0001
1000
0100
0000
1000
0001
0010
0000
0100
0000
,  // measure 65
0110
0000
0010
0000
0100
0000
0010
0000
0100
1000
0100
1000
0001
0010
0001
1000
,  // measure 66
0020
0000
0000
0001
0000
0000
0100
0000
0000
1030
0000
0010
1000
0001
0100
0001
,  // measure 67
0010
0000
0000
0011
0000
0001
0000
0001
1000
0000
0100
0000
1200
0000
0000
0000
,  // measure 68
1300
0000
0000
1010
0000
0010
0000
1000
0001
0000
0100
0000
0101
0000
0001
0000
,  // measure 69
1000
0000
0000
1100
0000
0100
0000
1000
0001
0000
0010
0000
0021
0000
0000
0000
,  // measure 70
0031
0000
0000
0101
0000
0100
0000
0010
1000
0000
0010
0000
2010
0000
0000
0000
,  // measure 71
0002
0000
0000
0000
,  // measure 72
0000
0000
0000
0000
0000
0000
0000
0000
3003
0000
0000
0001
0020
0000
0000
0000
,  // measure 73
0200
0000
0000
0000
,  // measure 74
0000
0000
0000
0000
0000
0000
0000
0330
;
