#VERSION:0.83;
#TITLE:Rock-a-doodle-doo;
#SUBTITLE:;
#ARTIST:makou;
#TITLETRANSLIT:;
#SUBTITLETRANSLIT:;
#ARTISTTRANSLIT:;
#GENRE:;
#CREDIT:;
#MUSIC:Rock-a-doodle-doo.ogg;
#BANNER:;
#BACKGROUND:;
#CDTITLE:;
#SAMPLESTART:7.356;
#SAMPLELENGTH:15.000;
#SELECTABLE:YES;
#OFFSET:-0.245;
#BPMS:0.000=135.000
,44.000=67.500
,46.000=135.000
,90.000=67.500
,92.000=135.000
,188.000=67.500
,204.000=135.000
;
#STOPS:;
#BGCHANGES:;
#FGCHANGES:;

//--------------- dance-single - eataninja ----------------
#NOTEDATA:;
#STEPSTYPE:dance-single;
#DESCRIPTION:eataninja;
#DIFFICULTY:Beginner;
#METER:3;
#RADARVALUES:0,0,0,0,0;
#NOTES:
0000
0000
0000
0000
,
0000
0000
0000
0000
,
0000
0000
0000
0000
,
0000
0000
0000
0000
,
1000
1000
0000
0000
,
0001
0001
0000
0000
,
0100
0100
0000
0000
,
0010
0000
0100
0000
,
0001
0001
0000
0000
,
1000
1000
0000
0000
,
0100
0100
0000
0000
,
0000
0000
1000
0002
,
0003
0000
1000
0020
,
0030
0000
1000
0002
,
0003
0000
0100
0000
,
0100
0000
0001
2000
,
3000
0000
0001
0020
,
0030
0000
0001
2000
,
3000
0000
0010
0000
,
0010
0000
1001
0000
,
0000
0000
1001
0000
,
0000
0000
1001
0000
,
0000
0000
0000
0000
,
0001
0001
0000
0000
,
0100
0100
0000
0000
,
0010
0010
0000
0000
,
0100
0000
0001
0000
,
1000
1000
0000
0000
,
0100
0100
0000
0000
,
0010
0010
0000
0000
,
0000
0110
0000
0000
,
0100
0100
1000
0000
,
1000
1000
0001
0000
,
0001
0001
0100
0000
,
0100
0000
0010
0000
,
0100
0000
0000
0000
,
0001
0000
0000
0000
,
0010
0000
0000
0000
,
0100
0000
1000
0000
,
0001
0000
0000
0000
,
0100
0000
0000
0000
,
0010
0000
0000
0000
,
1000
0000
0001
0000
,
1001
0000
0000
0000
,
1001
0000
0000
0000
,
1001
0000
0000
0000
,
0000
0000
0000
0000
,
0001
0001
1000
0000
,
1000
0100
0100
0000
,
1000
1000
0001
0000
,
0001
0100
0100
0000
,
0010
0000
0100
0000
,
0001
1000
0001
0000
,
0010
0000
0100
0000
,
1000
1000
0000
0000
,
0100
0000
0010
0000
,
0001
1000
0001
0000
,
0100
0000
0010
0000
,
1000
1000
0000
0000
,
1001
0000
0000
0000
,
0110
0000
0000
0000
,
1001
0000
0000
0000
,
0000
0000
0000
0000
,
1001
0000
0000
0000
,
0110
0000
0000
0000
,
1001
0000
0000
0000
,
0000
0000
0000
0000
,
1001
0000
0000
0000
,
0110
0000
0000
0000
,
1001
0000
0000
0000
,
0000
0200
0000
0300
;

//--------------- dance-single - eataninja ----------------
#NOTEDATA:;
#STEPSTYPE:dance-single;
#DESCRIPTION:eataninja;
#DIFFICULTY:Easy;
#METER:6;
#RADARVALUES:0,0,0,0,0;
#NOTES:
0000
0000
0000
0000
,
0000
0000
0000
0000
,
0000
0000
0000
0000
,
0000
0000
0000
0000
,
1000
0001
0100
0000
,
0010
1000
0100
0000
,
1000
0001
0010
0000
,
0100
0010
0001
1000
,
0010
0100
0010
0000
,
0100
0001
1000
0000
,
0100
0010
0001
0000
,
2002
0000
3003
1000
,
0010
1000
0001
0001
,
0010
0100
1000
0001
,
1000
1000
0010
0100
,
0001
0001
1000
0001
,
0010
0100
0001
0100
,
1000
1000
0010
0100
,
0001
1000
0100
0100
,
0010
0000
0010
0000
1001
0000
0000
1000
,
0000
1000
0000
0000
1001
0000
0000
0001
,
0000
0001
0000
0000
1001
0000
0000
1000
,
0000
1000
0000
0000
0020
0000
0000
0000
,
0130
0001
1000
1000
,
0100
0000
0010
0000
0001
1000
0001
0000
,
0100
0010
0110
0100
,
0001
0000
1000
0000
0001
0010
0001
0000
,
0010
0010
0100
1000
,
0001
0100
1000
0100
,
0010
0010
0100
0100
,
0001
0000
0000
0000
,
1000
0100
0001
0100
,
0010
0010
0001
1000
,
0010
0100
0010
1000
,
0001
0000
0010
0000
0100
0010
0100
0000
,
1000
0001
0100
0000
,
0100
0010
0010
0000
,
1000
0001
0010
0000
,
0100
0100
1000
1000
,
0001
1000
0010
0000
,
0010
0100
0100
0000
,
0001
1000
0100
0000
,
0100
0010
0001
0100
,
1001
0000
0000
0001
0000
0001
0000
0000
,
1001
0000
0000
1000
0000
1000
0000
0000
,
1001
0000
0000
0001
0000
0001
0000
0100
,
0000
1001
0000
0000
,
0120
0000
0130
0000
0001
1000
0001
0000
,
0010
0000
0100
0000
1000
1000
1000
0000
,
2001
0000
3001
0000
0100
0010
0100
0000
,
0110
0000
1001
0000
1000
0100
0010
0000
,
0001
1000
0010
0010
,
0100
0001
1000
1000
,
0100
0010
0001
0001
,
1000
0000
0010
0000
0100
0010
0100
0000
,
0001
1000
0100
0100
,
0010
0001
1000
1000
,
0010
0100
0001
0001
,
1000
0100
1000
0010
,
0110
0000
0000
0100
0000
0000
0000
0000
,
0110
0000
0000
0100
0000
0001
0000
0000
,
1001
0000
0000
1000
0000
1000
0000
0100
,
0000
0110
0000
0000
,
1001
0000
0000
0001
0000
0000
0000
0000
,
1001
0000
0000
1000
0000
0100
0000
0000
,
0110
0000
0000
0100
0000
0100
0000
1000
,
0000
1001
0000
0000
,
0110
0000
0000
0010
0000
0000
0000
0000
,
0110
0000
0000
0010
0000
1000
0000
0000
,
1001
0000
0000
0001
0000
0001
0000
0010
,
0000
2002
0000
3003
;

//--------------- dance-single - eataninja ----------------
#NOTEDATA:;
#STEPSTYPE:dance-single;
#DESCRIPTION:eataninja;
#DIFFICULTY:Medium;
#METER:10;
#RADARVALUES:0,0,0,0,0;
#NOTES:
0000
0000
0000
0000
,
0000
0000
0000
0000
,
0000
0000
0000
0000
,
0000
0000
0000
0000
,
1001
0000
1000
0100
0001
0000
0100
0000
,
0010
0001
0010
0001
1000
0000
0010
0100
,
0001
0000
0010
0100
2000
0000
3002
0000
,
0103
1000
0100
0001
0100
0000
0110
0000
,
0010
1000
0100
0000
0010
0001
0100
0000
,
0101
0000
1000
0001
1000
1000
0100
0000
,
0010
0001
1000
1000
0010
0000
0100
0010
,
2002
0000
0000
0000
3003
0000
1000
0100
,
0001
0100
0010
0000
0001
0001
1000
1000
,
0010
0100
0001
0000
1000
0100
1000
0100
,
0010
0000
0001
0000
0100
0000
0000
0000
0010
0000
0000
0010
1000
0000
0001
0000
,
1000
0100
0010
0000
0001
0000
0011
0000
,
1000
0010
0001
0000
0010
0100
0001
0001
,
1000
0000
0000
1000
0100
0000
0000
0100
0010
0000
0001
0000
0100
0000
0000
0000
,
0110
0000
0000
0000
1001
0000
0000
0001
0010
0000
1000
0000
0010
0000
0000
0000
,
0100
0100
0010
0000
1001
0000
0000
1001
,
0000
1001
0000
0000
0101
0000
0000
0101
,
0000
0101
0000
0000
1001
0000
0000
1001
,
0000
1001
0000
0000
2100
0000
0000
0000
,
3010
0100
0001
1000
0100
0010
0001
0000
,
0010
0001
1000
0001
0100
1000
0100
0000
,
0010
0100
0100
0001
1000
0000
0100
0010
,
0001
1000
0010
0100
0000
0001
1000
0001
,
0100
0010
0110
0000
0100
0001
1000
0100
,
0001
0001
0100
0010
0001
1000
1000
0010
,
0100
0000
0101
0001
1000
0100
0010
0000
,
0001
0000
0000
0000
1000
0000
0000
1000
0000
0000
0010
0000
0200
0300
0000
0000
,
0101
0000
0001
1000
0100
0001
0100
0000
,
0010
0001
1000
0010
0000
0110
0000
1001
,
1000
0010
0001
0000
0010
0100
0110
0000
,
0100
0000
0001
0000
1000
0100
0000
1000
0100
0000
0010
0000
0001
0000
0001
0000
,
0100
0000
0100
1000
0100
0001
1000
0000
,
0100
0000
0100
0001
0100
1000
0001
0000
,
0100
0000
0100
1000
0100
0001
1000
0000
,
0010
0100
0000
0000
0100
0000
0001
0000
1000
0000
1000
0000
0100
0000
0000
0000
,
0010
0000
0010
1000
0010
0001
1000
0000
,
0010
0000
0010
0001
0010
1000
0001
0000
,
0010
0000
0010
1000
0010
0001
1000
0000
,
0001
0100
0000
0000
0100
0000
0010
0000
1000
0000
0100
0000
0010
0000
0000
0000
,
0110
0000
0000
1001
0000
1001
0000
0000
,
0101
0000
0000
0100
0000
0000
0010
0000
0000
0000
1001
0000
0000
0000
0000
0000
,
0110
0000
0000
1001
0000
1100
0000
0100
,
0000
0010
0000
0000
1001
0000
0000
0000
0000
0000
0000
0000
0000
0000
0000
0000
,
0001
0000
0001
0000
1000
0010
0000
1000
0000
0001
0000
0010
0000
0010
0100
0000
,
1000
0000
0001
0000
1000
0010
0000
0100
0000
1000
0200
0000
0000
0320
0000
0030
,
1001
0000
0000
0000
1000
0000
0000
0000
0100
0000
0000
0010
0000
0000
0100
0000
1000
0000
0001
0000
0000
0000
0201
0000
0000
0000
0010
0000
0310
0000
0000
0000
,
1001
0000
0000
0101
0000
0000
0100
0010
1000
0000
0100
0000
0001
0100
1000
0000
,
1100
0000
0100
0010
0001
1000
1000
0000
,
0010
0000
0000
0100
0000
0000
0001
0000
0000
0000
0001
0000
1000
0000
0000
0000
,
0100
0010
0001
0000
1000
0010
1000
0000
,
0001
0100
1000
0100
0010
0100
0001
0000
,
0101
0000
0100
0001
1000
0100
0100
0000
,
0010
0000
0000
0100
0000
0000
1000
0000
0000
0000
1000
0000
0001
0000
0000
0000
,
0100
1000
0100
0000
0010
0100
0001
0000
,
1000
0100
0001
0100
0010
0100
1000
0000
,
1001
0000
0000
0101
0000
0101
0000
0000
,
0011
0000
0000
0010
0000
0000
0100
0000
0000
0000
1100
0000
0000
0000
0000
0000
,
1001
0000
0000
1010
0000
1010
0000
0010
,
0000
0100
0000
0000
1001
0000
0000
0000
0000
0000
0000
0000
0000
0000
0000
0000
,
1001
0000
0000
1100
0000
1100
0000
0000
,
1010
0000
0000
0010
0000
0000
0100
0000
0000
0000
0101
0000
0000
0000
0000
0000
,
1001
0000
0000
0011
0000
0011
0000
0010
,
0000
0100
0000
0000
1001
0000
0000
0000
0000
0000
0000
0000
0000
0000
0000
0000
,
1001
0000
0000
0110
0000
0110
0000
0000
,
1001
0000
0000
0100
0000
0000
0010
0000
0000
0000
1001
0000
0000
0000
0000
0000
,
0110
0000
0000
1001
0000
1001
0000
0100
,
0000
0010
0000
0000
2002
0000
0000
0000
0000
0000
0000
0000
3003
0000
0000
0000
;

//--------------- dance-single - eataninja ----------------
#NOTEDATA:;
#STEPSTYPE:dance-single;
#DESCRIPTION:eataninja;
#DIFFICULTY:Hard;
#METER:15;
#RADARVALUES:0,0,0,0,0;
#NOTES:
0000
0000
0000
0000
,
0000
0000
0000
0000
,
0000
0000
0000
0000
,
0000
0000
0000
0000
,
1001
0000
0001
0100
0001
0000
1000
0001
0010
0000
0000
0000
0100
0000
0110
0000
,
1000
0001
0100
0000
1000
0100
0001
0000
0010
0000
0000
0000
0100
0000
1000
0000
,
1100
0000
0000
0000
1000
0000
0001
0000
0100
0000
0010
0100
0010
0000
1000
0000
,
0001
0010
1000
0000
0010
0100
0010
0000
0002
0000
0000
1003
0010
0000
0000
0010
,
0100
0001
0100
0001
1000
0000
0000
0000
1001
0000
0001
0010
0100
0000
1000
0010
,
0100
0000
0000
1000
0100
0000
0010
0100
0010
0000
1001
0000
0001
0010
0100
0000
,
1000
0001
1000
0010
0100
0000
0001
0010
0100
0000
0000
0000
1000
0001
1000
0001
,
0200
0000
0000
0000
0000
0000
0000
0000
0300
0000
0110
0000
0010
0000
1000
0001
,
1000
0100
0010
0000
0001
1000
0001
0000
0100
0000
0100
0000
0010
1000
0001
1000
,
0100
0010
0001
0000
1000
0010
1000
0010
0100
0001
0100
0001
1000
0100
0010
0001
,
1000
0000
0000
0010
0000
0000
1000
0000
0000
0001
0000
0000
0100
0000
0000
1000
0000
0000
0100
0000
0000
0000
0000
0000
0010
0000
0000
0000
0000
0000
0100
0000
0010
0000
0100
0000
0001
0000
0000
0000
0000
0000
1000
0000
0000
0000
0000
0000
,
0100
0010
0001
0000
1000
0010
0100
0010
1000
0000
0001
1000
0010
0000
0110
0000
,
1000
0000
0001
0000
1000
0000
0001
0000
0000
0000
0000
0000
0010
0000
0000
0100
0000
0000
1000
0000
0000
0001
0000
0000
0100
0000
0000
0000
0000
0000
1000
0000
0000
0100
0000
0000
0001
0000
0000
0000
0000
0000
0100
0000
0000
0000
0000
0000
,
0110
0000
0010
1000
0100
0000
0000
0001
0100
0000
0010
0000
1001
0000
0000
0001
,
1000
0000
0010
0000
0101
0000
1000
0001
1000
0100
0000
0010
0000
0000
0001
0000
,
1000
0010
1000
0001
0000
0000
0100
0000
0110
0000
0000
0000
0000
0000
1001
0000
,
0000
0101
0000
0000
0110
0000
0000
1001
,
0000
1100
0000
0000
0110
0000
0000
1001
,
0000
0101
0000
0000
0200
0000
0000
0000
,
0310
0000
1000
0000
1001
0000
0000
0001
0010
0000
1000
0010
0100
0000
0010
0001
,
1000
0000
0010
0100
0001
0000
0010
0100
1000
0000
0100
0000
0001
0100
1000
0000
,
0001
1000
0001
1000
0010
0000
0100
0010
1000
0000
0000
0000
0001
0010
0001
0010
,
0100
0000
1000
0000
0001
0000
0101
0000
1000
0000
0010
0100
0010
0000
0001
0000
,
1000
0000
0100
0000
0010
0100
0001
0000
1000
0000
0100
0000
1000
0001
1000
0000
,
0010
0000
0010
0000
0100
0001
0100
0000
0010
0000
1000
0100
0010
0001
0100
0000
,
1000
0100
1000
0100
0001
0100
0001
0000
0100
0010
1000
0001
0010
0100
1000
0000
,
0001
0000
0010
0000
0011
0000
0000
1001
0000
0000
1010
0000
0002
0003
0000
0000
,
0100
0000
0000
0010
0000
0000
1000
0000
0000
0000
0000
0000
0001
0000
0000
0000
0000
0000
0010
0000
0100
0000
0010
0000
0100
0000
0000
0000
0000
0000
1000
0000
0000
0001
0000
0000
0100
0000
0000
0010
0000
0000
0001
0000
0000
0000
0000
0000
,
0010
0100
0010
0000
1000
0000
1001
0000
0001
0000
0100
0000
0010
0100
0010
0000
,
1000
0000
0001
0000
0010
0000
0100
1000
0001
1000
0100
0000
0010
0000
0001
0000
,
0100
0000
1000
0100
0000
0010
0000
0010
1000
0000
0001
0010
0000
0001
1000
0001
,
0100
0000
0010
0000
1000
0010
0000
0010
0000
1000
0000
0001
0010
0000
0000
0000
,
0100
0000
0010
0000
0001
1000
0000
1000
0000
0010
0000
0100
0010
0000
0000
0000
,
0100
0000
0001
0000
1000
0001
0000
0001
0000
0010
0000
0100
0010
0000
0001
1000
,
0001
0100
0000
1000
0000
0100
0010
0100
0001
0000
1001
0000
1000
0100
0010
0001
,
0100
0000
0010
0000
0100
0001
0000
0001
0000
1000
0010
1000
0001
0000
0000
0000
,
1000
0000
0100
0000
0010
0100
0000
0100
0000
1000
0001
1000
0010
0000
0000
0000
,
0100
0000
0001
0000
1000
0001
0000
0001
0000
0010
0100
0010
0001
0000
1000
0010
,
0100
0010
0000
0000
0010
1000
0000
1000
0001
0000
0011
0000
1000
0000
0000
0000
,
0110
0000
0000
1001
0000
1001
0000
0000
,
0101
0000
0000
0110
0000
0000
1001
0000
0000
0000
1001
0000
0000
0000
0000
0000
,
1100
0000
0000
1001
0000
1001
0000
0011
,
0000
1010
0000
0000
1001
0000
0000
0000
0001
0000
0100
0000
1000
0000
0100
0010
,
2000
0000
0000
0000
0001
0000
0000
0000
3001
0000
0010
0000
0100
0000
1000
0000
0000
0000
0010
0100
0010
0000
1000
0000
0001
0000
0000
0001
1000
0000
0100
0000
,
0010
0000
0000
0000
0110
0000
0000
0000
0001
0000
1000
0000
0001
0000
0100
0000
0000
0000
1000
0000
0100
0000
0010
0000
1000
0000
0001
0010
0001
0000
1000
0000
,
0200
0000
0000
0000
0000
0000
0000
0000
0310
0000
0000
0010
0001
0000
1000
0000
0020
0000
0000
0000
0100
0000
2030
0000
0000
0000
3100
0010
0100
0000
0010
0000
,
0012
0000
0013
2100
0000
3001
1000
0010
0100
0000
0001
0000
2000
0000
3200
0000
,
0310
0000
0001
0000
1000
0000
1001
0000
0000
0000
0011
0000
0010
0001
1000
0000
,
0010
0000
0100
0001
0000
0100
0010
0000
1000
0000
0001
0000
0010
0100
0010
0000
,
0001
0000
1000
0000
0010
0000
0110
0000
0000
0000
1001
0000
1000
0100
0001
0000
,
0100
0000
0010
0000
0011
0000
0000
0000
1000
0000
0001
0000
0100
0010
0100
0001
,
1000
0000
0010
1000
0100
0000
0010
0000
0001
1000
0001
0000
0100
0000
1000
0000
,
0001
0010
0000
0010
0100
0000
0001
0000
0010
0100
1000
0000
0001
0000
0100
0000
,
0010
0100
0010
0000
1001
0000
0000
0000
0001
0000
1000
0100
0010
0000
0001
0100
,
0020
0000
0000
0000
2030
0000
0000
0000
3100
0001
0100
0000
0010
0001
1000
0010
,
0100
0010
1000
1001
0000
0011
1000
0000
,
0010
0100
0000
0010
0000
0000
1000
0001
1000
0100
0001
0000
0100
0000
0010
0001
,
1000
0010
0100
0000
0000
0000
0110
0000
0000
0000
1001
0000
0000
0000
0011
0000
,
0000
0110
0000
0000
1100
0000
0002
0000
0000
0000
0000
0000
1003
0010
0100
0000
,
0001
1000
0100
0110
0000
1100
0001
0000
,
1000
0010
1000
0000
0001
0000
0000
0000
0010
0100
0010
0000
0001
1000
0000
0010
,
1000
0001
0100
0000
0010
0000
0110
0000
0000
0000
1001
0000
0000
0000
0101
0000
,
0000
1010
0000
0000
2100
0000
0000
0000
3001
0000
0100
0000
1000
0000
0100
0000
,
0110
0000
0000
1001
0000
0101
0000
0000
,
0011
0000
0000
1100
0000
0000
1001
0000
0000
0000
1001
0000
0000
0000
0000
0000
,
0110
0000
0000
1001
0000
0011
0000
1100
,
0000
0101
0000
0000
2002
0000
0000
0000
0000
0000
0000
0000
3003
0000
0000
0000
;
