#TITLE:凛として咲く花の如く;
#SUBTITLE:;
#ARTIST:紅色リトマス;
#TITLETRANSLIT:Rin to shite saku hana no gotoku;
#SUBTITLETRANSLIT:;
#ARTISTTRANSLIT:Koushoku Litmus;
#GENRE:NADESHIKO ROCK;
#CREDIT:;
#MUSIC:Rin to shite saku hana no gotoku.ogg;
#BANNER:Rin to shite saku hana no gotoku.png;
#BACKGROUND:Rin to shite saku hana no gotoku-bg.png;
#CDTITLE:;
#SAMPLESTART:96.300;
#SAMPLELENGTH:15.000;
#SELECTABLE:YES;
#OFFSET:0.000;
#BPMS:0.000=163.000;
#STOPS:;
#BGCHANGES:0.000=Rin to shite saku hana no gotoku.mp4=1.000=0=0=0=StretchNoLoop====,
99999.000=-nosongbg-=1.000=0=0=0=StretchNoLoop====
;
#FGCHANGES:;

//--------------- dance-single - Extraordiberry ----------------
#NOTES:
     dance-single:
     Extraordiberry:
     Beginner:
     1:
     0,0,0,0,0:
0000
0000
0000
0000
,
0000
0000
0000
0000
,
0000
0000
0000
0000
,
0000
0000
0000
0000
,
1000
0000
0000
0000
,
0000
0000
0000
0000
,
0001
0000
0000
0000
,
0000
0000
0000
0000
,
0100
0000
0000
0000
,
0000
0000
0000
0000
,
0010
0000
0000
0000
,
1000
0000
1000
0000
,
0001
0000
0000
0000
,
0000
0000
0000
0000
,
0010
0000
0000
0000
,
0000
0000
0000
0000
,
0001
0000
0000
0000
,
0000
0000
0000
0000
,
0100
0000
0000
0000
,
0000
0000
0000
0000
,
0001
0000
0000
0000
,
1000
0000
0000
0000
,
0001
0000
0001
0000
,
0001
0000
0000
0000
,
1000
0000
0000
0000
,
0001
0000
0000
0000
,
0010
0000
0000
0000
,
0001
0000
0000
0000
,
1000
0000
0010
0000
,
1000
0000
0000
0000
,
0001
0000
0000
0000
,
1000
0000
0000
0000
,
0001
0000
0010
0000
,
0001
0000
0000
0000
,
0100
0000
0000
0000
,
0010
0000
0000
0000
,
0000
0000
0000
0000
,
1000
0000
0000
0000
,
0001
0000
0000
0000
,
1000
0000
0000
0000
,
0001
0000
0001
0000
,
0000
0000
0000
0000
,
1000
0000
0000
0000
,
0000
0000
0000
0000
,
0001
0000
0000
0000
,
0000
0000
0000
0000
,
0010
0000
0000
0000
,
0000
0000
0000
0000
,
0100
0000
0000
0000
,
1000
0000
1000
0000
,
0001
0000
0000
0000
,
0000
0000
0000
0000
,
0000
0000
0000
0000
,
0000
0000
0000
0000
,
1000
0000
0000
0000
,
0000
0000
0000
0000
,
0000
0000
0000
0000
,
0000
0000
0000
0000
,
1000
0000
0000
0000
,
0001
0000
0000
0000
,
1000
0000
1000
0000
,
1000
0000
0000
0000
,
0001
0000
0000
0000
,
1000
0000
0000
0000
,
0010
0000
0000
0000
,
1000
0000
0000
0000
,
0001
0000
0010
0000
,
0001
0000
0000
0000
,
1000
0000
0000
0000
,
0001
0000
0000
0000
,
1000
0000
0010
0000
,
1000
0000
0000
0000
,
0100
0000
0000
0000
,
0010
0000
0000
0000
,
0001
0000
0001
0000
,
0001
0000
0000
0000
,
1000
0000
0010
0000
,
1000
0000
0000
0000
,
0001
0000
0010
0000
,
0100
0000
1000
0000
,
0001
0000
0000
0000
,
1000
0000
0000
0000
,
0001
0000
0000
0000
,
1001
0000
0000
0000
;

//--------------- dance-single - Extraordiberry ----------------
#NOTES:
     dance-single:
     Extraordiberry:
     Easy:
     6:
     0,0,0,0,0:
0000
0000
0000
0000
,
0000
0000
0000
0000
,
0000
0000
0000
0000
,
0000
0000
0000
0000
,
1000
0100
1000
0100
,
0010
0001
1000
0000
,
0001
0100
0001
0100
,
0010
1000
0001
0000
,
1000
0100
1000
0100
,
0010
0001
1000
0000
,
0001
0100
0001
1000
,
0010
0000
1001
0000
,
2000
0000
0000
3000
,
0002
0000
0000
0003
,
0020
0000
0000
0030
,
0200
0000
0000
0300
,
2000
0000
0000
3000
,
0020
0000
0000
0030
,
0200
0000
0000
0300
,
0002
0000
1003
0000
,
1000
0001
1001
0000
,
0010
0100
0110
0000
,
1000
0100
0010
0001
,
1000
1000
0001
0000
,
0001
0100
1000
0000
,
1000
0100
0001
0000
,
1000
0100
0010
0001
,
2000
0000
3000
0000
,
0001
0100
0010
1000
,
0001
0010
0100
0000
,
1000
0010
0100
0000
,
0001
0010
0100
0000
,
1000
0010
0100
0001
,
0010
0100
1000
0000
,
0001
0100
0010
1000
,
0002
0000
0000
0003
,
2000
0000
0000
3000
,
0001
0000
1001
0000
,
0100
0000
0110
0000
,
1000
0100
0010
0000
,
0001
0100
0020
0000
,
0000
0000
0030
0000
,
1000
0100
1000
0100
,
0010
0001
1000
0000
,
0001
0100
0001
0100
,
0010
1000
0001
0001
,
1000
0100
1000
0100
,
0010
0001
1000
0000
,
0001
0100
0001
1000
,
0010
0000
1001
0000
,
2000
0000
0000
3000
,
0200
0000
0000
0300
,
0020
0000
0000
0030
,
0002
0000
0000
0003
,
2000
3020
0230
0300
,
0002
0023
0230
0300
,
2000
3002
0203
0320
,
2030
3002
1003
0000
,
0001
1000
0001
0000
,
0010
0100
0010
0000
,
1001
0000
0110
0000
,
0001
1000
1001
0000
,
1000
0100
0001
0000
,
0001
0100
1000
0000
,
0001
0100
0010
1000
,
0002
0000
0003
0000
,
1000
0100
0010
0001
,
1000
0010
0100
0000
,
0001
0010
0100
0000
,
1000
0010
0100
0000
,
0001
0010
0100
1000
,
0010
0100
0001
0000
,
1000
0100
0010
0001
,
2000
0000
3001
0000
,
1000
0001
1001
0000
,
0100
0010
0110
0000
,
2000
3200
0320
0030
,
0002
0203
0320
0030
,
1000
0100
0010
0001
,
0100
1000
0100
0000
,
0001
0100
0010
1000
,
0002
0000
0000
0003
,
2000
0000
0000
3001
,
2002
0000
0000
3003
;

//--------------- dance-single - Extraordiberry ----------------
#NOTES:
     dance-single:
     Extraordiberry:
     Medium:
     11:
     0,0,0,0,0:
0000
0000
0000
0000
,
0000
0000
0000
0000
,
0000
0000
0000
0000
,
0000
0000
0000
0000
,
1000
0100
0010
0000
0100
1000
0001
0000
,
1000
0100
0010
0001
1000
0010
0100
0000
,
0001
0010
0100
0000
0010
0001
1000
0000
,
0001
0010
0100
1000
0001
0000
1001
0000
,
1000
0010
0100
0000
0010
1000
0001
0000
,
1000
0010
0100
0001
1000
0100
0010
0000
,
0001
0100
0010
0000
0100
0001
1000
0000
,
0001
0100
0010
0000
1001
0000
0000
0000
,
2000
0000
3200
0000
,
0320
0032
2003
0000
,
3002
0000
0203
0000
,
0320
0000
0030
0000
,
2000
0000
3200
0000
,
2300
3020
0230
0300
,
0002
0000
0023
0000
,
0032
0000
1003
0000
,
0001
0100
0010
0000
1010
0000
0000
0000
,
1000
0100
0010
0000
0011
0000
0000
0000
,
0002
0203
0320
1030
,
1001
0110
1001
0000
,
1000
0100
0001
0100
1000
0000
0000
0000
,
0001
0100
1000
0100
0001
0000
0000
0000
,
2000
0000
3200
0000
0320
0000
0031
1000
,
0020
0030
2000
3200
,
0310
0000
0001
0100
0010
0000
1000
0100
,
0010
0001
1000
0010
0100
0000
0001
0010
,
0200
0000
0310
0001
2000
0000
3001
0100
,
0020
0000
0130
0001
1000
0000
0001
0010
,
0100
0000
1000
0010
0100
0000
0001
0010
,
0100
1000
0010
0100
0001
0000
1000
0100
,
0020
0000
0130
1000
0002
0000
1003
0010
,
0200
0001
0001
0001
,
0302
0000
0010
0000
0010
0000
0013
0100
,
1000
0000
0000
0000
0001
0000
0000
0100
0000
0000
0000
0000
0000
0000
0000
0000
,
0001
0000
0000
0000
1000
0000
0000
0100
0000
0000
0000
0000
0000
0000
0000
0000
,
2000
0000
3020
0000
0130
0010
1000
0000
,
0002
0000
0023
0000
0130
2000
0002
0000
,
0000
0000
3003
0000
,
0001
0100
0010
0000
0100
0001
1000
0000
,
0001
0100
0010
1000
0001
0010
0100
0000
,
1000
0010
0100
0000
0010
1000
0001
0000
,
1000
0010
0100
0001
1000
0000
0110
0000
,
0001
0010
0100
0000
0010
0001
1000
0000
,
0001
0010
0100
1000
0001
0100
0010
0000
,
1000
0100
0010
0000
0100
1000
0001
0000
,
1000
0100
0010
0000
1001
0000
0000
0000
,
0002
0000
0000
0000
,
2003
0000
0000
0000
,
3020
0000
0000
0000
,
0230
0000
0000
0000
,
0302
1000
2003
0100
,
3200
0010
0320
0000
,
0032
0100
0203
0010
,
0320
2030
3001
0000
,
1000
0100
0010
0000
0001
0000
0000
0000
,
0001
0100
0010
0000
1000
0000
0000
0000
,
1010
0110
0101
0001
,
2000
3200
0320
0030
,
0001
0010
1000
0010
0001
0000
0000
0000
,
1000
0010
0001
0010
1000
0000
0000
0000
,
0002
0000
0023
0000
0230
0000
1300
0001
,
0200
0300
0002
0023
,
0130
0000
1000
0010
0100
0000
0001
0010
,
0100
1000
0001
0100
0010
0000
1000
0100
,
0020
0000
0130
1000
0002
0000
1003
0010
,
0200
0000
0310
1000
0001
0000
1000
0100
,
0010
0000
0001
0100
0010
0000
1000
0100
,
0010
0001
0100
0010
1000
0000
0001
0010
,
0200
0000
0310
0001
2000
0000
3001
0100
,
0020
1030
0020
0230
,
0301
0000
1000
0100
0010
0000
0001
0100
,
1000
0100
0001
1000
0010
0000
1000
0100
,
0020
0000
0031
0100
0020
0000
1030
0100
,
0010
0000
0110
0000
1001
0000
1000
0010
,
0100
0000
0001
0010
0100
0000
1000
0010
,
0001
0010
1000
0001
0010
0000
0001
0100
,
0020
0000
0130
0001
2000
0000
3001
0010
,
0200
1000
1000
1000
,
2300
0000
0010
0000
0010
0000
3010
0100
,
0002
0000
0000
0003
;

//--------------- dance-single - Extraordiberry ----------------
#NOTES:
     dance-single:
     Extraordiberry:
     Hard:
     14:
     0,0,0,0,0:
0000
0000
0000
0000
,
0000
0000
0000
0000
,
0000
0000
0000
0000
,
0000
0000
0000
0000
,
1000
0100
0010
0100
0001
0100
0010
0100
,
1000
1000
0010
0010
0100
0001
0010
0000
,
0001
0100
0010
0100
1000
0100
0010
0100
,
0001
0000
1000
0100
0010
0000
0001
0010
0100
0000
1000
0000
0010
0000
0000
0000
,
1000
0100
0010
0100
0001
0100
0010
0100
,
1000
0010
0100
0000
0001
0100
0010
0000
1000
0000
0001
0000
0010
0000
0000
0000
,
0001
0100
0010
0100
1000
0100
0010
0100
,
0001
0010
0100
0000
1000
0100
0010
0000
0001
0000
0000
0000
1000
0000
0010
0000
,
0200
0000
0301
0010
0200
0000
1300
0001
,
0200
0000
0320
0000
2030
0000
3001
0010
,
0200
0000
0000
1300
0002
0000
1003
0010
,
0200
0000
0000
0000
0300
0000
0001
0010
,
0200
0000
1300
0010
0100
0001
1000
0100
,
0002
0203
2300
3000
,
0002
0000
1003
0010
0200
0000
2300
0000
,
3200
0010
0301
0000
,
1000
0000
0100
0010
0001
0000
0010
0000
0011
0000
0000
0000
0000
0000
0000
0000
,
0001
0000
0100
0010
1000
0000
0010
0000
1010
0000
0000
0000
0000
0000
0000
0000
,
2000
0000
3200
0000
0320
0000
0031
0100
,
0101
0110
1010
0000
,
1000
0100
0001
1000
0010
0000
0000
0000
,
0001
0100
1000
0001
0010
0000
0000
0000
,
1100
0000
0110
0000
0011
0000
0001
0100
,
0020
0030
2000
3200
,
0310
0100
1000
0100
0001
0100
1000
0001
,
0100
0010
1000
0100
0010
0000
0001
0100
,
0020
0000
0000
0000
0130
0000
0001
0000
0010
0000
0100
1000
0001
0000
0100
0000
,
0020
0000
1030
0100
0010
0000
0001
0100
,
0010
0100
0001
0100
1000
0100
0001
0010
,
0100
1000
0010
0100
0001
0000
1000
0100
,
0020
0000
0031
0100
0020
0000
1030
0100
,
0010
0100
0010
0100
0010
0100
0010
0001
,
1000
0001
1000
0001
1000
0001
0100
0010
,
1010
0000
0000
0000
0102
0000
0000
0013
0000
0000
0000
0000
0000
0000
0000
0000
,
0011
0000
0000
0000
2100
0000
0000
3010
0000
0000
0000
0000
0000
0000
0000
0000
,
2000
0000
0000
0000
3200
0000
0000
0000
0310
0000
0001
1000
0010
0000
0100
0000
,
0002
0000
0023
0000
0130
1000
2002
0000
,
0000
0000
3003
0000
,
0001
0100
0010
0100
1000
0100
0010
0100
,
0001
0001
0010
0010
0100
1000
0010
0000
,
1000
0100
0010
0100
0001
0100
0010
0100
,
1000
0000
0001
0100
0010
0000
1000
0010
0100
0000
0000
0000
0101
0000
0000
0000
,
0001
0010
0100
0010
1000
0010
0100
0010
,
0001
0100
0010
0000
1000
0010
0100
0000
0001
0000
1000
0000
0100
0000
0000
0000
,
1000
0010
0100
0010
0001
0010
0100
0010
,
1000
0100
0010
0000
0001
0010
0100
0000
1100
0000
0000
0000
0000
0000
0000
0000
,
2000
0000
0010
0000
,
0100
0100
3001
0000
,
0002
0000
0100
0000
,
0010
0010
1003
0000
,
2000
3020
0230
0302
,
0023
0000
0230
0000
1300
0001
0200
0000
,
0302
0000
0023
0000
0230
0000
1300
0010
,
0100
0001
1000
0000
0100
1000
0001
0000
0100
0000
0000
0000
0000
0000
0000
0000
,
0001
0001
0010
0100
1000
0000
0000
0000
,
1000
1000
0010
0100
0001
0000
0000
0000
,
1100
0100
0110
0010
0011
0000
1000
0001
,
0200
0320
2030
3000
,
0001
0010
1000
0001
0100
0000
0000
0000
,
1000
0010
0001
1000
0100
0000
0000
0000
,
0011
0000
0110
0000
1100
0000
1000
0010
,
0200
0300
0002
0023
,
0130
0010
0001
0010
1000
0010
0001
1000
,
0010
0100
0001
0010
0100
0000
1000
0010
,
0200
0000
0000
0000
0310
0000
1000
0000
0100
0000
0010
0001
1000
0000
0010
0000
,
0200
0000
0301
0010
0100
0000
1000
0010
,
0100
0010
1000
0010
0001
0010
1000
0100
,
0010
0001
0100
1000
0100
0000
0001
0010
,
0200
0000
1300
0010
0200
0000
0301
1000
,
0100
0010
0100
0010
0002
0000
0103
0000
,
0101
0000
0110
0000
1010
0000
1000
0100
,
0001
1000
0010
0001
1000
0000
0001
0100
,
0020
0000
0000
0000
0130
0000
0001
0000
0010
0000
0100
1000
0001
0000
0100
0000
,
0010
0010
1000
1000
0100
0000
1000
0010
,
0100
0010
0100
0000
0001
0000
0010
0000
0100
0010
0100
0000
1000
0000
0001
0000
,
0101
0100
0110
0010
1010
0000
0001
0010
,
2000
0000
3001
0100
2000
0000
3001
0100
,
0010
0100
0010
0100
0010
0100
0010
1000
,
0001
1000
0001
1000
0001
1000
0100
0010
,
2002
0000
0000
3003
;

//--------------- dance-double - Extraordiberry ----------------
#NOTES:
     dance-double:
     Extraordiberry:
     Easy:
     6:
     0,0,0,0,0:
00000000
00000000
00000000
00000000
,
00000000
00000000
00000000
00000000
,
00000000
00000000
00000000
00000000
,
00000000
00000000
00000000
00000000
,
00010000
00001000
00010000
00001000
,
01000000
00010000
10000000
00000000
,
00010000
00100000
00010000
00100000
,
00001000
00010000
00010000
00000000
,
00001000
00010000
00001000
00010000
,
00000100
00001000
00000001
00000000
,
00001000
00000010
00001000
00000010
,
00010000
00001000
00001000
00000000
,
00020000
00000000
00000000
00030000
,
00002000
00000000
00000000
00003000
,
02000000
00000000
00000000
03000000
,
00020000
00000000
00000000
00030000
,
20000000
00000000
00000000
30000000
,
02000000
00000000
00000000
03000000
,
00100000
00000000
00001000
00000000
,
00010000
00001000
00010000
00000000
,
00001000
00010000
00000100
00000000
,
00010000
00001000
01000000
00000000
,
00001000
00010000
00000100
00001000
,
00000001
00000100
00000010
00000000
,
00010000
00000010
00001000
00000000
,
00000001
00000100
00001000
00000000
,
00010000
00001000
01000000
00001000
,
00020000
00000000
00030000
00000000
,
00001000
00010000
00000010
00001000
,
00000001
00000010
00000100
00000000
,
00010000
00001000
01000000
00000000
,
00001000
00010000
00000100
00000000
,
00010000
00001000
00100000
00010000
,
10000000
00100000
01000000
00000000
,
00001000
00010000
00000100
00010000
,
00002000
00000000
00000000
00003000
,
02000000
00000000
00000000
03000000
,
00010000
00000000
10010000
00000000
,
10000000
00000000
10010000
00000000
,
00010000
00100000
01000000
10000000
,
00100000
01000000
00002000
00000000
,
00000000
00000000
00003000
00000000
,
00010000
00001000
00010000
00001000
,
00100000
00010000
10000000
00000000
,
00010000
01000000
00010000
01000000
,
00001000
00010000
00001000
00100000
,
00001000
00010000
00001000
00010000
,
00000010
00001000
00000001
00000000
,
00001000
00000100
00001000
00000100
,
00010000
00001000
00001000
00000000
,
00020000
00000000
00000000
00030000
,
00002000
00000000
00000000
00003000
,
00200000
00000000
00000000
00300000
,
00020000
00000000
00000000
00030000
,
20000000
00000000
30200000
00000000
,
02300000
00000000
03001000
00000000
,
00020000
00000000
00030200
00000000
,
00000310
00000100
00010000
00000000
,
00001000
00001000
00010000
00000000
,
00001000
00010000
00000010
00000000
,
00010000
00001000
00100000
00010000
,
10000000
00100000
01000000
00000000
,
00001000
00100000
00010000
00000000
,
10000000
01000000
00010000
00000000
,
00001000
00010000
00000010
00010000
,
00002000
00000000
00003000
00000000
,
00010000
00001000
01000000
00010000
,
10000000
01000000
00100000
00000000
,
00001000
00010000
00000010
00000000
,
00010000
00001000
00100000
00000000
,
00001000
00010000
00000100
00001000
,
00000001
00000100
00000010
00000000
,
00010000
00001000
00100000
00001000
,
00020000
00000000
00031000
00000000
,
00011000
00000000
00011000
00000000
,
00010000
00000100
00001000
00000000
,
00000001
00000100
00000010
00001000
,
00000001
00000100
00001000
00000000
,
00020000
00032000
00203000
00320000
,
10030000
01000000
00010000
00000000
,
00001000
00010000
00000010
00010000
,
00002000
00000000
00000000
00003000
,
00020000
00000000
00000000
00031000
,
00022000
00000000
00000000
00033000
;

//--------------- dance-double - Extraordiberry ----------------
#NOTES:
     dance-double:
     Extraordiberry:
     Medium:
     11:
     0,0,0,0,0:
00000000
00000000
00000000
00000000
,
00000000
00000000
00000000
00000000
,
00000000
00000000
00000000
00000000
,
00000000
00000000
00000000
00000000
,
00010000
00001000
01000000
00000000
00010000
10000000
01000000
00000000
,
10000000
00010000
00100000
00001000
00010000
00001000
01000000
00000000
,
00001000
00010000
00000100
00000000
00001000
00000001
00000100
00000000
,
00000001
00001000
00000010
00010000
00001000
00000000
00010000
00000000
,
00001000
00010000
00000010
00000000
00001000
00000001
00000010
00000000
,
00000001
00001000
00000100
00010000
00001000
00010000
00000010
00000000
,
00010000
00001000
00100000
00000000
00010000
10000000
00100000
00000000
,
10000000
00010000
01000000
00001000
00010000
00000000
00001000
00000000
,
00020000
00000000
00032000
00000000
,
02003000
00000000
03020000
00000000
,
20030000
00000000
32000000
00000000
,
03020000
00000000
00030000
00000000
,
00002000
00000000
00023000
00000000
,
00030200
00002300
00003002
00000003
,
00000200
00000000
00002300
00000000
,
00023000
00000000
00031000
00000000
,
00001000
01000000
00010000
00100000
00001000
00000000
00000000
00000000
,
00010000
00000100
00001000
00000010
00010000
00000000
00000000
00000000
,
00002000
00023000
00230000
10300000
,
10010000
00100000
00011000
00000000
,
00001000
00000010
00000001
00000010
00001000
00000000
00000000
00000000
,
00010000
00100000
10000000
00100000
00010000
00000000
00000000
00000000
,
00002000
02003000
03020000
00230000
,
00302000
00003000
00020000
00032000
,
01003000
00000000
00010000
10000000
01000000
00000000
10000000
01000000
,
00010000
00001000
00010000
01000000
10000000
00000000
00010000
01000000
,
00200000
00000000
01300000
00001000
00020000
00000000
00031000
00010000
,
00000200
00000000
00001300
00000100
00010000
00000000
00001000
00010000
,
00000100
00000000
00001000
00000001
00000100
00000000
00000001
00000100
,
00001000
00010000
00001000
00000100
00000001
00000000
00001000
00000100
,
00000020
00000000
00000130
00010000
00002000
00000000
00013000
00001000
,
02000000
00000000
00000000
00000000
,
03002000
00000000
00000000
00000000
00000000
00000000
00013000
00001000
,
00000010
00000000
00000000
00000000
00000001
00000000
00000000
00001000
00000000
00000000
00000000
00000000
00000000
00000000
00000000
00000000
,
00011000
00000000
00000000
00000000
00010000
00000000
00000000
00001000
00000000
00000000
00000000
00000000
00000000
00000000
00000000
00000000
,
00020000
00000000
00032000
00000000
00013000
00001000
01000000
00000000
,
00020000
00000000
00230000
00000000
00301000
00020000
00002000
00000000
,
00000000
00000000
00033000
00000000
,
00001000
00010000
00000010
00000000
00001000
00000001
00000010
00000000
,
00000001
00001000
00000100
00010000
00001000
00010000
00000010
00000000
,
00010000
00001000
00100000
00000000
00010000
10000000
00100000
00000000
,
10000000
00010000
01000000
00001000
00010000
00000000
00011000
00000000
,
00010000
00001000
01000000
00000000
00010000
10000000
01000000
00000000
,
10000000
00010000
00100000
00001000
00010000
00001000
01000000
00000000
,
00001000
00010000
00000100
00000000
00001000
00000001
00000100
00000000
,
00000001
00001000
00000010
00010000
00001000
00000000
00000000
00000000
,
00020000
00000000
00032000
00000000
,
00203000
00000000
00320000
00000000
,
20030000
00000000
30200000
00000000
,
02300000
00000000
03002000
00000000
,
00023000
00000100
00030200
00000010
,
00000320
00000001
00000031
00001000
,
00000002
00000100
00000203
00000010
,
00000320
00020030
00031000
00000000
,
00010000
00000100
00001000
00000100
00010000
00000000
00000000
00000000
,
00001000
01000000
00010000
01000000
00001000
00000000
00000000
00000000
,
00020000
00032000
00003020
00000031
,
00001001
00000010
00011000
00000000
,
00010000
00100000
10000000
00100000
00010000
00000000
00000000
00000000
,
00001000
00000010
00000001
00000010
00001000
00000000
00000000
00000000
,
00020000
00030020
00002030
00003200
,
00020300
00030000
00002000
00023000
,
00030010
00000000
00001000
00000001
00000010
00000000
00000001
00000010
,
00001000
00010000
00001000
00000010
00000001
00000000
00001000
00000010
,
00000200
00000000
00000310
00010000
00002000
00000000
00013000
00001000
,
00200000
00000000
00310000
00100000
00001000
00000000
00010000
00001000
,
00100000
00000000
00010000
10000000
00100000
00000000
10000000
00100000
,
00010000
00001000
00010000
00100000
10000000
00000000
00010000
00100000
,
02000000
00000000
03100000
00001000
00020000
00000000
00031000
00010000
,
00000020
00000000
00020030
00032000
,
00103000
00000000
00010000
10000000
00100000
00000000
00010000
00001000
,
00010000
00100000
10000000
00100000
00010000
00000000
00001000
00010000
,
00000200
00000000
00001300
00000001
00000200
00000000
00000310
00010000
,
00001000
01000000
00010000
10000000
01000000
00000000
00100000
00001000
,
00010000
00000000
00000100
00001000
00000001
00000000
00001000
00000001
,
00000100
00001000
00010000
00100000
10000000
00000000
00010000
00100000
,
02000000
00000000
03100000
00001000
00020000
00000000
00031000
00010000
,
00000200
00000000
00000000
00000000
,
00020300
00000000
00000000
00000000
00000000
00000000
00031000
00010000
,
00200000
00000000
00000000
00300000
;

//--------------- dance-double - Extraordiberry ----------------
#NOTES:
     dance-double:
     Extraordiberry:
     Hard:
     14:
     0,0,0,0,0:
00000000
00000000
00000000
00000000
,
00000000
00000000
00000000
00000000
,
00000000
00000000
00000000
00000000
,
00000000
00000000
00000000
00000000
,
00010000
00001000
01000000
00001000
00010000
00001000
00100000
00010000
,
10000000
00100000
01000000
00010000
10000000
01000000
00010000
00000000
,
00001000
00010000
00000100
00010000
00001000
00010000
00000010
00001000
,
00000001
00000000
00000010
00000100
00001000
00000000
00000100
00000010
00000001
00000000
00000100
00000000
00001000
00000000
00000000
00000000
,
00010000
00001000
01000000
00001000
00010000
00001000
00100000
00010000
,
10000000
00100000
01000000
00000000
00010000
01000000
00100000
00000000
10000000
00000000
01000000
00000000
00010000
00000000
00000000
00000000
,
00001000
00010000
00000100
00010000
00001000
00010000
00000010
00001000
,
00000001
00000010
00000100
00000000
00001000
00000100
00010000
00000000
00001000
00000000
00000000
00000000
00010000
00000000
00001000
00000000
,
02000000
00000000
03010000
10000000
02000000
00000000
03100000
00001000
,
00020000
00000000
00230000
00000000
20300000
00000000
30010000
00100000
,
00002000
00000000
00000000
00013000
00000200
00000000
00001300
00000010
,
00020000
00000000
00000000
00000000
00030000
00000000
00001000
00010000
,
00000200
00000000
00001300
00000001
00000100
00000010
00010000
00001000
,
00000020
00000032
00000203
00000300
,
00002000
00000000
00013000
00001000
02000000
00000000
03020000
00000000
,
20030000
01000000
30010000
00000000
,
10000000
01000000
00010000
00001000
00000010
00000000
00000000
00000000
,
00000001
00000100
00001000
00010000
00100000
00000000
00000000
00000000
,
20000000
00000000
32000000
00000000
03020000
00000000
00031000
00000010
,
00000011
00001100
00011000
00000000
,
00010000
00100000
10000000
01000000
00010000
00000000
00000000
00000000
,
00001000
00000010
00000001
00000100
00001000
00000000
00000000
00000000
,
00011000
00000000
01010000
00000000
10100000
00000000
10000000
01000000
,
00020000
00030000
00002000
00023000
,
00031000
00100000
00001000
00010000
00100000
10000000
00010000
10000000
,
01000000
00010000
00001000
01000000
00010000
00000000
10000000
01000000
,
00020000
00000000
00000000
00000000
00031000
00000000
00010000
00000000
01000000
00000000
00010000
00001000
00010000
00000000
00001000
00000000
,
00000200
00000000
00001300
00010000
00000100
00000000
00010000
00001000
,
00010000
00000010
00010000
00001000
00000010
00000001
00001000
00000001
,
00000100
00001000
00010000
00100000
10000000
00000000
10000000
01000000
,
00020000
00000000
00031000
00010000
02000000
00000000
03010000
00001000
,
01000000
00100000
01000000
00100000
01000000
00100000
01000000
00100000
,
10000000
01000000
10000000
01000000
10000000
01000000
00100000
00010000
,
00001000
00000000
00000000
00000000
00001100
00000000
00000000
00001010
00000000
00000000
00000000
00000000
00000000
00000000
00000000
00000000
,
00011000
00000000
00000000
00000000
01010000
00000000
00000000
00110000
00000000
00000000
00000000
00000000
00000000
00000000
00000000
00000000
,
20000000
00000000
00000000
00000000
32000000
00000000
00000000
00000000
03010000
00000000
00001000
00010000
00001000
00000000
00000010
00000000
,
00000002
00000000
00000203
00000000
00001300
00010000
00022000
00000000
,
00000000
00000000
00033000
00000000
,
00001000
00010000
00000100
00010000
00001000
00010000
00000010
00001000
,
00000001
00000010
00000100
00001000
00000001
00000100
00001000
00000000
,
00010000
00001000
01000000
00001000
00010000
00001000
00100000
00010000
,
10000000
00000000
00100000
01000000
00010000
00000000
10000000
01000000
00100000
00000000
00000000
00000000
00011000
00000000
00000000
00000000
,
00001000
00010000
00000010
00010000
00001000
00010000
00000100
00001000
,
00000001
00000100
00000010
00000000
00001000
00000010
00000100
00000000
00000001
00000000
00000010
00000000
00001000
00000000
00000000
00000000
,
00010000
00001000
00100000
00001000
00010000
00001000
01000000
00010000
,
10000000
01000000
00100000
00000000
00010000
00100000
00001000
00000000
00010000
00000000
00000000
00000000
00000000
00000000
00000000
00000000
,
00020000
00000000
00230000
00000000
,
20300000
32000000
03200000
00000000
,
00302000
00000000
00003020
00000000
,
00000032
00000203
00000320
00000000
,
00020030
00230000
20300000
30020000
,
20030000
00000000
32000000
00000000
03010000
00001000
00020000
00000000
,
00032000
00000000
00003020
00000000
00000032
00000000
00000103
00001000
,
00010000
00001000
00000010
00000001
00001000
00000000
00000000
00000000
,
00000001
00000100
00001000
00010000
00100000
00000000
00000000
00000000
,
10000000
01000000
00010000
00001000
00000010
00000000
00000000
00000000
,
00000101
00000000
00001010
00000000
00011000
00000000
00010000
00100000
,
20000000
32000000
03020000
00030000
,
00001000
00000100
00000001
00000010
00001000
00000000
00000000
00000000
,
00010000
01000000
10000000
00100000
00010000
00000000
00000000
00000000
,
00011000
00000000
00001010
00000000
00000101
00000000
00000001
00000010
,
00002000
00003000
00020000
00032000
,
00013000
00000100
00010000
00001000
00000100
00000001
00001000
00000001
,
00000010
00001000
00010000
00000010
00001000
00000000
00000001
00000010
,
00002000
00000000
00000000
00000000
00013000
00000000
00001000
00000000
00000010
00000000
00001000
00010000
00001000
00000000
00010000
00000000
,
00200000
00000000
00310000
00001000
00100000
00000000
00001000
00010000
,
00001000
01000000
00001000
00010000
01000000
10000000
00010000
10000000
,
00100000
00010000
00001000
00000100
00000001
00000000
00000001
00000010
,
00002000
00000000
00013000
00001000
00000020
00000000
00000031
00000100
,
00001000
00010000
00001000
00010000
00200000
00000000
10300000
00000000
,
11000000
00000000
00110000
00000000
00011000
00000000
00010000
00001000
,
00000100
00000001
00000010
00001000
00010000
00000000
00001000
00010000
,
00200000
00000000
00000000
00000000
00310000
00000000
00001000
00000000
00000100
00000000
00001000
00010000
00001000
00000000
00010000
00000000
,
01000000
00010000
00001000
00000010
00000100
00000000
00010000
00001000
,
00010000
00100000
10000000
01000000
00010000
00001000
01000000
00100000
,
10000000
01000000
00010000
00000100
00000010
00000000
00000001
00000100
,
00002000
00000000
00013000
00100000
20000000
00000000
31000000
00010000
,
00001000
00000010
00001000
00000010
00001000
00000010
00001000
00000010
,
00000001
00000100
00000001
00000100
00000001
00000100
00000010
00001000
,
00020000
00000000
00000000
00030000
;
