#TITLE:Ratchet;
#SUBTITLE:;
#ARTIST:Bloc Party;
#TITLETRANSLIT:;
#SUBTITLETRANSLIT:;
#ARTISTTRANSLIT:;
#GENRE:;
#CREDIT:;
#MUSIC:Ratchet-_Edit_.ogg;
#BANNER:ratchet-banner.png;
#BACKGROUND:ratchet-bg.png;
#CDTITLE:;
#SAMPLESTART:40.898;
#SAMPLELENGTH:28.708;
#SELECTABLE:YES;
#OFFSET:-0.011;
#BPMS:0.000=137.942;
#STOPS:;
#BGCHANGES:;
#FGCHANGES:;

//--------------- dance-single - Evergreen ----------------
#NOTES:
     dance-single:
     Evergreen:
     Medium:
     12:
     0,0,0,0,0:
0000
0000
0000
0000
,
0000
0000
0000
0000
,
0000
0000
0000
0000
,
0000
0000
0000
0000
,
1000
0010
0100
0010
,
1000
0100
0010
0001
,
0010
0001
1000
0010
0100
0001
0010
0001
,
1000
0000
0000
1001
,
0001
0100
0001
0000
1000
0000
0010
1000
,
0010
0100
0001
0001
,
1000
0100
1000
0000
0001
0000
0010
0000
,
0100
1000
0010
0100
,
0001
0010
0001
0000
1000
0000
0100
1000
,
0100
0000
1000
0000
0010
0100
0001
0000
,
1000
0100
0010
0000
0001
0100
0010
1000
,
0002
0000
1000
0000
1000
0000
1003
0001
,
0010
0000
0001
0100
0001
0100
0010
0000
,
1000
0100
1000
0100
0020
0000
0032
0000
,
1003
0010
1000
0001
0000
0010
0001
1000
,
0000
0010
0200
0000
0301
0010
0001
1000
,
0100
1000
0100
0000
1000
0010
1000
0000
,
0001
0100
0001
0000
1000
0100
1000
0000
,
0001
0010
0010
0000
1000
0010
0010
0000
,
0100
0010
0100
0000
0010
1000
0001
1000
,
0100
0010
0001
0010
0100
0000
1000
0000
,
0010
0100
0010
0000
1000
0100
1000
0000
,
0001
0100
0010
1000
0001
0000
0010
0001
,
1000
0000
0010
1000
0001
0100
0001
1000
,
0010
0100
0001
1000
0100
0010
0001
1000
,
0010
1000
0100
0000
0010
0001
0100
0000
,
0001
1000
0001
0100
0010
0000
1000
0100
,
0010
0000
0001
0100
0010
1000
0100
0010
,
0001
1000
0001
0100
0001
0010
0001
0000
,
1000
0100
1000
0000
0001
0100
0001
0000
,
1000
0010
0100
0001
0010
0000
0100
1000
,
0010
0000
0100
0001
0010
0100
1000
0010
,
0100
0001
1000
0100
1000
0010
1000
0001
,
0100
0001
0010
0000
0100
1000
0010
0000
,
0100
0001
0010
0001
0010
0000
1000
0010
,
1000
0000
0001
0100
0001
1000
0100
1000
,
0002
1000
0000
1003
,
0020
1000
0000
1030
,
2000
0100
0000
3100
,
2000
0001
0000
3001
,
0010
0001
0010
0000
0000
0000
0001
0000
,
1000
0010
1000
0000
0000
0000
0010
0000
,
0100
0001
0100
0000
0000
0000
0001
0000
,
1000
0100
1000
0000
0000
0000
0100
0010
,
0001
1000
0001
0000
1000
0001
1000
0000
,
0001
0010
0100
0000
1000
0010
0100
0000
,
0001
0100
0010
0000
1000
0100
0010
0000
,
0001
0100
0001
0000
1000
0100
1000
0001
,
0100
0001
1000
0100
0010
0001
1000
0010
,
0100
0001
1000
0100
0010
0100
1000
0001
,
0100
0010
0100
0001
1000
0001
1000
0001
,
1001
0000
0000
1000
,
0010
1000
0010
0000
0100
0001
0100
0000
,
0001
0010
0001
1000
0010
1000
0001
0000
,
1000
0010
0100
0001
0010
0000
0100
1000
,
0010
0000
0100
0001
0010
0001
1000
0010
,
1000
0100
0010
0001
1000
0010
0100
0001
,
1000
0100
1000
0000
0001
0100
0001
1000
,
0100
1000
0100
0010
0001
0000
0100
0010
,
1000
0001
0100
0001
1000
0100
0010
0001
,
0010
0001
0010
0000
0100
1000
0100
0000
,
1000
0010
1000
0001
0010
0001
1000
0000
,
0001
0010
0100
1000
0010
0000
0100
0001
,
0010
0000
0100
1000
0010
1000
0001
0010
,
0001
0100
0010
1000
0001
0010
0100
1000
,
0001
0100
0001
0000
1000
0100
1000
0001
,
0100
0001
0100
0010
1000
0000
0100
0010
,
0001
1000
0100
1000
0001
0100
0010
1000
,
0001
0100
0001
1000
0010
1000
0100
1000
,
0100
1000
0010
0100
0001
0010
0001
1000
,
0100
1000
0010
1000
0001
0100
0001
0010
,
0001
0100
0001
1000
0100
1000
0001
0100
,
0001
1000
0010
0100
0010
1000
0100
0010
,
0100
1000
0001
0100
0010
0100
0001
0010
,
0100
1000
0010
0100
0001
1000
0100
0010
,
0001
1000
0001
0000
1000
0000
1001
0000
;

//--------------- dance-single - Evergreen ----------------
#NOTES:
     dance-single:
     Evergreen:
     Hard:
     14:
     0,0,0,0,0:
0000
0000
0000
0000
,
0000
0000
0000
0000
,
0000
0000
0000
0000
,
0000
0000
0000
0000
,
1000
0000
0000
1000
0000
0000
0001
0000
0000
0001
0000
0000
0100
0000
0000
0100
,
0000
0000
0010
0000
0000
0010
0000
0000
1000
0000
0000
0100
0000
0000
0010
0000
,
0001
0010
0001
0010
0100
1000
0100
1000
0010
1000
0010
1000
0001
0100
0001
0100
,
0001
0000
0000
0000
0000
0000
1010
0010
,
1000
0000
0001
1000
0001
0000
1000
0000
0100
0000
0010
0000
0001
0010
0001
0010
,
0001
0000
0010
0000
0100
0000
0000
0000
0010
0100
0000
0000
1000
0100
0000
0000
,
1000
0000
0010
1000
0001
0000
0010
0000
0001
0000
0100
0000
0001
0000
0000
0000
,
1000
0001
0010
0100
,
1000
0100
1000
0100
1000
0000
0001
0000
0100
0000
0001
0000
0100
0001
0100
0001
,
0100
0000
0001
0000
0010
0000
0000
0001
0010
0000
0001
1000
0000
0010
1000
0010
,
1000
0000
0010
0100
0000
0001
0100
0000
0001
0000
0010
0000
0001
0000
0010
0000
,
0100
1000
0001
1000
0100
0010
0001
1000
,
1001
0000
0001
1000
0001
0100
0101
0000
,
1000
0001
0010
0001
0011
0000
1010
0000
,
1100
1000
0100
0020
0000
0031
1000
0020
,
0000
0130
0001
1000
0100
0010
0001
1000
,
0010
1000
0010
1000
0010
0000
0100
0001
0000
0000
1000
0001
1000
0000
0001
0000
,
1000
0100
1000
0000
0001
0000
0010
0001
0010
0000
0001
0000
1000
0000
0001
0010
,
0001
0000
0100
0000
0010
0000
1000
0010
1000
0000
0001
0000
0010
0000
0100
1000
,
0100
0000
1000
0001
0100
0000
0010
0000
1000
0000
0000
0001
0100
0000
0001
0000
,
1000
0000
0100
0000
0010
0000
0100
0000
1000
0000
0010
1000
0010
0000
0100
0000
,
0001
0000
0010
0000
0000
0100
0000
0000
1000
0000
0000
0001
0000
0000
0100
0000
,
0001
1000
0010
1000
1010
0000
0001
0010
,
0011
0000
0001
1000
1001
0000
0001
1000
,
0010
1000
0001
0100
1000
0100
0001
1000
,
0100
0000
0010
0000
0000
0001
0000
0000
1000
0000
0000
0010
0000
0000
0100
0000
,
0001
1000
0010
1000
1010
0000
0010
0100
,
0110
0000
0000
0000
0001
0000
1000
0000
1001
0000
0001
0000
1000
0000
0001
0100
,
0001
0000
0010
0000
0100
0000
0010
0000
0001
0000
0010
0001
0010
0000
0100
0000
,
1000
0000
0010
0000
0000
0100
0000
0000
0001
0000
0000
1000
0000
0000
0100
0000
,
1000
0001
0010
0001
0011
0000
1000
0010
,
1010
0000
1000
0001
1001
0000
1000
0001
,
0010
0001
1000
0100
0001
0100
1000
0001
,
0100
0000
0010
0000
0000
1000
0000
0000
0001
0000
0000
0010
0000
0000
0100
0000
,
1000
0001
0010
0001
0011
0000
0010
0100
,
1000
0000
0010
1000
0010
1000
0001
0100
0001
0000
1000
0100
1000
0000
0001
1000
,
0001
0000
0000
0001
0000
0000
1000
0000
0000
1000
0000
0000
0100
0000
0100
0000
,
0010
0000
0000
0010
0000
0000
0001
0000
0000
0001
0000
0000
1000
0000
1000
0000
,
0010
0000
0000
0010
0000
0000
0100
0000
0000
0100
0000
0000
0001
0000
0001
0000
,
0010
0000
0000
0010
0000
0000
0100
0000
0000
0100
0000
0000
1000
0000
0001
0000
,
1000
0000
0000
1000
0000
0000
0001
0000
0000
0001
0000
0000
0100
0000
0100
0000
,
0010
0000
0000
0010
0000
0000
1000
0000
0000
1000
0000
0000
0001
0000
0001
0000
,
0010
0000
0000
0010
0000
0000
0100
0000
0000
0100
0000
0000
1000
0000
1000
0000
,
0010
0000
0000
0010
0000
0000
0100
0000
0000
0100
0000
0000
0001
0000
1000
0000
,
0001
0000
0010
0001
0010
0000
0001
0000
1000
0000
0010
1000
0010
0000
1000
0000
,
0001
0000
1000
0100
1000
0000
0001
0000
1000
0000
0001
0100
0001
0000
1000
0000
,
0001
0000
0010
0100
0010
0000
0001
0000
1000
0000
0010
0100
0010
0000
1000
0000
,
0001
0000
0100
0010
0100
0000
0001
0000
1000
0000
0100
0010
0100
0000
1000
0000
,
0001
0010
0001
0010
0001
0000
1000
0000
0010
0000
1000
0000
0001
0000
0100
0000
,
0010
1000
0010
1000
0010
0000
0100
0000
0001
0000
1000
0000
0100
0000
0010
0000
,
0001
0010
0001
0010
0100
1000
0100
1000
0001
0100
0001
0100
0010
1000
0010
1000
,
0001
1000
0001
1001
,
1000
0000
0010
1000
0010
0000
1000
0000
0001
0000
0010
0001
0010
0000
0001
0000
,
1000
0000
0001
0000
0000
0100
0000
0000
0010
0000
0000
1000
0000
0000
0001
1000
,
0001
0010
0100
1000
1100
0000
0001
0100
,
0101
0000
0001
0000
1000
0000
0100
0000
1100
0000
1000
0000
0001
0000
0100
0001
,
0100
0000
0010
0000
1000
0000
0100
0000
0001
0000
0100
0000
1000
0000
0001
0010
,
0001
0000
1000
0000
0000
0010
0000
0000
0100
0000
0000
0001
0000
0000
1000
0100
,
1000
0001
0010
0001
0011
0000
1000
0010
,
1010
0000
1000
0000
0001
0000
0100
0000
0101
0000
0001
0000
1000
0000
0010
1000
,
0001
0000
0010
0001
0010
0000
0001
0000
1000
0000
0010
1000
0010
0000
1000
0000
,
0001
0000
1000
0000
0000
0100
0000
0000
0010
0000
0000
0001
0000
0000
1000
0001
,
1000
0010
0100
0001
0101
0000
1000
0100
,
1100
0000
1000
0000
0001
0000
0100
0000
0101
0000
0001
0000
1000
0000
0100
1000
,
0100
0000
0010
0000
0001
0000
0100
0000
1000
0000
0100
0000
0001
0000
1000
0010
,
1000
0000
0001
0000
0000
0010
0000
0000
0100
0000
0000
1000
0000
0000
0001
0100
,
0001
1000
0010
1000
1010
0000
0001
0010
,
0011
0000
0001
0000
1000
0000
0100
0000
1000
0000
0010
0000
1000
0000
0001
0010
,
0001
0000
1000
0000
0010
0000
0100
0000
0010
0000
1000
0000
0001
0000
0010
0100
,
0010
0000
0001
0000
0010
0000
0100
0000
1000
0000
0001
0000
0100
0000
0010
1000
,
0001
0010
0100
1000
0010
0100
0001
0010
,
0100
0000
1000
0100
1000
0000
0001
0000
0100
0001
0100
0000
0001
0100
0010
1000
,
0001
0000
0010
0001
0010
0000
0100
0000
1000
0100
1000
0000
0001
0000
0100
0000
,
0010
0000
1000
0010
1000
0000
0001
0000
0100
0001
0100
0000
0001
0000
0010
0000
,
0100
0000
1000
0010
1000
0000
0001
0000
1000
0100
1000
0000
0001
0000
1000
0000
,
0100
0000
1000
0100
1000
0000
0001
0100
0001
1000
0100
1000
0020
0000
0000
0000
,
0030
0000
0000
0000
;

//--------------- dance-single - Evergreen ----------------
#NOTES:
     dance-single:
     Evergreen:
     Challenge:
     16:
     0,0,0,0,0:
0000
0000
0000
0000
,
0000
0000
0000
0000
,
0000
0000
0000
0000
,
0000
0000
0000
0000
,
1000
0000
0000
1000
0000
0000
0001
0000
0000
0001
0000
0000
0100
0000
0000
0100
,
0000
0000
0010
0000
0000
0010
0000
0000
1000
0000
0000
0100
0000
0000
0010
0000
,
0001
0010
0001
0010
0100
1000
0100
1000
0010
1000
0010
1000
0001
0100
0001
0100
,
0001
0000
0000
0000
0000
0000
1010
0010
,
1000
0000
0001
1000
0001
0000
0010
0000
0100
0000
1000
0000
0100
1000
0100
1000
,
0100
0000
1000
0000
0001
0000
1000
0000
0010
0100
0000
0000
0001
0010
0100
1000
,
0100
0000
1000
0010
1000
0000
0001
0000
0100
0000
0001
0000
0010
0001
0010
0000
,
0001
0000
1000
0000
0010
1000
0001
0100
,
0010
1000
0010
1000
0010
0000
1000
0000
0100
0000
0010
0000
0001
0010
0001
0010
,
0001
0000
0100
0000
0010
0000
0000
1000
0010
0000
1000
0010
1000
0010
1000
0001
,
0100
0000
0001
1000
0000
0010
1000
0001
0010
0000
0001
1000
0100
0000
0010
0000
,
0001
0000
1000
0000
0100
0000
1000
0000
0001
0000
0100
0001
0100
0000
0001
0000
,
0101
0000
0100
0001
1000
0100
1100
0000
,
1000
0001
0010
0001
0011
0000
1010
0000
,
1000
0000
0010
1000
0010
0000
0100
0000
0001
0000
0010
0001
0010
0000
0001
0000
,
1000
0000
0010
0000
0100
0000
0001
0000
1000
0001
1000
0000
0100
0000
0010
0000
,
0001
0010
0001
0000
1000
0010
0100
0001
0100
0000
0001
0010
0100
0000
1000
0000
,
0001
0100
0010
0000
1000
0000
0001
0010
0100
0000
1000
0000
0100
0000
1000
0100
,
1000
0000
0001
0000
1001
0000
1000
0010
1000
0000
0010
0000
0110
0000
0100
0001
,
0100
0000
0001
0010
0001
0000
0010
0000
0100
0000
0000
1000
0001
0000
0100
0000
,
0001
0000
0010
0001
0010
0000
0001
0000
1000
0000
0010
1000
0010
0000
1000
0010
,
0000
1000
0001
0000
0010
0001
0000
0010
0100
1000
0001
0100
0010
1000
0001
0010
,
0100
1000
0001
0100
0101
0001
1000
0010
,
1010
0000
1000
0000
0100
0000
1000
0000
1100
0000
0100
0000
1000
0100
1000
0001
,
0100
0000
0001
0010
0001
0000
0010
0000
0001
0000
1000
0010
1000
0000
0001
0010
,
0000
0100
1000
0000
0010
1000
0000
0010
0100
0001
0010
0100
1000
0001
0100
0010
,
1000
0100
1000
0100
1100
1000
0001
0010
,
0011
0000
0001
0000
0100
0000
0001
0000
0101
0000
0100
0000
0001
1000
0001
0010
,
0001
0000
1000
0010
1000
0000
0001
0000
1000
0000
0100
0010
0100
0000
1000
0100
,
0000
1000
0001
0000
0100
0001
0000
0100
0010
1000
0001
0010
0100
1000
0001
0100
,
0010
1000
0001
0010
0011
0001
1000
0100
,
1100
0000
1000
0000
0010
0000
1000
0000
1010
0000
0010
0000
1000
0010
1000
0001
,
0010
0000
0001
0100
0001
0000
0010
0000
0100
0000
1000
0010
1000
0000
0001
0100
,
0000
0010
1000
0000
0100
1000
0000
0100
0010
0001
0100
0010
1000
0001
0010
0100
,
1000
0001
1000
0010
1010
1000
0001
0100
,
0101
0000
0001
0010
0100
1000
0001
0100
0010
1000
0010
1000
0001
0010
0100
1000
,
0001
0000
0000
0001
0000
0000
1000
0000
0000
1000
0000
0000
0001
0000
0100
0000
,
0010
0000
0000
0010
0000
0000
1000
0000
0000
1000
0000
0000
0100
0000
0010
0000
,
0001
0000
0000
0001
0000
0000
0010
0000
0000
0010
0000
0000
0001
0000
0100
0000
,
0010
0000
0000
0010
0000
0000
1000
0000
0000
1000
0000
0000
0100
0000
0010
0000
,
0001
0000
0000
0001
0000
0000
0010
0000
0000
0010
0000
0000
0100
0000
1000
0000
,
0100
0000
0000
0100
0000
0000
1000
0000
0000
1000
0000
0000
0010
0000
1000
0000
,
0010
0000
0000
0010
0000
0000
0100
0000
0000
0100
0000
0000
0001
0000
0010
0000
,
0001
0000
0000
0010
0000
0000
0100
0000
0000
1000
0000
0000
0001
0000
1000
0001
,
0010
0001
0010
0001
1000
0100
1000
0100
1000
0001
1000
0001
0100
0001
0100
0001
,
1000
0010
1000
0010
0100
0010
0100
0010
0100
0001
0100
0001
1000
0001
1000
0001
,
0010
0100
0010
0100
1000
0001
1000
0001
0100
0010
0100
0010
1000
0010
1000
0010
,
1000
0001
1000
0001
0010
0001
0010
0001
0010
0100
0010
0100
1000
0100
1000
0100
,
1000
0001
0100
0010
1000
0001
0010
0100
1000
0100
0010
0100
1000
0001
0100
0001
,
1000
0100
0010
0001
1000
0010
0100
0001
0100
0010
0100
0001
1000
0100
1000
0001
,
0010
0100
1000
0001
0100
0010
0100
0001
1000
0100
0010
0100
1000
0001
0100
0001
,
1000
0001
1000
1001
,
0001
0010
0100
0010
0100
0000
1000
0100
1000
0000
0001
0100
0001
1000
0100
1000
,
0001
0000
0100
0010
1000
0010
0100
0000
0001
0010
0100
0010
0001
0000
1000
0100
,
1000
0000
0001
0100
0010
0000
1000
0000
1010
0000
0010
1000
0001
0000
0010
0000
,
0011
0000
0001
0010
0100
1000
0001
0100
0010
0000
1000
0000
0100
0000
1000
0010
,
1000
0000
0001
0010
0001
0000
1000
0010
1000
0000
0001
0100
0010
0100
0001
1000
,
0100
0000
1000
0100
1000
0001
0100
0000
0001
0100
0001
1000
0010
0000
1000
0010
,
1000
0000
0001
0100
0001
0000
0100
0000
0101
0000
0001
0100
0001
0000
1000
0000
,
1001
0000
0001
1000
0010
0000
1000
0000
1010
0000
0010
0000
1000
0000
0100
0010
,
0001
0100
0010
1000
0010
0000
1000
0010
1000
0000
0001
0010
0001
1000
0010
1000
,
0001
0000
0010
0100
1000
0100
0010
0000
0001
0100
0010
0100
0001
0000
1000
0010
,
1000
0000
0001
0010
0100
0000
1000
0000
1100
0000
0100
1000
0001
0000
0100
0000
,
0101
0000
0001
0100
0010
1000
0001
0010
0100
0000
1000
0000
0010
1000
0010
1000
,
0100
0000
1000
0100
1000
0000
0001
0100
0001
0000
1000
0010
0100
0010
1000
0001
,
0010
0000
0001
0010
0001
1000
0010
0000
1000
0010
1000
0001
0100
0000
0001
0100
,
0001
0000
1000
0010
1000
0000
0010
0000
1010
0000
1000
0010
1000
0000
0001
0000
,
1001
0000
1000
0001
0100
0000
0001
0000
0101
0000
0100
0001
1000
0100
0010
0001
,
1000
0000
0100
1000
0100
0000
1000
0000
0001
0100
0001
0000
1000
0100
1000
0010
,
1000
0000
0001
0010
0001
0000
1000
0000
0001
0010
0100
1000
0001
0100
0010
1000
,
0001
0000
0100
0001
0100
0000
0001
0000
1000
0100
1000
0000
0001
0010
0100
0010
,
0001
0000
1000
0100
1000
0000
0001
0100
0010
1000
0001
0010
0100
1000
0001
0100
,
0001
0000
0010
0100
0010
0000
0001
0000
0100
0010
0100
0000
0001
0010
0100
1000
,
0010
0000
1000
0010
1000
0000
0001
0000
1000
0100
1000
0000
0001
0010
0100
0010
,
0001
0000
1000
0010
0100
0010
1000
0000
0001
0010
0100
1000
0001
0100
0010
1000
,
0001
0000
1000
0100
1000
0000
0001
0010
0100
1000
0001
0100
0002
0000
0000
0000
,
0003
0000
0000
0000
;
