#TITLE:Rain;
#SUBTITLE:[Nhato Remix];
#ARTIST:nouvo nude feat. Mayu Wakisaka;
#TITLETRANSLIT:;
#SUBTITLETRANSLIT:;
#ARTISTTRANSLIT:;
#GENRE:;
#CREDIT:;
#BANNER:Rain [Nhato Remix]-bn.png;
#BACKGROUND:Rain [Nhato Remix]-bg.png;
#LYRICSPATH:;
#CDTITLE:;
#MUSIC:Rain [Nhato Remix].ogg;
#OFFSET:-0.005000;
#SAMPLESTART:16.389999;
#SAMPLELENGTH:11.250000;
#SELECTABLE:YES;
#BPMS:0.000000=128.000000
;
#STOPS:204.000000=1.875000
;
#BGCHANGES:;
#KEYSOUNDS:;
#ATTACKS:;

//---------------dance-single - ----------------
#NOTES:
     dance-single:
     :
     Beginner:
     3:
     0.117170,0.180094,0.015475,0.131540,0.000000,106.000000,104.000000,2.000000,17.000000,0.000000,0.000000,0.117170,0.180094,0.015475,0.131540,0.000000,106.000000,104.000000,2.000000,17.000000,0.000000,0.000000:
0000
0000
0000
0000
,
0000
0000
0000
0000
,
0000
0000
0000
0000
,
0000
0000
0000
0000
,
0000
0000
0000
0000
,
1000
0000
1000
0000
,
0001
0000
0001
0000
,
1000
0000
0001
0000
,
0100
0000
0010
0000
,
2000
0000
3000
0000
,
0200
0000
0300
0000
,
1000
0000
0001
0000
,
1000
0000
0000
0000
,
0002
0000
0003
0000
,
0200
0000
0300
0000
,
0001
0000
1000
0000
,
0002
0000
0003
0000
,
2002
0000
0000
3003
,
0000
0000
0000
0000
,
1000
0000
0100
0000
,
0010
0000
0001
0000
,
1000
0000
0100
0000
,
0010
0000
0010
0000
,
0001
0000
0100
0000
,
0010
0000
1000
0000
,
0001
0000
0001
0000
,
1000
0000
0001
0000
,
1000
0000
1000
0000
,
0010
0000
1000
0000
,
0001
0000
0000
0000
,
0001
0000
0000
0000
,
0001
0000
0001
0000
,
0010
0000
0001
0000
,
1000
0000
0000
0000
,
1000
0000
0000
0000
,
1000
0000
0100
0000
,
0010
0000
0001
0000
,
0100
0000
0010
0000
,
1000
0000
1000
0000
,
0001
0000
0010
0000
,
0100
0000
1000
0000
,
0010
0000
0100
0000
,
0001
0000
0001
0000
,
2000
0000
3000
0000
,
0002
0000
0003
0000
,
0200
0000
0300
0000
,
0200
0000
0300
0000
,
0002
0000
0003
0000
,
2000
0000
3000
0000
,
0100
0000
0100
0000
,
1000
0000
0001
0000
,
2002
0000
3003
0000
,
1000
0000
1000
0000
,
0010
0000
0010
0000
,
0100
0000
0100
0000
,
0001
0000
0001
0000
,
2000
0000
3000
0000
,
0001
0000
1000
0000
,
0001
0000
0100
0000
,
0010
0000
1000
0000
,
0001
0000
0100
0000
,
0010
0000
0010
0000
,
1000
0000
0100
0000
,
0010
0000
0001
0000
,
0100
0000
0010
0000
,
1000
1000
0001
0001
,
0020
0000
0030
0000
;

//---------------dance-single - ----------------
#NOTES:
     dance-single:
     :
     Easy:
     6:
     0.228814,0.334460,0.116065,0.348195,0.000000,207.000000,192.000000,15.000000,45.000000,0.000000,0.000000,0.228814,0.334460,0.116065,0.348195,0.000000,207.000000,192.000000,15.000000,45.000000,0.000000,0.000000:
0000
0000
0000
0000
,
0000
0000
0000
0000
,
0000
0000
0000
0000
,
0000
0000
0000
0000
,
0000
0000
0000
0000
,
1000
0100
0010
0100
,
1000
0010
0100
0100
,
0001
0010
0100
0010
,
0001
0100
0010
1000
,
0002
0000
0003
0000
,
2000
0000
3000
0000
,
0002
0000
0023
0000
,
0230
2300
3200
0300
,
2000
0000
3000
0000
,
0002
0000
0003
0000
,
2000
0000
3020
0000
,
0230
0302
0203
0000
,
0020
0000
0000
0330
,
0100
0010
1000
0001
,
1001
1000
0100
1000
,
0001
1000
0010
0100
,
1001
0001
0010
0001
,
0100
0002
2003
3100
,
0110
0010
0001
0100
,
0010
1000
0100
0010
,
0110
0110
1001
1001
,
1000
0010
0100
0001
,
1000
0100
0010
0100
,
1000
0010
0100
0001
,
0010
0100
0010
0100
,
2000
3000
1000
1000
,
0001
0100
0010
0100
,
0001
1000
0100
0010
,
0001
0100
1000
0100
,
0002
0003
2000
3000
,
0010
0010
0100
0001
,
0010
0010
0100
1000
,
0001
0001
1000
0100
,
0010
0001
0200
0300
,
0010
0010
1000
0001
,
0010
0010
0001
1000
,
0100
0001
0100
1000
,
0010
0100
0001
0000
,
2000
0000
3000
0000
,
0002
0000
0003
0000
,
2000
0000
3020
0000
,
0230
0302
0203
0300
,
0002
0000
0003
0000
,
2000
0000
3000
0000
,
0002
0000
2003
0000
,
3020
0230
0320
0030
,
2002
0000
0000
3003
,
1001
1000
0100
0000
,
0010
0001
0100
0000
,
0001
1000
1001
0000
,
1000
0001
0100
0010
,
2000
0000
3000
0000
,
1000
0001
0100
0010
,
1010
1000
0100
0001
,
0100
1000
0001
0100
,
0101
0001
0010
1000
,
0010
0002
2003
3001
,
0011
0001
0010
1000
,
0001
0100
1000
0010
,
1010
2000
3002
2003
,
3001
0010
0100
1000
,
2002
0000
3003
0000
;

//---------------dance-single - ----------------
#NOTES:
     dance-single:
     :
     Medium:
     9:
     0.354827,0.437371,0.185704,0.541636,0.015475,321.000000,297.000000,24.000000,70.000000,0.000000,0.000000,0.354827,0.437371,0.185704,0.541636,0.015475,321.000000,297.000000,24.000000,70.000000,0.000000,0.000000:
0000
0000
0000
0000
,
0000
0000
0000
0000
,
0000
0000
0000
0000
,
0000
0000
0000
0000
,
0000
0000
0000
0000
,
1000
0000
1000
0000
0001
0100
0001
0000
,
0010
0000
0100
0000
1000
1000
1000
0000
,
0001
0000
0001
0000
1000
0010
1000
0000
,
0100
0000
0010
0000
0001
1000
0001
0000
,
2000
0100
0002
3003
,
0002
0010
2000
3003
,
1002
0100
0020
0033
,
2001
0100
0020
3030
,
1020
0100
2000
3030
,
0201
0010
0002
0303
,
2001
0100
3002
0100
,
2003
0000
0002
3003
,
0220
0000
0000
0330
,
0010
0100
0010
0100
0001
1000
0001
1000
,
2002
3003
1000
0100
1000
0001
1000
0010
,
0100
0001
0100
0010
1000
0100
0020
0030
,
1001
0000
0001
0100
0001
1000
0001
0010
,
0100
1000
0020
0000
0230
0000
0301
0000
,
2002
3003
1000
0010
1000
0001
1000
0100
,
0010
0001
1000
0001
0100
0010
1000
0000
,
2002
3003
0002
0003
0002
0003
0002
0003
,
0001
0010
0001
0010
0100
1000
0100
1000
,
0002
0000
0103
0001
1000
0000
0100
0000
,
0010
0000
0100
1000
0000
1000
0001
0000
,
0100
0000
0100
0000
0010
1000
0010
0000
,
0100
0000
0001
0000
0010
0100
0100
0000
,
1000
0000
0100
1000
0001
0000
0100
0000
,
0010
0000
0100
0001
0000
0001
1000
0000
,
0100
0000
0100
0000
0010
0001
0010
0000
,
0100
0000
1000
0000
0001
0100
0010
0000
,
1000
0000
0001
1000
0000
1000
0001
0000
,
0100
0000
0010
1000
0000
1000
0010
0000
,
1000
0000
0100
0010
0000
0001
1000
0000
,
0001
0000
0100
0001
0000
0001
0100
0000
,
0001
0000
1000
0001
0000
0001
1000
0000
,
0010
0000
1000
0100
1000
0000
0010
0000
,
0100
0001
0010
0000
0100
1000
0010
0000
,
0010
1000
0100
0000
0010
0001
0100
0000
,
0102
1000
0020
0033
,
2100
0001
0020
3030
,
1002
1000
0100
0100
,
0010
1000
0020
0033
,
0012
1000
0200
0303
,
2010
0001
0200
3300
,
2100
3020
0230
0302
,
2003
3002
2000
3003
,
0220
0000
0000
0330
,
1010
0000
1000
0100
0010
0000
0001
0000
,
0100
0000
0000
0100
0000
0000
0100
0000
0010
0000
0000
0000
1000
0000
0000
0000
,
0001
0010
1000
0010
,
0001
0000
0000
0100
0000
0000
0001
0000
1000
0000
0000
0100
0000
0000
1000
0000
,
2002
0000
0000
0000
0000
0000
0000
0000
3003
0000
0000
0002
0000
0000
0003
0000
,
1000
0001
1000
0001
0100
0010
0100
0010
,
2020
3030
1000
0010
0100
0010
1000
0001
,
1000
0100
0010
0100
1000
0001
0200
0300
,
0202
0303
0001
0100
0010
0100
0001
0010
,
0100
1000
0020
0000
2030
0000
3001
0000
,
2002
3003
1000
0100
0010
0001
0010
0100
,
1000
0010
0100
0001
0100
0010
2000
3000
,
2002
3003
2000
0000
3002
0000
2003
0000
,
3001
0010
0100
1000
0010
0100
0001
1000
,
2002
0000
3003
0000
;

//---------------dance-single - ----------------
#NOTES:
     dance-single:
     :
     Hard:
     12:
     0.456522,0.566010,0.185704,0.719603,0.150884,413.000000,389.000000,24.000000,93.000000,0.000000,0.000000,0.456522,0.566010,0.185704,0.719603,0.150884,413.000000,389.000000,24.000000,93.000000,0.000000,0.000000:
0000
0000
0000
0000
,
0000
0000
0000
0000
,
0000
0000
0000
0000
,
0000
0000
0000
0000
,
0000
0000
0000
0000
,
1000
0100
1000
0000
0001
0010
0001
0000
,
1000
0010
1000
0001
0100
0001
0010
0000
,
0001
0100
0001
0000
1000
0010
1000
0000
,
0001
0010
0001
1000
0010
1000
0100
0010
,
0001
0000
0000
0001
0000
0000
0002
0000
0000
0000
0000
0000
0103
0000
0010
0000
,
1000
0000
0000
1000
0000
0000
0100
0000
0020
0000
0000
0000
0031
0000
1000
0000
,
0200
0000
1300
0020
0000
0130
0002
0000
,
0023
0000
1030
0020
0000
0031
0100
0010
,
1000
0000
0000
1000
0000
0000
2000
0000
0000
0000
0000
0000
3100
0000
1000
0000
,
0010
0000
0000
0010
0000
0000
0100
0000
0002
0000
0000
0000
0010
0000
0000
0000
,
1003
0100
1000
0001
1000
0010
0100
0001
,
0020
0000
0100
0200
0000
0000
0330
0000
,
2002
0000
0000
3003
,
1000
0100
1000
0001
1000
0010
0100
0001
,
2002
3003
1000
0100
0010
0100
0001
0100
,
0010
0001
0010
1000
0010
0100
0220
0330
,
2002
3003
0001
0010
1000
0010
0001
0100
,
0010
1000
0002
0000
2003
0000
0002
3003
,
2020
3030
1000
0010
0100
0010
0001
0010
,
0100
0001
0100
1000
0100
0010
0220
0330
,
2002
3003
2000
3000
0002
0003
2000
3000
,
0001
0100
0001
0010
0100
1000
0001
1000
,
2002
3003
1000
0001
0010
1000
0010
0000
,
0002
0000
0103
0020
0000
1030
0100
0010
,
0001
0100
0001
0000
1000
0000
0100
0000
0010
0100
0000
1000
0000
0000
0001
0000
,
0100
0000
0010
0000
1000
0000
0000
1000
0100
0000
0010
0000
0010
0000
0001
0000
,
0200
0000
0301
1000
0010
0001
0020
0000
,
2030
0000
3100
0020
0000
0031
0100
0010
,
1000
0100
1000
0000
0001
0000
0100
0000
0010
0100
0000
0001
0000
0000
0010
0000
,
0001
0000
1000
0000
0001
2000
0000
0000
3010
0000
0000
0100
0010
0000
1000
0001
,
2000
0000
3100
2000
0000
3001
0020
0000
,
0032
0000
1003
0002
0000
0103
0020
0000
,
2030
0000
3100
0002
0000
0103
1000
0001
,
2000
0000
3001
0020
0000
1030
0010
0001
,
2000
0000
3010
0002
0000
0013
2000
0000
,
3001
0010
1000
0010
0001
0100
0010
0000
,
1000
0100
1000
0100
0010
0001
0010
0001
,
0100
0000
1000
0000
0100
0000
0001
0000
1000
0000
1000
0000
0001
0000
1000
0001
,
2000
0000
0000
0100
0000
0000
0001
0000
0000
0000
0000
0000
3001
0000
1000
0000
,
0002
0000
0000
0100
0000
0000
1003
0000
2000
0000
0000
0000
3001
0000
1000
0000
,
0200
0000
0010
2000
0000
3300
1000
0001
,
0200
0000
0010
0002
0000
0303
0001
0010
,
0002
0000
0000
0100
0000
0000
2000
0000
0000
0000
3003
0000
1000
0000
0010
0000
,
2000
0000
0000
0100
0000
0000
0001
0000
3002
0000
0000
0000
1003
0000
0000
0000
,
1000
0100
0010
0001
1000
0010
0100
0001
,
2000
0000
3200
0020
0000
0000
0330
0000
,
2002
0000
0000
3003
,
1001
0000
0000
0000
1000
0000
0010
0100
0001
0000
0010
0000
0100
0000
1000
0000
,
0001
0000
0000
0001
0000
0000
0001
0000
0010
0000
0001
0000
0100
0000
0010
1000
,
0010
0000
0000
1000
0000
0000
0100
0000
0010
0000
0001
0000
0100
0000
0010
0000
,
1000
0000
0000
0001
0000
0000
0100
0001
1000
0000
0000
0100
0000
0000
0010
0000
,
0002
0000
0000
0000
0000
0000
0000
0000
0003
0000
0000
2000
0000
0000
3000
0000
,
1000
0010
1000
0000
0001
0100
0001
0000
1000
0001
1000
0001
1000
0000
0001
0000
,
2002
0000
3003
0000
1000
0100
1000
0000
0010
0000
0001
0000
0010
0000
1000
0000
,
0001
0000
0010
0000
0001
0100
0001
0000
1000
0100
1000
0000
2002
0000
3003
0000
,
0220
0000
0330
0000
0010
1000
0010
0000
0100
0000
0001
0000
0010
0000
1000
0000
,
0010
0001
0102
0000
2003
0000
0020
3030
,
2002
0000
3003
0000
1000
0001
0100
0000
0010
0000
1000
0000
0100
0000
0001
0000
,
0100
1000
0100
0000
1000
0001
1000
0000
0001
0100
0001
0000
2000
0000
3001
0000
,
2002
3003
2020
3030
0022
0033
2020
3030
,
1100
1000
1010
0010
0110
0100
0101
0000
,
2002
0000
3003
0000
;

//---------------dance-single - ----------------
#NOTES:
     dance-single:
     :
     Challenge:
     15:
     0.645542,0.771832,0.379145,0.572587,0.584193,584.000000,535.000000,49.000000,74.000000,5.000000,0.000000,0.645542,0.771832,0.379145,0.572587,0.584193,584.000000,535.000000,49.000000,74.000000,5.000000,0.000000:
// measure 0
0000
0000
0000
0000
,  // measure 1
0000
0000
0000
0000
,  // measure 2
0000
0000
0000
0000
,  // measure 3
0000
0000
0000
0000
,  // measure 4
0000
0000
0000
0000
,  // measure 5
1000
0001
0100
0001
1000
0100
0010
0001
,  // measure 6
0100
0000
0010
0000
0100
0001
0000
0001
0010
0000
0100
0000
0100
0000
1000
0000
,  // measure 7
0001
1000
0010
1000
0001
0010
0100
1000
,  // measure 8
0001
0100
0001
0100
0010
1000
0010
1000
0100
0010
0001
1000
0010
0100
0001
0010
,  // measure 9
0001
0000
0000
0101
0000
0000
0011
0000
0000
0000
0001
0000
0100
0000
0010
0000
,  // measure 10
1010
0000
0000
0110
0000
0000
0010
0000
0200
0000
0000
0000
0301
0000
1000
0000
,  // measure 11
0002
0000
1000
0000
0013
0001
0100
0000
,  // measure 12
0020
0000
0000
0000
1030
0000
0200
0000
0000
0000
0310
0000
0001
0000
1000
0100
,  // measure 13
1000
0000
0000
1001
0000
0000
1010
0000
0000
0000
0010
0000
1000
0000
0100
0000
,  // measure 14
0110
0000
0000
0011
0000
0000
0001
0000
0100
0000
0010
0000
2000
0000
0000
0000
,  // measure 15
3002
0000
0010
0000
1003
0100
0010
0001
,  // measure 16
0012
0000
1003
2010
0000
0000
3001
0000
,  // measure 17
0220
0000
0000
0330
,  // measure 18
1100
0001
0101
1000
1010
0001
0011
1000
,  // measure 19
2002
0000
3003
0000
1000
0100
0010
0100
1000
0010
0100
0010
1000
0001
0010
0001
,  // measure 20
1000
0100
0010
0100
1000
0010
0100
0010
1000
0100
0010
0001
0200
0000
0300
0000
,  // measure 21
0202
0000
0303
0000
0001
0100
0010
0100
0001
0010
0100
0010
0001
1000
0010
1000
,  // measure 22
0001
0010
0100
1000
0002
0000
0010
0000
2003
0000
0100
0000
0002
0000
3003
0000
,  // measure 23
0022
0000
0033
0000
0001
0010
0100
1000
0001
0100
0010
1000
0001
1000
0010
0100
,  // measure 24
0001
0010
0100
1000
0001
0100
0010
1000
0100
0010
0001
0100
0020
0000
0030
0000
,  // measure 25
2020
3030
1010
0001
0011
1000
1100
0001
,  // measure 26
0101
0010
1100
0001
1010
0100
0011
1000
,  // measure 27
2001
0000
0000
0000
3100
0000
1000
0000
0001
0100
0000
0100
0010
0000
1000
0000
,  // measure 28
0001
0000
0010
0000
0100
0010
0000
0001
0000
1000
0100
0000
1000
0000
0001
0000
,  // measure 29
1000
0001
1000
0001
0100
0000
0010
0000
1000
0100
00M0
0100
0001
0000
1000
0000
,  // measure 30
0010
0000
0100
0000
0001
0010
0000
0100
0000
1000
0001
0000
1000
0000
1000
0000
,  // measure 31
0001
0100
0001
0100
0010
0000
1000
0000
0001
0010
0000
0100
1000
0000
0010
0000
,  // measure 32
1000
0000
0001
0000
0010
0100
0000
1000
0000
0001
0100
0000
0010
0000
0010
0000
,  // measure 33
1000
0100
1000
0100
0010
0000
0001
0000
1000
0010
0M00
0010
0001
0000
1000
0000
,  // measure 34
0001
0000
0100
0000
0010
2000
0000
0000
3001
0000
0001
0010
0100
0000
1000
0001
,  // measure 35
2000
0100
3001
0002
0010
1003
1000
0001
,  // measure 36
1000
0010
1000
0000
0100
0000
0010
0001
0010
0000
0100
0000
1000
0001
1000
0000
,  // measure 37
0002
0010
1003
2000
0100
3001
1000
0010
,  // measure 38
1000
0010
1000
0000
0001
0000
0010
0001
0010
0000
0001
0000
0100
00M0
0100
0000
,  // measure 39
1000
0000
0100
0000
0010
0001
0000
0001
0100
0000
0100
0010
0000
0010
1000
0000
,  // measure 40
0001
0000
0010
0000
0001
0100
0000
0100
0010
0000
0010
1000
0000
1000
0100
0000
,  // measure 41
1000
0010
1000
0000
0100
00M0
0100
0000
0001
0100
0001
0000
0010
0M00
0010
0000
,  // measure 42
1000
0010
0100
0000
0001
0000
0010
0000
1000
0000
0010
0000
0001
0000
1000
0001
,  // measure 43
2000
0000
0000
3002
0000
0000
0203
0000
0000
0000
0000
0000
1300
0000
0100
0000
,  // measure 44
0002
0000
0000
0023
0000
0000
0230
0000
2300
0000
0000
0000
3001
0000
1000
0000
,  // measure 45
0200
0000
0301
0200
0000
1300
0020
0000
,  // measure 46
0230
0000
0000
0000
0301
0000
2000
0000
0000
0000
3001
0000
0010
0000
0001
1000
,  // measure 47
0002
0000
0000
2003
0000
0000
3200
0000
0000
0000
0000
0000
1300
0000
0010
0000
,  // measure 48
0002
0000
0000
0023
0000
0000
2030
0000
3200
0000
0000
0000
0310
0000
0001
0000
,  // measure 49
0100
1000
0100
0001
0010
1000
0010
0001
,  // measure 50
0100
0010
1000
0200
0020
0000
0330
0000
,  // measure 51
2002
0000
0000
3003
,  // measure 52
1001
0000
0000
0000
0000
0000
1000
0000
0000
0001
0100
0001
0100
0000
0000
0010
0000
0000
1000
0000
0000
0001
0000
0000
,  // measure 53
0011
0000
0000
1010
0000
0010
0100
0000
0101
0000
0001
0000
1000
0000
0001
0010
,  // measure 54
0002
0000
0000
0100
0000
0000
1003
0000
1001
0000
1000
0010
0100
0000
0001
0000
,  // measure 55
0101
0000
0000
0000
0000
0000
0000
0000
0000
1100
0000
0000
0000
0000
0000
0000
0000
0000
0100
0000
1000
0000
0010
0000
0100
0000
0000
0000
0000
0000
0000
0000
0000
0101
0000
0000
0000
0000
0000
0000
0000
0000
0011
0000
0000
0000
0000
0000
,  // measure 56
0220
0000
0000
0000
0330
0000
0000
0000
0010
0100
0000
2000
0000
0000
3001
0000
,  // measure 57
1000
0100
0010
0001
1000
0010
0100
0001
0010
0100
1000
0010
0100
0010
1000
0200
,  // measure 58
2000
0000
3300
0000
0100
1000
0010
1000
0100
0010
0001
0010
0100
1000
0010
0100
,  // measure 59
0001
0010
0100
1000
0010
0001
0010
1000
0100
0010
0001
0100
0002
0000
0103
0000
,  // measure 60
0202
0000
0303
0000
0100
0001
0010
0001
0100
0010
1000
0010
0100
0001
0010
0100
,  // measure 61
1000
0100
0001
0100
2000
0000
0010
0000
3002
0000
0100
0000
2000
0000
3003
0000
,  // measure 62
2020
0000
3030
0000
0010
1000
0100
1000
0010
0100
0001
0100
0010
1000
0100
0010
,  // measure 63
0001
0100
0010
1000
0100
0001
0100
1000
0010
0100
0001
1000
0002
0000
1003
0000
,  // measure 64
2002
3003
2001
3100
1002
0103
2001
3010
,  // measure 65
1010
0100
0011
1000
0101
0010
1100
0001
,  // measure 66
2002
0000
3003
0000
;

//---------------dance-double - ----------------
#NOTES:
     dance-double:
     :
     Easy:
     4:
     0.194547,0.257277,0.046426,0.533899,0.000000,176.000000,170.000000,6.000000,69.000000,0.000000,0.000000,0.194547,0.257277,0.046426,0.533899,0.000000,176.000000,170.000000,6.000000,69.000000,0.000000,0.000000:
00000000
00000000
00000000
00000000
,
00000000
00000000
00000000
00000000
,
00000000
00000000
00000000
00000000
,
00000000
00000000
00000000
00000000
,
00000000
00000000
00000000
00000000
,
00100000
00010000
00100000
00000000
,
00001000
00010000
00000010
00000000
,
00001000
00000010
00001000
00000000
,
00000010
00010000
00001000
00000000
,
00020000
00000000
00030000
00000000
,
00002000
00000000
00003000
00000000
,
00200000
00300000
00020000
00030000
,
02000000
00000000
03000000
00000000
,
00002000
00000000
00003000
00000000
,
00020000
00000000
00030000
00000000
,
00000020
00000030
00002000
00003000
,
00000200
00000000
00000000
00000300
,
00022000
00000000
00000000
00033000
,
00010000
00001000
00100000
00010000
,
02000000
03010000
00010000
00100000
,
00100000
00001000
00001000
00020000
,
00030200
00001300
00001000
00000010
,
00000010
00000200
00000320
00002030
,
00003200
00001300
00001000
00000100
,
00000100
00010000
00010000
00002000
,
00203000
00000000
00320000
00030000
02000000
03000000
00020000
00030000
,
00100000
00001000
00010000
00001000
,
00022000
00033000
00001000
00100000
,
00020000
00030000
02000000
03000000
,
00010000
00010000
00100000
00001000
,
00020000
00030000
00002000
00003000
,
00010000
00000000
00001000
00010000
,
00000020
00000030
00002000
00003000
,
00000100
00000010
00000100
00001000
,
00000020
00000030
00000200
00000300
,
00000010
00001000
00000200
00000300
,
00000100
00010000
00002000
00003000
,
00001000
00100000
00010000
01000000
,
00020000
00030000
00020000
00030000
,
00100000
00010000
02000000
03000000
,
01000000
00001000
00020000
00030000
,
00001000
00001000
00010000
00010000
,
00000100
00001000
00000010
00000000
,
00002000
00000000
00003000
00000000
,
00000200
00000000
00000300
00000000
,
00020000
00030000
00002000
00003000
,
00020000
00030000
00002000
00003000
,
00200000
00000000
00300000
00000000
,
00020000
00000000
00030000
00000000
,
02000000
03000000
00020000
00030000
,
00100000
00001000
00020000
00030000
,
00022000
00000000
00000000
00033000
,
00011000
00000000
00001000
00100000
,
00010000
01000000
00010000
00000000
,
01000000
00001000
00010000
00000000
,
00000100
00010000
00001000
00000000
,
00022000
00000000
00033000
00000000
,
00001000
00010000
00000100
00001000
,
00000020
00001030
00001000
00000010
,
00000010
00010000
00010000
00002000
,
00203000
00310000
00010000
00100000
,
00100000
00002000
00023000
00030200
,
00002300
00003010
00001000
00000100
,
00010000
00001000
00100000
00020000
,
02030000
03200000
02300000
03200000
,
01300000
00001000
00010000
00000100
,
00002200
00000000
00003300
00000000
;

//---------------dance-double - ----------------
#NOTES:
     dance-double:
     :
     Medium:
     9:
     0.354827,0.437371,0.131540,0.502948,0.019344,321.000000,304.000000,17.000000,65.000000,0.000000,0.000000,0.354827,0.437371,0.131540,0.502948,0.019344,321.000000,304.000000,17.000000,65.000000,0.000000,0.000000:
00000000
00000000
00000000
00000000
,
00000000
00000000
00000000
00000000
,
00000000
00000000
00000000
00000000
,
00000000
00000000
00000000
00000000
,
00000000
00000000
00000000
00000000
,
00100000
00000000
00100000
00000000
00010000
01000000
00010000
00000000
,
00100000
00000000
00001000
00000000
00010000
00001000
00010000
00000000
,
00000100
00000000
00000100
00000000
00001000
00000010
00001000
00000000
,
00000100
00000000
00010000
00000000
00001000
00001000
00001000
00000000
,
00012000
00100000
00020000
00033000
,
00021000
00000100
00002000
00033000
,
00001000
00100000
00010000
01000000
,
00010000
00000000
00100000
00010000
00100000
00000000
00000000
00000000
,
00210000
00001000
00020000
00330000
,
02010000
00100000
00020000
03030000
,
00020000
00100000
02030000
00100000
,
03020000
00000000
00130000
00001000
00020000
00000000
00030000
00000000
,
00022000
00000000
00000000
00033000
,
00001000
00010000
00001000
00010000
00000100
00001000
00000100
00001000
,
00000020
00000000
00001030
00000100
00001000
00000100
00001000
00000010
,
00001000
00000100
00001000
00000100
00010000
00001000
00002000
00000000
,
00203000
00000000
00310000
01000000
00010000
01000000
00010000
00100000
,
00010000
01000000
00002000
00000000
00023000
00000000
00030200
00000000
,
00002300
00000000
00003010
00001000
00000010
00001000
00000100
00001000
,
00000100
00010000
00000100
00010000
00001000
00100000
00020000
00000000
,
02030000
00000000
03200000
00300000
00200000
00300000
00200000
00300000
,
01000000
00010000
01000000
00010000
00100000
00001000
00100000
00001000
,
00020000
00000000
00031000
00100000
00010000
00000000
01000000
00000000
,
00100000
00000000
01000000
00010000
00000000
00010000
00100000
00000000
,
00001000
00000000
00001000
00000000
00010000
00000100
00010000
00000000
,
00000010
00000000
00001000
00000000
00000100
00010000
00010000
00000000
,
00002000
00000000
00013000
00000010
00001000
00000000
00000100
00000000
,
00000010
00000000
00000100
00001000
00000000
00001000
00000010
00000000
,
00010000
00000000
00010000
00000000
00001000
01000000
00001000
00000000
,
00100000
00000000
00010000
00000000
01000000
00100000
01000000
00000000
,
00010000
00000000
00100000
00010000
00000000
00010000
00100000
00000000
,
00001000
00000000
00010000
00001000
00000000
00001000
00010000
00000000
,
00000100
00000000
00001000
00000010
00000000
00000010
00001000
00000000
,
00000100
00000000
00000010
00000100
00000000
00000100
00001000
00000000
,
00000010
00000000
00001000
00000100
00000000
00000100
00010000
00000000
,
00001000
00000000
00100000
00010000
00100000
00000000
00010000
00000000
,
01000000
00010000
01000000
00000000
00010000
01000000
00010000
00000000
,
00100000
00001000
00010000
00000000
00000100
00001000
00000100
00000000
,
00001200
00010000
00002000
00003300
,
00020100
00001000
00000200
00030300
,
00000100
00010000
00001000
00100000
,
00010000
00000000
01000000
00010000
00000000
00010000
00100000
00000000
,
00210000
00001000
00020000
00330000
,
00102000
00010000
00200000
00303000
,
00200000
00302000
00023000
00030020
,
00002030
00003200
00020300
00030000
,
00022000
00000000
00000000
00033000
,
00011000
00000000
00001000
00100000
00010000
00000000
01000000
00000000
,
00100000
00000000
00000000
00100000
00000000
00000000
00100000
00000000
01000000
00000000
00000000
00000000
00001000
00000000
00000000
00000000
,
00010000
00000000
00000000
00010000
00000000
00000000
00010000
00000000
00000100
00000000
00000000
00000000
00001000
00000000
00000000
00000000
,
00000010
00000000
00000000
00000010
00000000
00000000
00000010
00000000
00001000
00000000
00000000
00000100
00000000
00000000
00001000
00000000
,
00002200
00000000
00000000
00000000
00000000
00000000
00000000
00000000
00003300
00000000
00000000
00000200
00000000
00000000
00000300
00000000
,
00001000
00000010
00001000
00000100
00010000
00001000
00100000
00010000
,
00220000
00330000
00010000
01000000
00001000
01000000
00010000
00100000
,
00001000
00010000
00000100
00001000
00000010
00001000
00000020
00000030
,
00002020
00003030
00001000
00000100
00001000
00000010
00010000
00001000
,
00100000
00010000
02000000
00000000
03020000
00000000
00130000
00000000
,
02020000
03030000
01000000
00001000
00010000
00000100
00001000
00000010
,
00010000
00001000
00100000
00010000
01000000
00001000
00022000
00033000
,
00002000
00203000
00320000
02030000
,
03010000
00100000
01000000
00100000
00010000
01000000
00001000
00010000
,
00022000
00000000
00033000
00000000
;

//---------------dance-double - ----------------
#NOTES:
     dance-double:
     :
     Hard:
     11:
     0.447679,0.566010,0.170229,0.572587,0.077377,405.000000,383.000000,22.000000,74.000000,0.000000,0.000000,0.447679,0.566010,0.170229,0.572587,0.077377,405.000000,383.000000,22.000000,74.000000,0.000000,0.000000:
00000000
00000000
00000000
00000000
,
00000000
00000000
00000000
00000000
,
00000000
00000000
00000000
00000000
,
00000000
00000000
00000000
00000000
,
00000000
00000000
00000000
00000000
,
00100000
00001000
00010000
00000000
00000100
00001000
00000100
00000000
,
00010000
00000000
00001000
00100000
00010000
01000000
00001000
00000000
,
00100000
00010000
01000000
00000000
00010000
01000000
00001000
00000000
,
00010000
00000100
00001000
00000010
00000100
00000010
00001000
00000100
,
00000010
00000000
00000000
00000010
00000000
00000000
00000020
00000000
00000000
00000000
00000000
00000000
00000130
00000000
00001000
00000000
,
00000010
00000000
00000000
00000010
00000000
00000000
00001000
00000000
00000200
00000000
00000000
00000000
00010300
00000000
00001000
00000000
,
00020000
00000000
00000010
00000000
00031000
00010000
00001000
00000000
,
00200000
00000000
00310000
02000000
00000000
03100000
01000000
00010000
,
00100000
00000000
00000000
00100000
00000000
00000000
00200000
00000000
00000000
00000000
00000000
00000000
00310000
00000000
00100000
00000000
,
01000000
00000000
00000000
01000000
00000000
00000000
00100000
00000000
00020000
00000000
00000000
00000000
01000000
00000000
00000000
00000000
,
00130000
00001000
00010000
00000000
00000010
00010000
00001000
00000000
,
01000000
00001000
00010000
00000100
00001000
00000010
00000100
00000000
,
00000220
00000000
00000000
00000330
,
00000010
00001000
00000100
00010000
00001000
00100000
00010000
01000000
,
02020000
03030000
00010000
00100000
00010000
01000000
00010000
00100000
,
00001000
00010000
00100000
00010000
00001000
00000010
00000200
00000300
,
00002200
00003300
00000100
00010000
00001000
00010000
00100000
00010000
,
00001000
01000000
00020000
00000000
02000000
00030000
00020000
03030000
,
00220000
00330000
00010000
00100000
00010000
01000000
00010000
00100000
,
00001000
00010000
01000000
00010000
00001000
00000100
00000020
00000030
,
00002020
00003030
00002000
00000000
00003200
00000000
00002300
00000000
,
00003100
00010000
00001000
00010000
00000010
00010000
00001000
00100000
,
00020000
00030000
01000000
00010000
00100000
00010000
01000000
00000000
,
00002000
00000000
00013000
00000200
00000000
00001300
00000010
00000100
,
00000010
00001000
00000100
00000000
00000010
00000100
00001000
00000000
,
00000010
00001000
00000100
00000010
00000100
00001000
00000010
00000000
,
00001000
00000000
00000100
00001000
00000010
00001000
00000100
00000000
,
00020000
00000000
00031000
00200000
00000000
00310000
01000000
00001000
,
00010000
00000100
00010000
00001000
00100000
00010000
01000000
00001000
,
00010000
00000000
00000100
00000000
00001000
00000200
00000000
00000000
00010300
00000000
00001000
00010000
00001000
00000000
00100000
00000000
,
00010000
01000000
00010000
00100000
00001000
00010000
00000200
00000000
,
00001300
00000010
00001000
00000100
00010000
00001000
00200000
00000000
,
00310000
01000000
00100000
01000000
00010000
00100000
00001000
00000000
,
00010000
00000100
00001000
00010000
00001000
00000100
00010000
00000000
,
00001000
00100000
00010000
01000000
00100000
00010000
00100000
01000000
,
00010000
00100000
00001000
00010000
00000100
00001000
00000100
00000000
,
00001000
00000010
00001000
00000010
00010000
00001000
00010000
00001000
,
01000000
00010000
00001000
00010000
00100000
00010000
01000000
00100000
,
02000000
00000000
00000000
00010000
00000000
00000000
00100000
00000000
00000000
00000000
03000000
00000000
01000000
00000000
00010000
00000000
,
00100000
00000000
00000000
00001000
00000000
00000000
00010000
00000000
00000200
00000000
00000000
00000000
00000310
00000000
00000100
00000000
,
00002000
00000000
00003010
00000200
00000000
00000310
00002000
00000000
,
00003200
00000000
00010300
00002000
00000000
00013000
00000010
00000100
,
00000020
00000000
00000000
00001000
00000000
00000000
00000100
00000000
00000000
00000000
00000030
00000000
00000010
00000000
00001000
00000000
,
00000100
00000000
00000000
00010000
00000000
00000000
00001000
00000000
02000000
00000000
00000000
00000000
00100000
00000000
00000000
00000000
,
03010000
00100000
01000000
00100000
00010000
01000000
00100000
01000000
,
00010000
00100000
00001000
00020000
00000000
00000000
00031000
00000000
,
00022000
00000000
00000000
00033000
,
00022000
00033000
00001000
00100000
00010000
01000000
00010000
00000000
,
00100000
00000000
00000000
01000000
00000000
00000000
00010000
00000000
01000000
00000000
00100000
00000000
00010000
00000000
01000000
00000000
,
00001000
00000000
00000000
00010000
00000000
00000000
00000100
00000000
00002000
00000000
00000000
00000000
00003010
00000000
00000100
00000000
,
00001000
00000000
00000000
00000100
00000000
00000000
00000010
00000000
00001000
00000000
00000000
00000100
00000000
00000000
00010000
00000000
,
00022000
00000000
00000000
00000000
00000000
00000000
00000000
00000000
00033000
00000000
00000000
00002000
00000000
00000000
00003000
00000000
,
00001000
00010000
00001000
00000000
00010000
00000100
00010000
00000000
00000100
00001000
00000100
00001000
00000010
00001000
00000010
00000000
,
00002020
00003030
00001000
00000100
00001000
00010000
00001000
00000010
,
00010000
00001000
00100000
00010000
00001000
00010000
00220000
00330000
,
02020000
03030000
00010000
00100000
00010000
00001000
00010000
01000000
,
00001000
00010000
00002000
00000000
00203000
00000000
00020000
00330000
,
00220000
00330000
00010000
01000000
00010000
00001000
00010000
00100000
,
00001000
00010000
00001000
00000100
00001000
00010000
00022000
00033000
,
00020020
00030030
00022000
00033000
00020200
00030300
00002200
00003300
,
00001010
00000010
00010010
00010000
00011000
00001000
00011000
00000000
,
02002000
00000000
03003000
00000000
;

//---------------dance-double - ----------------
#NOTES:
     dance-double:
     :
     Challenge:
     15:
     0.632277,0.771832,0.348195,0.572587,0.506817,572.000000,527.000000,45.000000,74.000000,0.000000,0.000000,0.632277,0.771832,0.348195,0.572587,0.506817,572.000000,527.000000,45.000000,74.000000,0.000000,0.000000:
00000000
00000000
00000000
00000000
,
00000000
00000000
00000000
00000000
,
00000000
00000000
00000000
00000000
,
00000000
00000000
00000000
00000000
,
00000000
00000000
00000000
00000000
,
10000000
00010000
01000000
00010000
00100000
00001000
00010000
00000100
,
00001000
00000010
00001000
00000001
00000010
00000100
00000100
00001000
,
00000001
00001000
00000100
00001000
00000010
00010000
00001000
01000000
,
00010000
00100000
00010000
00100000
00010000
10000000
00010000
10000000
00100000
10000000
00100000
10000000
00010000
00000000
10000000
00010000
,
10000000
00000000
00000000
11000000
00000000
00000000
10020000
00000000
00000000
00000000
01030000
00000000
00010000
00000000
00100000
00000000
,
00101000
00000000
00000000
00011000
00000000
00000000
00010000
00000000
00000200
00000000
00000000
00000000
00001300
00000000
00000010
00000000
,
00000200
00000000
00001000
00000000
00000310
00000100
00000002
00000000
,
00000023
00000000
00000000
00000000
00001030
00000000
00000020
00000000
00000000
00000000
00000031
00000000
00000100
00000000
00000001
00001000
,
00000001
00000000
00000000
00000101
00000000
00000000
00002001
00000000
00000000
00000000
00003100
00000000
00001000
00000000
00000010
00000000
,
00010010
00000000
00000000
00011000
00000000
00000000
00001000
00000000
02000000
00000000
00000000
00000000
03010000
00000000
00100000
00000000
,
10000000
00100000
00010000
01000000
00001000
00010000
00000100
00001000
,
00000010
00000001
00000010
00002000
00000002
00000000
00003003
00000000
,
00000220
00000000
00000000
00000330
,
00001100
00000100
00000110
00000010
00000011
00000001
00001001
00000001
,
00000202
00000000
00000303
00000000
00000001
00000100
00000010
00000100
00000001
00000010
00000100
00000010
00000001
00001000
00000010
00001000
,
00000001
00000100
00000010
00000100
00000001
00000010
00000100
00000010
00000001
00001000
00000100
00010000
00002000
00000000
00003000
00000000
,
00022000
00000000
00033000
00000000
00001000
00100000
00010000
00100000
00001000
01000000
00010000
01000000
00001000
01000000
00100000
01000000
,
00010000
00100000
01000000
10000000
00200000
00000000
01000000
00000000
20300000
00000000
00010000
00000000
32000000
00000000
03000000
00000000
,
22000000
00000000
33000000
00000000
10000000
01000000
00100000
01000000
10000000
00100000
01000000
00100000
10000000
00010000
00100000
00010000
,
01000000
00001000
00010000
00001000
00100000
00001000
00010000
00000100
00001000
00000010
00000100
00000010
00002000
00000000
00003000
00000000
,
00002002
00003003
00001100
00000001
00000101
00001000
00001010
00000001
,
00000011
00000010
00000110
00000100
00001100
00001000
00001010
00000100
,
00002002
00003003
00001000
00000001
00000010
00001000
00010000
00001000
,
00100000
00010000
01000000
10000000
01000000
00010000
00100000
01000000
,
10000000
00100000
10000000
00100000
01000000
00000000
00010000
00000000
00100000
00010000
00000000
00010000
01000000
00000000
00001000
00000000
,
00010000
00000000
00001000
00000000
00100000
00010000
00000000
01000000
00000000
00100000
10000000
00000000
00010000
00000000
10000000
00000000
,
01000000
10000000
00010000
10000000
01000000
00010000
00001000
00010000
,
00000100
00001000
00000010
00000001
00000010
00001000
00000100
00000010
,
00000001
00000100
00000001
00000100
00000010
00000000
00001000
00000000
00000100
00001000
00000000
00001000
00000010
00000000
00010000
00000000
,
00001000
00000000
00010000
00000000
00000100
00002000
00000000
00000000
00003001
00000000
00000100
00000010
00001000
00000000
00000001
00001000
,
00000002
00000100
00001003
00002000
00000010
00003001
00001000
00000100
,
00010000
00000100
00010000
00000000
00001000
00000000
00100000
00001000
00100000
00000000
00010000
00000000
01000000
00010000
01000000
00000000
,
00020000
00100000
10030000
20000000
01000000
30010000
10000000
00010000
,
10000000
00100000
01000000
00000000
00010000
00000000
10000000
01000000
00100000
00000000
00010000
00000000
10000000
00010000
10000000
00000000
,
00010000
00000000
00100000
00000000
00001000
00010000
00000000
00010000
00000100
00000000
00000100
00001000
00000000
00001000
00000010
00000000
,
00001000
00000000
00000100
00000000
00010000
00001000
00000000
00001000
00100000
00000000
00100000
00010000
00000000
00010000
01000000
00000000
,
00010000
00100000
00010000
00000000
01000000
00000000
00100000
00000000
10000000
01000000
10000000
00000000
00100000
00000000
01000000
00000000
,
00010000
00100000
01000000
00000000
10000000
00000000
00100000
00000000
00010000
00000000
00100000
00000000
10000000
00000000
00010000
10000000
,
00020000
00000000
00000000
00230000
00000000
00000000
20300000
00000000
00000000
00000000
30100000
00000000
00010000
00000000
01000000
00000000
,
00002000
00000000
00000000
00023000
00000000
00000000
00030200
00000000
00002300
00000000
00000000
00000000
00003010
00000000
00001000
00000000
,
00000200
00000000
00000001
00000000
00000310
00000100
00002000
00000000
,
00003020
00000000
00000000
00000000
00000031
00000000
00000020
00000000
00000000
00000000
00001030
00000000
00000100
00000000
00001000
00000001
,
00002000
00000000
00000000
00003200
00000000
00000000
00000302
00000000
00000000
00000000
00000103
00000000
00001000
00000000
00000010
00000000
,
00020000
00000000
00000000
00032000
00000000
00000000
00203000
00000000
00320000
00000000
00000000
00000000
01030000
00000000
00010000
00000000
,
00100000
10000000
00100000
00010000
01000000
00001000
00010000
00000100
,
00001000
00000010
00000001
00000010
00002000
00000000
00003000
00000000
,
00000220
00000000
00000000
00000330
,
00001001
00000000
00000000
00000000
00000000
00000000
00001000
00000000
00000000
00000100
00001000
00000010
00000100
00000000
00000000
00000001
00000000
00000000
00000010
00000000
00000000
00000100
00000000
00000000
,
00000010
00000000
00000000
00000011
00000000
00000000
00001010
00000000
00001000
00000000
00000100
00000000
00010000
00000000
00001000
00100000
,
00010000
00000000
00000000
01000000
00000000
00000000
10000000
00000000
01000000
00000000
00010000
00000000
00100000
00000000
01000000
00000000
,
11000000
00000000
00000000
00000000
00000000
00000000
00000000
00000000
00000000
01010000
00000000
00000000
00000000
00000000
00000000
00000000
00000000
00000000
00010000
00000000
00100000
00000000
01000000
00000000
10000000
00000000
00000000
00000000
00000000
00000000
00000000
00000000
00000000
10100000
00000000
00000000
00000000
00000000
00000000
00000000
00000000
00000000
01010000
00000000
00000000
00000000
00000000
00000000
,
20020000
00000000
00000000
00000000
00000000
00000000
00000000
00000000
30030000
00000000
00000000
00020000
00000000
00000000
00030000
00000000
,
00100000
00001000
00010000
00001000
00100000
00010000
01000000
00100000
10000000
01000000
00100000
01000000
10000000
00010000
10000000
00200000
,
20000000
00000000
30300000
00000000
00100000
10000000
01000000
10000000
00100000
01000000
00010000
01000000
00100000
10000000
01000000
00100000
,
00010000
10000000
01000000
10000000
00010000
00100000
01000000
00100000
00010000
01000000
00001000
00010000
00002000
00000000
00003000
00000000
,
00022000
00000000
00033000
00000000
00001000
00010000
00000100
00010000
00001000
00010000
00000010
00010000
00001000
00010000
00000100
00001000
,
00000010
00000100
00000001
00000010
00000002
00000000
00000010
00000000
00002003
00000000
00000100
00000000
00000002
00000000
00003003
00000000
,
00000022
00000000
00000033
00000000
00000010
00000001
00000100
00000001
00000010
00000100
00001000
00000100
00000010
00000001
00000100
00000010
,
00001000
00000100
00010000
00000100
00001000
00000010
00010000
00000010
00001000
00000100
00010000
00001000
00200000
00000000
00310000
00000000
,
02020000
03030000
00120000
01030000
02010000
03001000
00021000
00030100
,
00001100
00000010
00000101
00001000
00000011
00000100
00001010
00000001
,
00002002
00000000
00003003
00000000
;
