#TITLE:Qliphothgear;
#SUBTITLE:;
#ARTIST:Juggernaut.;
#MUSIC:Qliphothgear.ogg;
#BANNER:;
#BACKGROUND:;
#LYRICSPATH:;
#CDTITLE:;
#SAMPLESTART:95.721;
#SAMPLELENGTH:18.113;
#OFFSET:0.507;
#BPMS:0.000=212.000;
#STOPS:;
#TIMESIGNATURES:;
#BGCHANGES:;
#FGCHANGES:;
#ATTACKS:;

//---------------dance-single - ---------------
#NOTES:
     dance-single:
     :
     Beginner:
     7:
     0,0,0,0,0:
// measure 0
0000
0000
0000
0000
,  // measure 1
0000
0000
0000
0000
,  // measure 2
0000
0000
0000
0000
,  // measure 3
0000
0000
0000
0000
,  // measure 4
0000
0000
0000
0000
,  // measure 5
0000
0000
0000
0000
,  // measure 6
0000
0000
0000
0000
,  // measure 7
0000
0000
0000
0000
,  // measure 8
0000
0000
0000
0000
,  // measure 9
1000
0000
0000
0000
,  // measure 10
0001
0000
0000
0000
,  // measure 11
1000
0000
0000
0000
,  // measure 12
0001
0000
0000
0000
,  // measure 13
0100
0000
0000
0000
,  // measure 14
0010
0000
0000
0000
,  // measure 15
0100
0000
0000
0000
,  // measure 16
0010
0000
0000
0000
,  // measure 17
1001
0000
0000
0000
,  // measure 18
0000
0000
0000
0000
,  // measure 19
1000
0000
1000
0000
,  // measure 20
0100
0000
0100
0000
,  // measure 21
0010
0000
0010
0000
,  // measure 22
0001
0000
0001
0000
,  // measure 23
1000
0000
0000
0000
,  // measure 24
0010
0000
0000
0000
,  // measure 25
0100
0000
0000
0000
,  // measure 26
0100
0100
0001
0000
,  // measure 27
1001
0000
1000
0000
,  // measure 28
0000
0001
0001
0000
,  // measure 29
0010
0000
0000
0000
0100
0000
0000
0010
,  // measure 30
0000
0100
1000
0000
,  // measure 31
1001
0000
0001
0000
,  // measure 32
0000
1000
1000
0000
,  // measure 33
0010
0000
0000
0000
0100
0000
0000
0001
,  // measure 34
0000
0001
0000
0000
1000
0000
0000
0000
,  // measure 35
0000
0000
2002
0000
,  // measure 36
3003
1000
0001
0000
,  // measure 37
0010
0000
0000
0000
0000
0000
0001
0000
0000
0000
1000
0000
,  // measure 38
0000
0000
0001
0000
0000
0000
1000
0000
0000
0000
0000
0000
,  // measure 39
1001
0000
0001
0000
,  // measure 40
0000
1000
1000
0000
,  // measure 41
0100
0000
0000
0000
0010
0000
0000
0100
,  // measure 42
0000
0100
0000
0000
1000
0000
0000
0000
,  // measure 43
0002
0000
0003
0200
,  // measure 44
0000
0300
0010
0000
,  // measure 45
0100
0000
0001
0000
,  // measure 46
1000
0100
1000
0000
,  // measure 47
0002
0000
0003
0020
,  // measure 48
0000
0030
0100
0000
,  // measure 49
1000
1000
0000
1000
,  // measure 50
0010
0010
0000
0010
,  // measure 51
0200
0000
0300
0002
,  // measure 52
0000
0003
0010
0000
,  // measure 53
0001
0000
0010
0000
,  // measure 54
0100
1000
0100
0000
,  // measure 55
2000
0000
3000
0020
,  // measure 56
0000
0030
0100
0000
,  // measure 57
0001
0000
0000
0000
,  // measure 58
1000
0000
0100
0000
,  // measure 59
0220
0330
0000
0000
0010
0000
0000
0001
,  // measure 60
0000
0010
0001
0000
,  // measure 61
1000
0000
0000
0000
0010
0000
0000
1000
,  // measure 62
0000
0010
1000
0000
,  // measure 63
0001
0000
0001
0000
,  // measure 64
1000
0000
1000
0000
,  // measure 65
0100
0000
0100
0000
,  // measure 66
0010
0000
0010
0000
,  // measure 67
0002
0000
0000
0000
,  // measure 68
0000
0000
0000
0000
,  // measure 69
0000
0000
0000
0000
,  // measure 70
0000
0000
0000
0000
,  // measure 71
1003
0000
0000
0000
,  // measure 72
1000
0000
0000
0000
,  // measure 73
0010
0000
0000
0000
,  // measure 74
0010
0000
0000
0000
,  // measure 75
0100
0000
0100
0000
,  // measure 76
0001
0000
0001
0000
,  // measure 77
1000
0000
0100
0000
,  // measure 78
0010
0000
0001
0000
,  // measure 79
1000
0000
0010
0000
,  // measure 80
1000
0000
0001
0000
,  // measure 81
0010
0000
0100
0000
,  // measure 82
1000
0000
0000
0000
,  // measure 83
1001
0000
0000
0000
,  // measure 84
0000
0000
0000
0000
,  // measure 85
0001
0001
0001
0000
,  // measure 86
0100
0000
0001
0000
,  // measure 87
1000
0000
0100
0000
,  // measure 88
0010
0000
0001
0000
,  // measure 89
2000
0000
0000
3000
,  // measure 90
0020
0000
0000
0030
,  // measure 91
0100
0000
0001
0000
,  // measure 92
0010
0000
0001
0000
,  // measure 93
1000
1000
1000
0000
,  // measure 94
0010
0000
0100
0000
,  // measure 95
0001
0000
0000
0010
0000
0000
0000
0100
,  // measure 96
0000
0000
0000
0010
0000
0000
0000
0000
,  // measure 97
0001
0000
0000
1000
0000
0000
0001
0000
,  // measure 98
1000
0000
0000
0001
0000
0000
1000
0000
,  // measure 99
0010
0000
0100
0000
,  // measure 100
0001
0000
0010
0000
,  // measure 101
0200
0000
0000
0000
,  // measure 102
0000
0000
0300
0000
,  // measure 103
1000
0000
0001
1000
0000
0001
0000
1000
,  // measure 104
0000
0001
0000
1000
0000
0001
0000
0000
,  // measure 105
0200
0000
0000
0300
,  // measure 106
0020
0000
0000
0030
,  // measure 107
1000
0000
0001
0000
,  // measure 108
0010
0000
0001
0000
,  // measure 109
0100
0100
0100
0000
,  // measure 110
0010
0000
1000
0000
,  // measure 111
0100
0000
0000
0010
0000
0000
0000
0001
,  // measure 112
0000
0000
0000
1000
0000
0000
0000
0000
,  // measure 113
0010
0000
0000
0100
0000
0000
0010
0000
,  // measure 114
0100
0000
0000
0010
0000
0000
0100
0000
,  // measure 115
0001
0000
0010
0000
,  // measure 116
0100
0000
0100
0000
,  // measure 117
1001
0000
1000
0000
,  // measure 118
0100
0000
0010
0010
,  // measure 119
0001
0000
1000
0000
,  // measure 120
0010
0100
0100
0001
,  // measure 121
1000
0000
0200
0000
,  // measure 122
0000
0000
0000
0310
,  // measure 123
0010
0000
0001
0000
,  // measure 124
0100
0000
0010
0000
,  // measure 125
1000
0002
0000
0000
,  // measure 126
0000
0000
0000
0000
,  // measure 127
0000
0003
0000
0000
;

//---------------dance-single - ---------------
#NOTES:
     dance-single:
     :
     Easy:
     10:
     0,0,0,0,0:
// measure 0
0000
0000
0000
0000
,  // measure 1
0000
0000
0000
0000
,  // measure 2
0000
0000
0000
0000
,  // measure 3
0000
0000
0000
0000
,  // measure 4
0000
0000
0000
0000
,  // measure 5
0000
0000
0000
0000
,  // measure 6
0000
0000
0000
0000
,  // measure 7
0000
0000
0000
0000
,  // measure 8
0000
0000
0000
0000
,  // measure 9
2000
0000
0000
0000
,  // measure 10
3200
0000
0000
0310
,  // measure 11
0200
0000
0000
2300
,  // measure 12
0000
0000
3002
0000
,  // measure 13
0203
0000
0000
0320
,  // measure 14
0000
0000
2030
0000
,  // measure 15
3200
0000
0000
0000
,  // measure 16
0320
0000
0000
0000
,  // measure 17
0031
0000
1001
0000
,  // measure 18
0000
0000
0000
0110
,  // measure 19
0100
0000
0001
0000
1000
0000
0000
0100
,  // measure 20
0000
0010
0000
0000
0001
0000
0100
0000
,  // measure 21
0010
0000
0100
0000
0001
0000
0000
1000
,  // measure 22
0000
0100
0000
0010
0000
0001
0000
0000
,  // measure 23
1000
1000
0010
0010
,  // measure 24
0100
0100
0001
0001
,  // measure 25
1000
0100
0010
0001
,  // measure 26
0100
1000
0100
0000
,  // measure 27
0110
0000
1000
0001
,  // measure 28
0001
1000
0001
0010
,  // measure 29
0200
0000
0000
0300
0110
0000
0000
1001
,  // measure 30
0000
1000
0010
0000
,  // measure 31
1001
0000
0001
0010
,  // measure 32
0010
0001
0010
0100
,  // measure 33
2000
0000
0000
3000
1001
0000
0000
1000
,  // measure 34
0000
0010
0000
0000
0110
0000
0000
0000
,  // measure 35
0000
0000
0002
0000
,  // measure 36
0023
0000
0230
0000
,  // measure 37
1300
0000
0000
0000
0000
0000
1000
0000
0000
0000
0010
0000
,  // measure 38
0000
0000
0100
0000
0000
0000
0001
0000
0000
0000
0000
0000
,  // measure 39
1001
0000
1000
0100
,  // measure 40
0100
1000
0100
0010
,  // measure 41
0002
0000
0000
0003
1001
0000
0000
0001
,  // measure 42
0000
0100
0000
0000
0110
0000
0000
0000
,  // measure 43
2000
0000
0000
0000
3000
0000
0001
0020
,  // measure 44
0000
0000
0030
0000
,  // measure 45
0100
1000
0001
0000
,  // measure 46
0200
0300
0020
0030
0220
0000
0330
0000
,  // measure 47
0002
0000
0000
0000
0003
0000
1000
0200
,  // measure 48
0000
0000
0300
0000
,  // measure 49
0000
0110
0000
1001
,  // measure 50
0000
0110
0000
1001
,  // measure 51
2000
0000
0000
0000
3000
0000
0100
0020
,  // measure 52
0000
0000
0030
0000
,  // measure 53
0001
0100
0010
0000
,  // measure 54
2000
3000
0002
0003
2002
0000
3003
0000
,  // measure 55
0002
0000
0000
0000
0003
0000
0010
0200
,  // measure 56
0000
0000
0300
0000
,  // measure 57
1000
1000
0001
0001
,  // measure 58
0100
0100
0110
0000
,  // measure 59
0002
0003
0000
0000
1000
0000
0000
0100
,  // measure 60
0000
0010
0010
0000
,  // measure 61
0001
0000
0000
0000
0100
0000
0000
0010
,  // measure 62
0000
1000
1000
0000
,  // measure 63
0001
0100
0001
0100
,  // measure 64
0010
1000
0010
1000
,  // measure 65
0001
0010
0001
0010
,  // measure 66
0100
1000
0100
1000
,  // measure 67
0200
0000
0000
0000
,  // measure 68
0000
0000
0000
0000
,  // measure 69
0000
0000
0000
0000
,  // measure 70
0000
0000
0000
0000
,  // measure 71
0310
0000
0000
0000
,  // measure 72
0001
0000
0000
0000
,  // measure 73
0100
0000
0000
0000
,  // measure 74
0010
0000
0000
0000
,  // measure 75
1000
0000
0100
0000
1000
0000
0000
0001
,  // measure 76
0000
0100
0000
0000
0010
0000
0000
0000
,  // measure 77
1000
0000
0000
0001
0000
0010
0000
0100
,  // measure 78
0000
0010
0000
0001
0000
1000
0000
0000
,  // measure 79
0010
0000
0000
0100
0000
0000
0001
0000
,  // measure 80
0010
0000
0000
0100
0000
0000
1000
0000
,  // measure 81
0001
0000
0000
1000
0000
0000
0001
0000
1000
0000
0000
0000
0010
0000
0000
0000
,  // measure 82
0200
0000
0000
0000
,  // measure 83
0301
0000
0110
0000
,  // measure 84
0000
0000
0000
1001
,  // measure 85
1000
0000
0100
0000
0010
0000
0000
0001
,  // measure 86
0000
1000
0000
0000
0010
0000
0100
0000
,  // measure 87
0001
0000
0000
0010
0000
0100
0000
1000
,  // measure 88
0000
0001
0000
0100
0000
0010
0000
0000
,  // measure 89
1000
0000
0000
0100
0000
0000
0010
0000
0000
0001
0000
0000
1000
0000
0000
0000
,  // measure 90
0001
0000
0000
0100
0000
0000
0010
0000
0000
1000
0000
0000
0001
0000
0000
0000
,  // measure 91
0010
0000
0100
1000
,  // measure 92
0001
0100
0001
0010
,  // measure 93
0100
0000
1000
0000
0010
0000
0000
1000
,  // measure 94
0000
0001
0000
0000
0010
0000
0100
0000
,  // measure 95
1000
0000
0000
0010
0000
0100
0000
0010
,  // measure 96
0000
1000
0000
0100
0000
0010
0000
0000
,  // measure 97
0001
0100
1000
0100
,  // measure 98
0001
0010
1000
0010
,  // measure 99
0001
0001
1000
1000
,  // measure 100
0010
0000
0000
0000
0000
0000
0000
0000
0100
0000
0000
0010
0000
0000
0100
0000
,  // measure 101
0002
0000
0000
0000
,  // measure 102
0000
0000
0003
0000
,  // measure 103
1000
0000
0100
0010
0000
0001
0000
1000
,  // measure 104
0000
0010
0000
0100
0000
0001
0000
0000
,  // measure 105
1000
0000
0000
0001
0000
0000
0010
0000
0000
0100
0000
0000
1000
0000
0000
0000
,  // measure 106
0001
0000
0000
1000
0000
0000
0010
0000
0000
0100
0000
0000
0001
0000
0000
0000
,  // measure 107
0010
0000
0001
1000
,  // measure 108
0010
0100
0001
0010
,  // measure 109
0001
0000
1000
0000
0100
0000
0000
1000
,  // measure 110
0000
0010
0000
0000
0100
0000
0001
0000
,  // measure 111
0010
0000
0000
0100
0000
1000
0000
0001
,  // measure 112
0000
0100
0000
0010
0000
1000
0000
0000
,  // measure 113
0001
0010
1000
0010
,  // measure 114
0001
0100
1000
0100
,  // measure 115
0001
0001
1000
1000
,  // measure 116
0100
0000
0000
0000
0000
0000
0000
0000
0010
0000
0000
0001
0000
0000
1000
0000
,  // measure 117
0010
0000
0000
0000
1000
0000
0002
0010
,  // measure 118
0000
1000
0000
0010
0000
1003
0010
0000
,  // measure 119
0100
0100
0001
0001
,  // measure 120
1000
0100
0010
0010
,  // measure 121
0001
0000
0200
0320
,  // measure 122
2030
3200
0320
0031
,  // measure 123
1000
1000
0010
0010
,  // measure 124
1000
0100
0010
0001
,  // measure 125
0100
2000
0000
0000
,  // measure 126
0000
0000
0000
0000
,  // measure 127
0000
3000
0000
0000
;

//---------------dance-single - ---------------
#NOTES:
     dance-single:
     :
     Medium:
     14:
     0,0,0,0,0:
// measure 0
0000
0000
0000
0000
,  // measure 1
0000
0000
0000
0000
,  // measure 2
0000
0000
0000
0000
,  // measure 3
0000
0000
0000
0000
,  // measure 4
0000
0000
0000
0000
,  // measure 5
0000
0000
0000
0000
,  // measure 6
0000
0000
0000
0000
,  // measure 7
0000
0000
0000
0000
,  // measure 8
0000
0000
0000
0000
,  // measure 9
0002
0000
0000
0000
,  // measure 10
0203
0000
0000
0000
0000
0000
0310
1000
,  // measure 11
0002
0000
0000
0023
,  // measure 12
0000
0000
0230
0000
,  // measure 13
2300
0000
0000
3020
,  // measure 14
0000
0000
2030
0000
,  // measure 15
3002
0000
0000
0000
,  // measure 16
0023
0000
0000
0000
,  // measure 17
0130
0000
1000
0010
0100
0000
0000
0000
,  // measure 18
0110
0000
0010
1000
0001
0010
0100
0000
,  // measure 19
0010
0000
0001
0000
1000
0000
0010
0100
,  // measure 20
0000
0010
0000
1000
0001
0000
0010
0000
,  // measure 21
0100
0000
1000
0000
0010
0000
1000
0001
,  // measure 22
0000
0010
0000
0100
0000
1000
0000
0001
,  // measure 23
0100
0000
0001
0000
0010
0000
0100
1000
,  // measure 24
0000
0010
0000
1000
0001
0000
0010
0000
,  // measure 25
0001
1000
0010
0100
1000
0000
0100
0001
,  // measure 26
0010
0100
0001
0100
1000
0000
0000
0000
,  // measure 27
2010
0000
3001
0000
0011
0000
0010
0001
,  // measure 28
0100
0001
0010
0001
0100
0010
2000
0000
,  // measure 29
3200
0000
0000
0300
0010
0001
1000
0020
,  // measure 30
0000
0030
0200
0000
0301
1000
0100
0000
,  // measure 31
0210
0000
1300
0000
1010
0000
0010
1000
,  // measure 32
0100
1000
0010
1000
0100
0010
0002
0000
,  // measure 33
0203
0000
0310
0000
1000
0000
0001
0001
,  // measure 34
0000
0010
0010
0000
0100
0000
0000
0000
,  // measure 35
0000
0000
0000
0000
0000
0000
1000
0000
1000
0001
0000
0001
,  // measure 36
0010
0000
0010
0001
0000
0001
0100
0000
0100
0010
0000
0010
,  // measure 37
0100
0000
0000
0000
0000
0000
1010
0000
0000
0000
1001
0000
,  // measure 38
0000
0000
0011
0000
0000
0000
0110
0000
0000
0000
0000
0000
,  // measure 39
2100
0000
3001
0000
0101
0000
0100
0001
,  // measure 40
0010
0001
0100
0001
0010
0100
2000
0000
,  // measure 41
3020
0000
0230
0000
0301
0000
1000
1000
,  // measure 42
0000
0100
0100
0000
0010
0000
0000
0000
,  // measure 43
2002
0000
0000
0000
3003
0000
0001
0200
,  // measure 44
0000
0000
0310
1000
,  // measure 45
0001
0000
0000
0010
0000
0000
0100
0000
0000
1000
0000
0000
0001
0000
1000
0000
,  // measure 46
0020
0030
0200
0300
0220
0000
0330
0000
,  // measure 47
2020
0000
0000
0000
3030
0000
1000
0002
,  // measure 48
0000
0000
0013
0100
,  // measure 49
1000
1010
0010
0110
,  // measure 50
0100
0101
0001
1001
,  // measure 51
2002
0000
0000
0000
3003
0000
0001
0020
,  // measure 52
0000
0000
0130
1000
,  // measure 53
0001
0000
0000
0100
0000
0000
0010
0000
0000
1000
0000
0000
0001
0000
1000
0000
,  // measure 54
0200
0300
0020
0030
0220
0000
0330
0000
,  // measure 55
0022
0000
0000
0000
0033
0000
0010
0200
,  // measure 56
0000
0000
1300
0001
,  // measure 57
0100
0010
0100
0000
0010
1000
0010
0000
,  // measure 58
1000
0100
0010
0001
1000
0000
0000
0000
,  // measure 59
2002
3003
0000
0000
1000
0100
1000
0000
,  // measure 60
0001
0100
0000
0010
0000
0100
0001
0010
,  // measure 61
0100
0000
1000
0010
0100
0000
0010
1000
,  // measure 62
0000
0001
0010
0000
0100
0100
0000
0000
,  // measure 63
1000
0100
1000
0100
0010
0100
0010
0100
,  // measure 64
1000
0100
1000
0100
0010
0100
0010
0100
,  // measure 65
1000
0000
0010
0000
1000
0001
0010
0100
,  // measure 66
0000
0001
0000
0100
0010
0001
1000
0010
,  // measure 67
0200
0000
0000
0000
,  // measure 68
0000
0000
0000
0000
,  // measure 69
0000
0000
0000
0000
,  // measure 70
0000
0000
0000
0000
,  // measure 71
0301
0000
0010
0000
,  // measure 72
0100
0000
1000
0000
,  // measure 73
0001
0000
0100
0000
,  // measure 74
0010
0000
1000
0000
,  // measure 75
0001
0000
0100
0000
0001
0000
0010
0100
,  // measure 76
0000
1000
0000
0010
0100
0000
0010
0000
,  // measure 77
1000
0000
0001
0010
0000
0100
0000
1000
,  // measure 78
0000
0010
0000
0100
0000
0001
0000
1000
,  // measure 79
0100
0000
0000
0010
0000
0000
0001
0000
,  // measure 80
1000
0000
0000
0010
0000
0000
0100
0000
,  // measure 81
0001
0000
0000
1000
0000
0000
0001
0000
1000
0000
0000
0000
0100
0000
0000
0000
,  // measure 82
0020
0000
0000
0000
,  // measure 83
0031
0000
1000
0010
0100
0000
0000
0000
,  // measure 84
0110
0000
0010
1000
0001
0010
0100
0000
,  // measure 85
1100
0000
1001
0000
1100
0000
0100
0010
,  // measure 86
0000
0001
0000
1000
0010
0000
1000
0001
,  // measure 87
0010
0000
0100
0010
0000
1000
0000
0010
,  // measure 88
0000
0001
0000
0100
0000
1000
0000
0100
,  // measure 89
0010
0000
0000
1000
0000
0000
0001
0000
0000
0010
0000
0000
0100
0000
0100
0000
,  // measure 90
0010
0000
0000
0001
0000
0000
1000
0000
0000
0010
0000
0000
0100
0000
0100
0000
,  // measure 91
0001
0000
0000
0010
0000
0000
0100
0000
1000
0000
0000
0000
0010
0000
0000
0000
,  // measure 92
1000
0000
0001
0010
0100
0000
0010
0000
,  // measure 93
0011
0000
1001
0000
0011
0000
0010
0100
,  // measure 94
0000
1000
0000
0010
0100
0000
0010
1000
,  // measure 95
0002
0000
0010
0010
0000
1000
0000
0010
,  // measure 96
0000
1000
0000
0100
0000
1000
0000
0013
,  // measure 97
0100
0001
0100
1000
0001
0000
1000
0010
,  // measure 98
0100
1000
0100
0001
1000
0000
0100
0010
,  // measure 99
0100
0000
0000
1000
0000
0000
0010
0000
0100
0000
0000
0000
0001
0000
0000
0000
,  // measure 100
0010
0000
0000
0000
0001
0000
1000
0000
0010
0000
0000
0100
0000
0000
0001
0000
,  // measure 101
0020
0000
0000
0000
,  // measure 102
0000
0000
0030
0000
,  // measure 103
0011
0000
1001
1001
0000
1001
0000
1010
,  // measure 104
0000
1010
0000
0110
0000
0110
0000
0100
,  // measure 105
0001
0000
0000
1000
0000
0000
0100
0000
0000
0010
0000
0000
0001
0000
0001
0000
,  // measure 106
1000
0000
0000
0010
0000
0000
0100
0000
0000
0001
0000
0000
1000
0000
1000
0000
,  // measure 107
0100
0000
0000
0010
0000
0000
0100
0000
1000
0000
0000
0000
0010
0000
0000
0000
,  // measure 108
0100
0000
0001
1000
0010
0000
0100
0000
,  // measure 109
0101
0000
1001
0000
0101
0000
0100
0010
,  // measure 110
0000
1000
0000
0100
0010
0000
0100
1000
,  // measure 111
0002
0000
0100
0100
0000
1000
0000
0100
,  // measure 112
0000
1000
0000
0010
0000
1000
0000
0103
,  // measure 113
0010
0001
0010
1000
0001
0000
1000
0100
,  // measure 114
0010
1000
0010
0001
1000
0000
0010
0100
,  // measure 115
0001
0000
0000
0010
0000
0000
0100
0000
1000
0000
0000
0000
0010
0000
0000
0000
,  // measure 116
1000
0000
0000
0000
0100
0000
0010
0000
0001
0000
0000
1000
0000
0000
0010
0000
,  // measure 117
0200
0000
0001
0000
0310
1000
0100
0010
,  // measure 118
1000
0010
0100
0010
1000
0010
0002
0000
,  // measure 119
1003
0000
0010
1000
0001
0000
0010
0100
,  // measure 120
1000
0000
0020
0000
0130
0001
0020
0000
,  // measure 121
0032
0000
0000
0203
0000
0000
0310
0000
0010
1000
0000
1000
,  // measure 122
0100
0000
0100
0001
0000
0001
0100
0000
0100
2000
0000
0000
,  // measure 123
3001
0100
0001
1000
0100
1000
0001
0010
,  // measure 124
0100
0000
0010
0000
1000
0000
0010
0000
0001
0000
0000
1000
0000
0000
0010
0000
,  // measure 125
0001
0010
2000
0000
0000
0000
0000
0000
,  // measure 126
0000
0000
0000
0000
,  // measure 127
0000
3000
0000
0000
;

//---------------dance-single - ---------------
#NOTES:
     dance-single:
     :
     Hard:
     16:
     0,0,0,0,0:
// measure 0
0000
0000
0000
0000
,  // measure 1
0000
0000
0000
0000
,  // measure 2
0000
0000
0000
0000
,  // measure 3
0000
0000
0000
0000
,  // measure 4
0000
0000
0000
0000
,  // measure 5
0000
0000
0000
0000
,  // measure 6
0000
0000
0000
0000
,  // measure 7
0000
0000
0000
0000
,  // measure 8
0000
0000
0000
0000
,  // measure 9
1000
0000
0000
0010
0000
0000
0100
0010
,  // measure 10
0000
1000
0001
0000
0010
0100
0001
0100
,  // measure 11
0010
0000
0000
0001
0100
0000
0010
1000
,  // measure 12
0000
0000
0001
0010
0100
0010
1000
0010
,  // measure 13
0001
0000
0000
0100
0000
0000
0010
0100
,  // measure 14
0000
0001
1000
0000
0100
0010
1000
0010
,  // measure 15
0100
0000
0000
1000
0010
0000
0100
0001
,  // measure 16
0000
0000
1000
0100
0010
0100
0001
0100
,  // measure 17
1000
0000
0000
0000
0010
1000
0010
1000
0010
0000
0000
0000
0000
0000
0000
0000
,  // measure 18
0100
0000
0000
0000
0001
1000
0001
1000
0001
1000
0001
1000
0001
0000
0000
0000
,  // measure 19
0010
0000
0100
0000
1000
0000
0001
0100
,  // measure 20
0000
0010
0000
0100
0001
0000
0010
0000
,  // measure 21
0100
0000
1000
0000
0010
0000
1000
0001
,  // measure 22
0000
0010
0000
0001
0000
0100
0000
0010
,  // measure 23
1000
0100
1000
0001
0100
0001
1000
0010
,  // measure 24
1000
0001
0010
0001
0100
0010
1000
0100
,  // measure 25
0010
0001
0010
0000
0001
0000
0100
0000
0010
1000
0010
0000
0100
0000
0001
0000
,  // measure 26
1000
0100
1000
0000
0100
0000
0010
0000
0001
0000
0000
0000
0000
0000
0000
0000
,  // measure 27
2001
0000
0000
0000
0010
0000
0000
0000
3001
0000
0010
0100
0010
0000
0001
0000
,  // measure 28
0001
0001
0100
0001
0100
0001
2000
0000
,  // measure 29
3020
0000
0000
0030
0001
0010
1000
0002
,  // measure 30
0000
0003
0021
0000
0130
1000
0010
0000
,  // measure 31
0210
0000
0000
0000
0001
0000
0000
0000
0310
0000
1000
0001
1000
0000
0100
0000
,  // measure 32
0100
0100
0010
0100
0010
0100
2000
0000
,  // measure 33
3002
0000
0203
0000
0310
0000
0001
0010
,  // measure 34
0000
1000
0100
0000
0110
0000
0000
0000
,  // measure 35
0000
0000
0000
0000
0000
0000
0001
0010
0100
0010
1000
0010
,  // measure 36
0100
1000
0001
0100
0010
0100
1000
0100
0010
1000
0001
0010
,  // measure 37
0100
0000
0000
0000
0000
0000
0000
0000
0000
1000
0000
0000
0000
0000
0000
0000
0000
0000
0010
0000
0000
0000
0000
0000
1010
0000
0000
0000
0000
0000
0000
0000
1000
0000
0000
0000
0000
0000
0000
0000
1001
0000
0000
0000
0000
0000
0000
0000
,  // measure 38
0001
0000
0011
0000
0010
0000
0100
1000
0010
0100
0001
0010
,  // measure 39
0200
0000
0000
0000
1000
0000
0000
0000
0310
0000
0001
1000
0001
0000
0100
0000
,  // measure 40
0100
0100
0010
0100
0010
0100
0002
0000
,  // measure 41
2003
0000
3200
0000
0310
0000
1000
0010
,  // measure 42
0000
0001
0100
0000
0110
0000
0000
0000
,  // measure 43
2010
0000
0000
0000
3001
0000
0010
0020
,  // measure 44
0000
0000
0000
0000
0130
1000
0001
0100
,  // measure 45
0020
0000
0000
2030
0000
0000
3002
0000
0000
0023
0000
0000
0130
0000
0100
0000
,  // measure 46
2000
3000
0020
0030
0202
0000
0303
0000
,  // measure 47
1002
0000
0000
0000
0103
0000
0010
0020
,  // measure 48
0000
0000
0000
0000
1030
0001
0010
0100
,  // measure 49
2000
0000
0010
3002
0000
0100
2003
0000
,  // measure 50
3200
0000
0010
2300
0000
0001
3010
0000
,  // measure 51
0210
0000
0000
0000
0301
0000
1000
2000
,  // measure 52
0000
0000
0000
0000
3100
0010
0001
0100
,  // measure 53
0020
0000
0000
2030
0000
0000
3002
0000
0000
0023
0000
0000
0130
0000
0100
0000
,  // measure 54
0020
0030
0002
0003
2200
0000
3300
0000
,  // measure 55
1002
0000
0000
0000
0103
0000
0010
0020
,  // measure 56
0000
0000
0000
0000
1030
0001
0010
0100
,  // measure 57
2000
0000
0000
3020
0000
0000
0230
0000
0000
0302
0000
0000
0013
0000
0100
0000
,  // measure 58
0010
0000
0001
1000
0001
0000
0100
0010
0100
0000
0001
0000
0010
0000
0100
0000
,  // measure 59
2000
3000
0000
0000
0001
0100
0010
0001
,  // measure 60
0010
0100
0001
1000
0001
0010
0100
0010
,  // measure 61
1000
0000
0010
0100
1000
0010
0100
0001
,  // measure 62
0000
1000
0100
1000
0010
0010
0100
0000
,  // measure 63
0001
0010
1000
0010
0001
0100
1000
0100
,  // measure 64
0001
0010
1000
0010
0001
0100
1000
0100
,  // measure 65
0001
1000
0100
0010
1000
0001
0100
1000
,  // measure 66
0001
0100
0010
0001
1000
0100
0010
0100
,  // measure 67
0002
0000
0000
0000
,  // measure 68
0000
0000
0000
0000
,  // measure 69
0000
0000
0000
0000
,  // measure 70
0000
0000
0000
0000
,  // measure 71
1003
0000
0010
0000
,  // measure 72
1000
0000
0001
0000
,  // measure 73
0010
0000
0100
0000
,  // measure 74
1000
0000
0010
0000
,  // measure 75
0100
0000
0010
0000
1000
0000
0001
0010
,  // measure 76
0000
0000
0100
0000
0000
0000
0010
0001
0010
0000
0001
0000
0100
0000
0010
0000
,  // measure 77
1000
0000
0100
0010
0000
0100
0000
1000
,  // measure 78
0000
0001
0000
0100
0000
0010
0000
1000
,  // measure 79
0100
0000
0000
0010
0000
0000
0001
0000
,  // measure 80
0100
0000
0000
0010
0000
0000
1000
0000
,  // measure 81
0001
0000
0000
0010
0000
0000
0001
0000
0100
0000
0000
0000
0010
0000
0000
0000
,  // measure 82
1000
0000
0001
0000
0010
0000
0100
0010
0100
0000
0000
1000
0000
0000
0001
0000
,  // measure 83
0100
0000
0000
0000
0010
0100
0010
0100
0010
0000
0000
0000
0000
0000
0000
0000
,  // measure 84
1000
0000
0000
0000
0100
0010
0100
0010
0100
0010
0100
0010
0100
0000
0000
0000
,  // measure 85
2000
0010
3002
0100
1003
0100
0010
0010
,  // measure 86
0001
0000
0100
0000
0010
0000
1000
0001
1000
0000
0100
0000
0010
0000
0100
0000
,  // measure 87
1000
0001
0100
0010
1000
0100
0010
1000
,  // measure 88
0010
0100
1000
0010
0100
0001
0010
0100
,  // measure 89
0010
0000
0001
1000
0000
0001
1000
0000
0010
0100
0000
0010
0100
0000
0001
0000
,  // measure 90
1000
0000
0100
0010
0000
0100
0010
0000
0001
1000
0000
0001
1000
0000
0010
0000
,  // measure 91
0100
0000
0000
0001
0000
0000
0010
0000
0100
0000
1000
0000
0010
0000
0100
0000
,  // measure 92
1000
0000
0100
0000
0010
0000
1000
0001
1000
0000
0100
0000
0010
0000
0000
0000
,  // measure 93
0002
0100
2003
0010
3001
0010
0100
0100
,  // measure 94
1000
0000
0010
0000
1000
0000
0001
0010
0001
0000
0100
0000
0010
0000
1000
0000
,  // measure 95
0200
0000
0010
0001
0000
0010
0000
1000
,  // measure 96
0000
0010
0000
0001
0000
0310
0000
0001
,  // measure 97
1000
0000
0010
0100
0010
0000
0001
0000
0010
0100
0010
0000
1000
0000
0000
0000
,  // measure 98
0001
0000
0010
0100
0010
0000
1000
0000
0010
0100
0010
0000
0001
0000
1000
0000
,  // measure 99
0010
0000
0000
0100
0000
0000
0001
0000
1000
0000
0000
0000
0100
0000
0000
0000
,  // measure 100
0010
0000
0000
0000
0001
0000
1000
0010
1000
0000
0000
0100
0000
0000
0010
0000
,  // measure 101
0002
0000
0000
0000
,  // measure 102
0000
0000
0003
0000
,  // measure 103
1001
0000
1010
1010
0000
0110
0000
0101
,  // measure 104
0000
0011
0000
0110
0000
1100
0000
1000
,  // measure 105
0010
0000
1000
0001
0000
1000
0001
0000
0010
0100
0000
0010
0100
0000
1000
0000
,  // measure 106
0001
0000
0100
0010
0000
0100
0010
0000
1000
0001
0000
1000
0001
0000
0010
0000
,  // measure 107
0100
0000
0000
1000
0000
0000
0010
0000
0100
0000
0001
0000
0010
0000
0100
0000
,  // measure 108
0001
0000
0100
0000
0010
0000
0001
1000
0001
0000
0100
0000
0010
0000
0000
0000
,  // measure 109
2000
0100
3002
0010
1003
0010
0100
0100
,  // measure 110
0001
0000
0010
0000
0100
0000
1000
0001
1000
0000
0010
0000
0100
0000
0001
0000
,  // measure 111
0020
0000
0100
1000
0000
0100
0000
0001
,  // measure 112
0000
0100
0000
1000
0000
0130
0000
1000
,  // measure 113
0001
0000
0100
0010
0100
0000
1000
0000
0100
0010
0100
0000
0001
0000
0000
0000
,  // measure 114
1000
0000
0100
0010
0100
0000
0001
0000
0100
0010
0100
0000
1000
0000
0000
0000
,  // measure 115
0001
0000
0000
0100
0000
0000
0010
0000
1000
0000
0000
0000
0100
0000
0000
0000
,  // measure 116
0010
0000
0000
0000
0100
0000
1000
0001
1000
0000
0000
0010
0000
0000
0100
0000
,  // measure 117
0002
0000
0000
0000
1000
0000
0000
0000
0103
0000
0010
0100
0010
0000
0001
0000
,  // measure 118
0010
1000
0010
0001
0010
1000
0002
0000
,  // measure 119
0013
0100
0010
0001
0100
1000
0100
0010
,  // measure 120
1000
0001
0020
0000
0130
1000
0002
0000
,  // measure 121
0203
0000
0000
0320
0000
0000
1030
0001
0010
0100
0001
0100
,  // measure 122
0010
0001
1000
0010
0100
1000
0100
0010
1000
0002
0000
0000
,  // measure 123
0013
0100
0010
0001
0100
0010
1000
0100
,  // measure 124
0010
0001
0010
0000
0100
1000
0100
0000
0010
0000
0000
0001
0000
0000
0100
0000
,  // measure 125
0010
0100
0001
1000
0200
0000
0000
0000
0000
0000
0000
0000
0000
0000
0000
0000
,  // measure 126
0000
0000
0000
0000
,  // measure 127
0000
0300
0000
0000
;

//---------------dance-single - ---------------
#NOTES:
     dance-single:
     :
     Challenge:
     18:
     0,0,0,0,0:
// measure 0
0000
0000
0000
0000
,  // measure 1
0000
0000
0000
0000
,  // measure 2
0000
0000
0000
0000
,  // measure 3
0000
0000
0000
0000
,  // measure 4
0000
0000
0000
0000
,  // measure 5
0000
0000
0000
0000
,  // measure 6
0000
0000
0000
0000
,  // measure 7
0000
0000
0000
0000
,  // measure 8
0000
0000
0000
0000
,  // measure 9
0001
0000
0000
0010
0000
0000
0001
1000
,  // measure 10
0000
0010
0100
0000
1000
0100
0010
1000
,  // measure 11
0001
0000
0000
0010
0100
0000
0001
0100
,  // measure 12
0000
0000
1000
0001
0100
0010
0001
0010
,  // measure 13
1000
0000
0000
0100
0000
0000
1000
0001
,  // measure 14
0000
0100
0010
0000
0001
0010
0100
0001
,  // measure 15
1000
0000
0000
0100
0010
0000
1000
0010
,  // measure 16
0000
0000
0001
1000
0010
0100
1000
0100
,  // measure 17
0001
0000
0000
0000
1000
0100
0010
0100
1000
0000
0000
0000
0000
0000
0000
0000
,  // measure 18
1010
0000
0000
0000
0010
0100
0001
0100
0010
1000
0001
1000
0100
0000
0000
0000
,  // measure 19
0010
0000
0001
0000
1000
0000
0010
0100
,  // measure 20
0000
1000
0000
0100
0010
0000
1000
0000
,  // measure 21
0001
0000
0010
0000
0001
0000
0100
0010
,  // measure 22
0000
0001
0000
0010
0000
1000
0000
0001
,  // measure 23
0010
0001
1000
0010
0100
0001
0010
1000
,  // measure 24
0010
0001
1000
0010
0100
0001
1000
0100
,  // measure 25
0010
0001
0010
0100
1000
0010
0100
0010
1000
0001
0010
0100
1000
0001
1000
0010
,  // measure 26
0100
0001
0010
0100
1000
0100
0010
0001
1000
0010
0100
0010
0001
0010
0100
0010
,  // measure 27
2000
0000
0000
0000
0001
0000
0000
0000
3100
0000
0010
0100
0020
0000
0001
0000
,  // measure 28
0001
0001
0100
0001
0100
0031
2000
0000
,  // measure 29
3020
0000
0000
0030
0110
0100
0001
2002
,  // measure 30
0000
3003
2100
0000
3010
0100
0001
0000
,  // measure 31
0012
0000
0000
0000
1000
0000
0000
0000
0103
0000
0010
1000
0020
0000
0100
0000
,  // measure 32
0100
0100
1000
0100
1000
0130
0002
0000
,  // measure 33
0023
0000
0130
0000
1100
0000
1000
1010
,  // measure 34
0000
0110
0001
0000
0011
0000
0000
0000
,  // measure 35
0000
0000
0000
0000
0000
0000
1000
0010
0100
1000
0100
0010
,  // measure 36
0001
0010
0100
0001
0010
0100
0001
0100
0010
1000
0010
0100
,  // measure 37
2000
0000
0000
0000
0000
0000
0000
0000
0000
0100
0000
0000
0000
0000
0000
0000
0000
0000
3001
0000
0000
0000
0000
0000
0101
0000
0000
0000
0000
0000
0000
0000
0010
0000
0000
0000
0000
0000
0000
0000
1100
0000
0000
0000
0000
0000
0000
0000
,  // measure 38
0010
0000
0101
0000
0010
0000
1000
0100
0010
1000
0010
0001
,  // measure 39
2000
0000
0000
0000
0010
0000
0000
0000
3001
0000
0010
0100
0020
0000
0001
0000
,  // measure 40
0001
0001
0100
0001
0100
0031
2000
0000
,  // measure 41
3020
0000
0130
0000
0101
0000
0001
0011
,  // measure 42
0000
0000
0110
0000
1000
0000
0000
0000
0010
1000
0001
0010
0100
1000
0001
0100
,  // measure 43
0020
0000
0000
0000
1030
0000
0001
0002
,  // measure 44
0000
0000
0000
0000
0013
0100
1000
0010
,  // measure 45
0200
0000
0000
2300
0000
0000
3200
0000
0000
0320
0000
0000
1030
0000
1000
0000
,  // measure 46
0200
0300
0020
0030
0022
0000
0033
0000
,  // measure 47
2001
0000
0000
0000
3010
0000
0100
0200
,  // measure 48
0000
0000
0000
0000
0301
1000
0100
0010
,  // measure 49
0001
0000
0101
0001
0000
1000
1100
0000
,  // measure 50
0110
0000
0011
0001
0000
1000
1010
0000
,  // measure 51
0120
0000
0000
0000
1030
0000
0100
0200
,  // measure 52
0000
0000
0000
0000
0310
0100
1000
0001
,  // measure 53
0200
0000
0000
0320
0000
0000
0032
0000
0000
0023
0000
0000
1030
0000
1000
0000
,  // measure 54
0002
0003
0020
0030
0220
0000
0330
0000
,  // measure 55
2001
0000
0000
0000
3100
0000
0010
0020
,  // measure 56
0000
0000
0000
0000
0031
1000
0010
0100
,  // measure 57
0001
0010
0100
0001
0100
0010
0001
1000
,  // measure 58
0010
0100
0001
1000
0100
0010
0100
1000
0010
0000
0100
0000
1000
0000
0100
0000
,  // measure 59
0002
0003
0000
0000
0010
0001
0001
1000
,  // measure 60
0001
0001
0100
0001
0010
0001
0001
0001
,  // measure 61
0100
0000
0010
0001
0010
1000
0100
0010
,  // measure 62
0000
0100
1000
0010
0100
0100
0010
1000
,  // measure 63
0001
0000
0010
0001
1000
0000
0100
1000
0001
0000
1000
0010
0100
0000
0010
1000
,  // measure 64
0001
0000
0010
0100
1000
0000
0001
1000
0010
0000
0100
0010
1000
0000
0100
0010
,  // measure 65
0001
1000
0010
1000
0001
0010
0001
0100
0010
1000
0001
1000
0010
0100
0001
1000
,  // measure 66
0100
0010
0100
1000
0010
0100
0001
1000
0100
0010
1000
0010
0100
0010
0001
0010
,  // measure 67
0200
0000
0000
0000
,  // measure 68
0000
0000
0000
0000
,  // measure 69
0000
0000
0000
0000
,  // measure 70
0000
0000
0000
0000
,  // measure 71
1300
0000
0010
0000
,  // measure 72
0100
0000
0010
0000
,  // measure 73
1000
0000
0001
0000
,  // measure 74
0010
0000
0100
0000
,  // measure 75
1000
0000
0010
0000
1000
0000
0001
0010
,  // measure 76
0000
0000
0100
0000
0000
0000
1000
0001
1000
0000
0010
0000
0100
0000
0001
0000
,  // measure 77
0010
0000
0100
1000
0000
0010
0000
0100
,  // measure 78
0000
0001
0000
0010
0000
0100
0000
1000
,  // measure 79
0001
0000
0000
0010
0000
0000
0100
0000
,  // measure 80
0001
0000
0000
0100
0000
0000
0010
0000
,  // measure 81
0001
0000
0000
0100
0000
0000
0010
0000
1000
0000
0000
0000
0100
0000
0000
0000
,  // measure 82
0010
0000
0001
0000
1000
0000
0010
0100
0010
0000
0000
1000
0000
0000
0001
0000
,  // measure 83
0010
0000
0000
0000
0100
1000
0001
1000
0100
0000
0000
0000
0000
0000
0000
0000
,  // measure 84
1010
0000
0000
0000
1000
0010
0100
0010
1000
0001
0010
0001
1000
0000
0000
0000
,  // measure 85
0010
0000
0100
0001
0010
0000
0100
1000
0010
0000
1000
0000
0001
0000
0001
0000
,  // measure 86
0010
0000
1000
0000
0010
0000
0100
1000
0001
0000
0100
0000
0010
0000
1000
0000
,  // measure 87
0001
0000
0010
0100
1000
0000
0010
0000
0100
0000
1000
0000
0100
0000
0001
0000
,  // measure 88
0010
0000
0100
0000
0001
0000
0100
0000
0010
0000
0001
0000
0100
0000
0010
1000
,  // measure 89
0001
0000
0010
0100
0000
0010
0001
0000
1000
0010
0000
0100
0001
0000
0010
0000
,  // measure 90
0100
0000
1000
0100
0000
0010
0100
0000
1000
0010
0000
0100
0001
0000
0100
0000
,  // measure 91
0010
0000
0000
0001
0000
0000
0010
0000
1000
0000
0001
0000
0010
0000
0100
0000
,  // measure 92
1000
0000
0010
0000
0100
0000
1000
0100
0010
0000
1000
0000
0100
0000
0000
0000
,  // measure 93
0010
0000
0100
1000
0010
0000
0100
0001
0010
0000
0001
0000
1000
0000
1000
0000
,  // measure 94
0010
0000
0001
0000
0010
0000
0100
0001
1000
0000
0100
0000
0010
0000
0001
0000
,  // measure 95
1001
0000
1010
0011
0000
0110
0000
1100
,  // measure 96
0000
1001
0000
0101
0000
0110
0000
1000
,  // measure 97
0001
0000
1000
0100
0010
0100
0001
0000
1000
0010
0100
0010
0001
0000
0100
0000
,  // measure 98
0010
0000
1000
0010
0100
0010
0001
0000
1000
0100
0010
0100
0001
1000
0100
0010
,  // measure 99
0001
0010
0001
0100
0010
1000
0100
0010
,  // measure 100
0001
1000
0001
0100
0010
1000
0001
0010
0100
0000
0000
0001
0000
0000
0100
0000
,  // measure 101
2000
0000
0000
0000
,  // measure 102
0000
0000
3000
0000
,  // measure 103
1010
0000
0110
1001
0000
0011
0000
1100
,  // measure 104
0000
1010
0000
0101
0000
1001
0000
1000
,  // measure 105
0010
0000
0100
0010
0000
1000
0100
0000
0010
0001
0000
0100
0010
0000
0100
0000
,  // measure 106
0001
0000
0010
0100
0000
1000
0010
0000
0100
0001
0000
1000
0100
0000
0010
0000
,  // measure 107
0001
0000
0000
0100
0000
0000
1000
0000
0100
0000
0001
0000
1000
0000
0001
0000
,  // measure 108
0010
0000
0100
0000
1000
0000
0010
0100
1000
0000
0100
0000
0001
0000
0010
0000
,  // measure 109
0100
0000
0010
0001
0100
0000
0010
1000
0100
0000
0010
0000
0001
0000
0001
0000
,  // measure 110
1000
0000
0010
0000
0001
0000
0010
0100
0001
0000
0010
0000
0100
0000
1000
0000
,  // measure 111
1010
0000
0011
1100
0000
0101
0000
0110
,  // measure 112
0000
1001
0000
0011
0000
1100
0000
0100
,  // measure 113
0010
0000
0001
0100
0010
0100
1000
0000
0001
0010
0100
0010
1000
0000
0100
0000
,  // measure 114
0010
0000
0001
0010
0100
0010
1000
0000
0001
0100
0010
0100
1000
0001
0100
0010
,  // measure 115
1000
0100
1000
0010
0001
0010
0100
0001
,  // measure 116
0010
0100
1000
0010
1000
0001
0100
0001
0010
0000
0000
0110
0000
0000
1100
0000
,  // measure 117
1002
0000
0000
0000
0103
0000
0010
0000
1000
0100
0010
0001
0200
0000
0010
0000
,  // measure 118
1000
0010
0001
0010
1000
0010
0302
0000
,  // measure 119
1003
0000
0100
0000
1000
0010
0100
0000
0001
0000
0011
0000
0010
0000
1000
0000
,  // measure 120
0010
0001
0201
0000
0310
1000
2100
0000
,  // measure 121
3002
0000
0000
0203
0000
0000
0310
1000
0100
0010
1000
0010
,  // measure 122
0001
1000
0010
0001
0010
1000
0001
0100
1000
0200
0000
0000
,  // measure 123
0301
0010
0001
0100
0010
1000
0100
0010
,  // measure 124
0100
1000
0001
0100
0010
0001
0010
0100
0001
0000
0000
1001
0000
0000
1100
0000
,  // measure 125
1000
0100
0010
0100
0002
0000
0000
0000
0000
0000
0000
0000
0000
0000
0000
0000
,  // measure 126
0000
0000
0000
0000
,  // measure 127
0000
0003
0000
0000
;
