#TITLE:Punk;
#SUBTITLE:(Joey Riot Remix);
#ARTIST:Ferry Corsten;
#TITLETRANSLIT:;
#SUBTITLETRANSLIT:;
#ARTISTTRANSLIT:;
#GENRE:;
#CREDIT:Braeden;
#MUSIC:Punk.ogg;
#JACKET:jacket.png;
#BANNER:bn.png;
#BACKGROUND:bg.png;
#CDTITLE:;
#SAMPLESTART:54.790;
#SAMPLELENGTH:12.000;
#SELECTABLE:YES;
#OFFSET:-0.065;
#BPMS:0.000=170.000
,68.000=125.000
,132.000=170.000
;
#STOPS:;
#BGCHANGES:;
#FGCHANGES:;

//--------------- dance-single - ----------------
#NOTES:
     dance-single:
     :
     Beginner:
     4:
     0,0,0,0,0:
0000
0000
0000
0000
,
0000
0000
0000
0000
,
0000
0000
0000
0000
,
0000
1000
0000
0000
,
0000
0001
0000
0000
,
0000
1000
0000
0000
,
0000
0010
0000
0000
,
0000
0100
0000
0000
,
0000
0001
0000
0000
,
1001
1000
0000
0010
,
0000
0100
0000
0001
,
0000
0010
0000
0100
,
0000
1000
0000
0001
,
0000
1000
0000
0010
,
0000
1000
0000
0001
,
0000
0100
0000
0001
,
0000
1000
1000
0000
,
1001
0002
0003
0000
,
0000
0100
0100
0000
,
0000
0020
0030
0000
,
1000
0000
0010
0000
,
0000
0200
0300
0000
,
0000
0001
0001
0000
,
0000
0200
0300
0000
,
0010
0000
1000
0000
,
1001
0002
0003
0000
,
0000
0100
0100
0000
,
0000
0020
0030
0000
,
0000
1000
1000
0000
,
0000
0002
0003
0000
,
0000
0100
0100
0000
,
0000
0002
0003
0000
,
1000
0000
0000
0000
,
1001
0000
0001
0000
,
0000
0100
0000
0100
,
0010
0000
1000
0000
,
0000
0001
0000
1000
,
1000
0000
0001
0000
,
0000
0100
0000
0010
,
0010
0000
1000
0000
,
0001
0000
1000
0000
,
1001
0000
1000
0000
,
0000
0010
0000
0010
,
0100
0000
0001
0000
,
0000
1000
0000
0010
,
1000
0000
0001
0000
,
0000
1000
0000
0010
,
1000
0000
0001
0000
,
2000
0000
3000
0000
,
0001
0001
0000
0100
,
0000
0010
0000
1000
,
0000
0001
0000
1000
,
0000
0010
0000
0100
,
0000
0001
0000
1000
,
0000
0010
0000
0100
,
0000
0001
0000
0010
,
0000
0000
1000
0000
,
1001
1000
0000
0010
,
0000
0100
0000
0001
,
0000
0010
0000
0100
,
0000
1000
0000
0001
,
0000
1000
0000
0010
,
0000
1000
0000
0001
,
0000
0010
0000
0100
,
0000
0000
0000
0000
,
1000
0000
0000
0000
;

//--------------- dance-single - ----------------
#NOTES:
     dance-single:
     :
     Easy:
     8:
     0,0,0,0,0:
0000
0000
0000
0000
,
0000
0000
0000
0000
,
0000
0000
0000
0000
,
0000
0000
1000
0000
0001
0000
1000
0010
,
0000
0000
1000
0000
0001
1000
0000
0010
,
0000
0000
1000
0000
0100
0000
0010
0001
,
0000
0000
1000
0000
0010
0000
0100
0001
,
0000
0000
1000
0000
0001
0000
0010
0001
,
0000
0000
1000
0000
0010
1000
0000
0001
,
1000
0000
0200
0000
0310
0000
0001
1000
,
0000
0000
0002
0000
0103
0000
0010
1000
,
0000
0000
0002
0000
1003
0000
0010
1000
,
0000
0000
0002
0000
1003
0010
0000
1000
,
0000
0000
0002
0000
0103
0000
0001
1000
,
0000
0000
0200
0000
0310
0000
0100
1000
,
0001
1000
0010
0100
,
0001
0000
1000
0000
0001
1000
0000
0001
,
10M0
0000
1002
0000
1003
0000
0010
1000
,
0000
0000
0002
0000
0013
0200
0000
1300
,
0001
0000
2000
0000
3010
0000
1000
0001
,
0100
0110
0010
1001
,
1000
0000
0002
0000
0103
0000
0010
1000
,
0000
0000
0002
0000
1003
0100
0000
0010
,
0100
0000
0020
0000
0031
0000
1000
0010
,
1000
1100
0010
0001
,
1001
0000
2000
0000
3001
0000
0100
0010
,
1000
0000
0100
0010
0001
1000
0000
0001
,
1000
0000
0020
0000
0130
0000
0001
1000
,
0010
0000
1000
0100
0010
0001
0000
1000
,
0001
0000
2000
0000
3001
0000
1000
0010
,
0100
0000
0001
0010
0100
1000
0000
0001
,
1000
0000
0200
0000
0310
0000
0001
1000
,
0001
1000
0010
0100
,
10M1
0000
1000
0000
0001
0100
0001
0100
,
0000
0010
1000
0001
,
0010
0000
0002
0000
1003
0100
1000
0100
,
0000
0010
0001
1000
,
0001
0000
1001
0000
1000
0100
1000
0100
,
0000
0010
0001
1000
,
0001
0000
1001
0000
1000
0010
0100
0001
,
2000
3020
1030
0001
,
1001
0000
2000
0000
3001
0010
0001
0010
,
0000
0001
1000
0010
,
0100
0000
1001
0000
0001
1000
0001
1000
,
0000
0001
0010
0100
,
1000
0000
1100
0000
0100
0010
0100
0010
,
0000
0100
1000
0001
,
0100
0001
0100
0010
,
2000
3020
0130
0001
,
1000
0100
1000
0100
,
1000
0000
0001
0000
1000
0000
1000
0001
,
0010
0001
1000
0010
,
0100
0000
0001
0000
0010
0000
0100
1000
,
0001
1000
0010
0100
,
0001
0000
0010
0000
0100
0000
0010
0001
,
1000
0001
0100
0010
,
1000
0001
0100
0010
,
1001
0000
2000
0000
3001
0000
0100
0010
,
0000
0000
2000
0000
3100
0000
0010
0001
,
0000
0000
0200
0000
0310
0000
0001
1000
,
0000
0000
0002
0000
0103
0010
0000
1000
,
0001
0000
2000
0000
3001
0000
0100
0010
,
0000
0000
0200
0000
0301
0000
0010
0100
,
0010
0100
1000
0001
,
0020
0000
0030
0000
,
0220
0000
0330
0000
;

//--------------- dance-single - XO- ----------------
#NOTES:
     dance-single:
     XO-:
     Medium:
     12:
     0.161,0.197,0.037,0.047,0:
0000
0000
0000
0000
,
0000
0000
0000
0000
,
0000
0000
0000
0000
,
0000
0000
1000
0001
2000
0000
3001
0010
,
0000
0000
0001
0000
2000
0010
0000
3001
,
1000
0000
0010
1000
0020
0000
1030
0100
,
0000
0000
0010
0001
2000
0000
3001
0100
,
0000
0000
0010
1000
0002
0000
1003
0010
,
0000
0000
2000
0000
3001
0100
0000
0001
,
1001
0000
1000
0100
0010
0000
0100
1000
,
0001
0000
0100
0010
0100
0000
0001
0010
,
0100
0000
1000
0001
1000
0000
0001
0100
,
0001
0000
2000
0000
3002
0100
0000
1003
,
0001
0000
1000
0100
0010
0000
0100
1000
,
0001
0000
0100
0010
0100
0000
0001
0010
,
0001
1000
0001
1000
0010
0100
0010
1000
,
0001
0000
1001
0000
1000
0001
1000
0000
,
1MM1
0000
0002
0000
1003
0001
0100
0100
,
0001
0000
1000
0000
0100
0000
1000
0000
0010
0000
0010
0000
0100
0000
0001
1000
,
0010
0000
2000
0000
3001
0010
0100
0100
,
1000
0000
0001
0100
0001
0000
1000
0000
0001
0000
0100
0010
0100
0000
0001
1000
,
0001
0000
2000
0000
3001
0100
0010
0010
,
1000
0000
0001
0000
0010
0000
0100
0000
1000
0000
1000
0000
0001
0000
1000
0001
,
0100
0010
2000
0000
3001
0100
0010
0010
,
1000
0100
1000
0000
0001
0000
1000
0000
0002
0000
0013
0000
0001
1000
0001
1000
,
0001
0010
0000
0001
0020
0000
0000
0000
0130
0000
0000
0000
1000
0000
0001
0000
,
1000
0100
0000
1000
0001
0000
0010
0000
0001
0000
1000
0100
0000
1000
0100
0000
,
0010
0001
0000
0010
0002
0000
0000
0000
1003
0000
0010
0000
0100
0000
0100
0000
,
0001
1000
0000
0001
1000
0000
0100
0000
0010
0000
0001
1000
0000
0001
1000
0000
,
0001
0010
0000
0001
0200
0000
0000
0000
0310
0000
1000
0000
0010
0000
0010
0000
,
1000
0001
0000
1000
0001
0000
0100
0000
0001
0000
0100
0010
0000
1000
0100
0000
,
0010
0001
0000
0100
0001
0000
0010
0000
0100
1000
0000
0100
1000
0000
0001
0000
,
0100
0010
0100
0001
0010
0100
1000
0001
,
1MM1
0000
2000
0000
3100
0010
0001
1000
,
0000
0001
0100
0010
1000
0100
0010
0001
,
2000
0000
3010
0000
1000
0100
0001
0100
,
0000
1000
0001
0010
0001
0100
0001
0010
,
0001
0000
1020
0000
1030
0010
0100
1000
,
0000
0100
0010
1000
0001
0010
0100
1000
,
0001
0000
1020
0000
1030
0010
0100
0001
,
0100
0000
1001
0000
0101
0000
0001
1000
,
1001
0000
0201
0000
0301
0100
0010
0001
,
0000
0010
0100
0001
1000
0100
0010
0001
,
1000
0000
1001
0000
0001
0100
0010
1000
,
0000
0001
0010
0001
1000
0001
1000
0010
,
1000
0000
1001
0000
0001
0010
0100
1000
,
0000
0001
0010
0001
0100
0001
1000
0100
,
1000
0000
1001
0000
0001
0010
0001
1000
,
1002
0000
0100
0000
0013
0000
0100
1000
,
1001
0000
0000
0000
0001
0000
0000
0100
0000
0000
0010
0000
1000
0000
0000
0001
,
0000
0000
0100
0000
0010
0000
0000
1000
0000
0000
0100
0000
1000
0000
0001
0000
,
1000
0000
0100
0000
0010
0000
0000
0001
0000
0000
0010
0000
0001
0000
0000
1000
,
0000
0000
0010
0000
1000
0000
0000
0001
0000
0000
0100
0000
0010
0000
1000
0000
,
0001
0000
1000
0000
0001
0000
0000
0010
0000
0000
0100
0000
1000
0000
0000
0001
,
0000
0000
0100
0000
0010
0000
0000
1000
0000
0000
0100
0000
0010
0000
0001
0000
,
1000
0000
0010
0000
1000
0000
0000
0001
0000
0000
0100
0000
0010
0000
0000
1000
,
0000
0001
0010
0100
1000
0010
1000
0001
,
1001
0000
0002
0000
0100
0000
1000
1003
,
0010
0000
1020
0000
1000
0000
0100
0130
,
0001
0000
2001
0000
0010
0000
0100
3100
,
1000
0000
0002
0000
1003
0010
0100
0001
,
1000
0100
1000
0100
0010
0001
0010
0001
,
1000
0010
1000
0010
0100
0001
0100
0001
,
1000
0001
0010
0100
1000
0010
0100
0001
,
2000
0000
3000
0000
,
0220
0000
0000
0330
;

//--------------- dance-single - XMOD- XO+ FS ----------------
#NOTES:
     dance-single:
     XMOD- XO+ FS:
     Hard:
     14:
     0.383,0.367,0.093,0.121,0:
0000
0000
0000
0000
,
0000
0000
0000
0000
,
0000
0000
0000
0000
,
0000
0000
0001
0010
1000
0010
0100
0100
,
1000
0000
2001
0000
3001
0010
0M00
0010
,
1000
0000
0001
0100
1000
0100
0010
0010
,
1000
0000
0001
0010
1000
0010
0001
0001
,
1000
0000
0001
0100
1000
0100
0010
0010
,
1000
0000
2000
0000
3001
0200
0000
0310
,
1010
0000
0000
0000
2000
0000
0000
3001
0100
0000
0010
0000
1000
0000
0000
0100
,
0010
0000
0001
0000
2000
0000
0000
3001
0100
0000
0010
0000
1000
0000
0000
0100
,
0010
0000
0001
0000
2000
0000
0000
3010
0100
0000
0001
0000
1000
0000
0000
0100
,
0010
0000
0002
0000
1003
0010
0M00
0010
,
0001
0000
0000
0000
2000
0000
0000
3001
0100
0000
0010
0000
1000
0000
0000
0100
,
0010
0000
0001
0000
2000
0000
0000
3010
0100
0000
0010
0000
1000
0000
0000
0001
,
1000
0100
0010
0001
1000
0010
0100
0001
,
1000
0000
1001
0000
0001
2000
0000
3010
,
1M1M
0000
1002
0000
1003
0000
0001
0100
,
0001
0000
1000
0010
1000
0000
0001
1000
0100
00M0
0100
0000
0001
0000
1000
0100
,
0010
0000
0001
1000
0001
0000
1000
0100
0010
0001
1000
0000
0010
0M00
0010
0000
,
0001
1000
0001
2000
0000
0000
3010
0000
1000
0000
0001
0100
0000
0000
0001
1000
,
0010
0000
0000
0000
2010
0000
0000
0000
3100
0000
0010
0001
1000
0000
0001
0100
,
0010
0000
1000
0000
0001
0000
1000
0001
0100
00M0
0100
0000
1000
0000
0001
0100
,
0010
0000
1000
0001
0200
0000
0000
0000
0310
1000
0001
0000
1000
0000
0100
0000
,
0010
0001
0010
0001
1000
0000
0010
0000
0100
0000
0001
0000
1000
0100
1000
0001
,
1000
0010
0M00
0010
0002
0000
0100
0000
1003
0000
0001
0010
0001
0000
1000
0001
,
1000
0100
00M0
0100
0001
0000
1000
0001
1000
0000
0001
0100
00M0
0100
1000
0001
,
1000
0010
0M00
0010
0002
0000
0010
0000
1003
0100
1000
0000
0001
0000
0010
0000
,
0001
0100
00M0
0100
1000
0000
0001
0000
0100
0000
0001
0010
M000
0010
0100
0000
,
0001
0100
00M0
0100
2000
0000
0010
0000
3001
0000
0010
0001
0010
0000
0001
1000
,
0001
0100
00M0
0100
1000
0000
0010
0000
1000
0000
0001
0010
0M00
0010
1000
0000
,
0001
0010
M000
0010
0200
0000
0001
0000
0301
0100
00M0
0100
1000
0000
0001
0000
,
1000
0100
0010
0001
1000
0010
0100
0001
0100
0000
0010
0000
0000
0000
1000
0000
,
1MM1
0000
0000
0001
1000
0000
0000
1000
0001
0000
0100
0000
0010
0000
0002
0000
,
0003
0000
0010
0000
0100
0000
0000
0001
1000
0000
0010
0000
0100
0000
0001
0000
,
1000
0000
0000
1000
0100
0000
0000
0100
1000
0000
0010
0000
0100
0000
1000
0000
,
0000
0000
0100
0000
0010
0000
1000
0000
0001
0000
0010
0100
0010
0000
0001
0000
,
1000
0000
0010
1000
0010
0000
0000
1000
0001
0000
0100
0000
0010
0000
0001
0000
,
0000
0010
0100
0001
1000
0100
0001
0100
,
1000
0000
0001
0100
0001
0000
0000
1000
0010
0000
0100
0000
0010
0000
0001
0000
,
0010
0000
0100
0000
0001
0000
1000
0000
0020
0000
0000
0000
1030
0001
1000
0000
,
0001
0000
0100
0000
0010
0000
0000
0010
1000
0000
0100
0000
0010
0000
1000
0000
,
0000
0010
0001
0100
0010
1000
0010
0100
,
0001
0000
0000
0001
0100
0000
0000
0100
0010
0000
1000
0000
0010
0000
0001
0000
,
0000
0010
0100
0001
1000
0010
1000
0001
,
1000
0000
0100
0010
0001
0000
0000
1000
0010
0000
0100
0000
0010
0000
0001
0000
,
0000
0010
1000
0100
0010
0001
1000
0010
,
1000
0100
1000
0100
1000
0100
0001
0100
,
1000
0000
0000
0010
1000
0000
0000
1000
0002
0000
0000
0000
0103
0010
1000
0000
,
0001
0000
0010
0000
0100
0000
1000
0002
0000
0000
0103
0000
0010
0000
1000
0200
,
0000
0000
0310
0000
0001
0000
1000
0020
0000
0000
0130
0000
0001
0000
0010
0000
,
0100
0000
1000
0000
0001
0000
0100
0020
0000
0000
1030
0000
0100
0000
1000
0200
,
0000
0000
0310
0000
0001
0000
1000
0020
0000
0000
0130
0000
0001
0000
1000
0000
,
0001
0000
0010
0000
0100
0000
1000
0002
0000
0000
0103
0000
0010
0000
1000
0002
,
0000
0000
1003
0000
0010
0000
0100
0020
0000
0000
1030
0000
0001
0000
0010
0200
,
0000
0000
0310
0000
0001
0000
1000
0020
0000
0000
0130
0000
0001
0000
1000
0000
,
0001
0100
0001
0010
0100
1000
0001
0000
,
1001
0000
0000
0000
1000
0000
0100
00M0
0100
0000
0001
0000
0010
0000
0001
0000
,
1000
0000
0000
0000
0001
0000
0010
0M00
0010
0000
1000
0000
0001
0000
0100
0000
,
0001
0000
0000
0000
1000
0000
0010
0M00
0010
0000
0001
0000
1000
0000
0010
0000
,
0100
0000
0101
0000
0001
0100
0010
1000
,
0001
0000
0001
0000
1000
0000
0100
00M0
0100
0000
0001
0000
0010
0000
0100
0000
,
1000
0000
0001
0000
1000
0000
0100
00M0
0100
0000
0001
0000
1000
0000
0010
0000
,
0100
0001
0010
0100
1000
0010
0100
0001
,
1000
0001
1000
0000
,
2200
0000
0000
0000
,
3300
0000
0000
0000
;

//--------------- dance-single - XMOD- FS+ XO BU SJ JA ----------------
#NOTES:
     dance-single:
     XMOD- FS+ XO BU SJ JA:
     Challenge:
     17:
     0.568,0.509,0.186,0.065,0.228:
0000
0000
0000
0000
,
0000
0000
0000
0000
,
0000
0000
0000
0000
,
0000
0000
0000
0000
0001
0000
1000
0000
0100
0000
0010
0000
0001
0000
1000
0010
,
1000
0000
0100
0000
1000
0000
0001
0000
0100
00M0
0100
1000
0001
0000
1000
0000
,
0100
0000
0010
0000
0002
0000
1003
0100
1000
0000
0100
0000
0010
0000
0010
0001
,
1000
0000
0001
0000
2000
0000
3010
0100
0001
0000
1000
0000
0100
0000
0100
0010
,
0001
0000
0100
0000
0002
0000
1003
0100
1000
0000
0001
0000
0010
0000
0010
0001
,
1000
0000
0010
0000
0200
0000
0301
1000
0002
0000
0023
0000
0031
0000
1000
0000
,
1001
0000
0001
0010
0200
0000
1300
0001
1000
0000
0001
0000
0010
0M00
0010
1000
,
0001
0000
1000
0000
0002
0000
1003
0100
0010
0000
0001
0000
0100
00M0
0100
1000
,
0001
0000
1000
0000
0020
0000
0130
0001
1000
0000
0001
0000
0010
0M00
0010
1000
,
0001
0000
1000
0000
0200
0000
1300
0001
0010
M000
0010
1000
0001
0000
0010
0100
,
1000
0010
1000
0000
0002
0000
1003
0100
0010
0000
0001
0000
0100
00M0
0100
1000
,
0001
0000
1000
0000
0020
0000
1030
0001
0010
0000
0001
0000
0100
0000
0010
1000
,
0001
0010
0100
1000
0001
0100
0010
1000
0001
0010
0100
1000
0001
0100
0010
1000
,
0001
0000
1000
0000
0100
0100
2000
3000
,
1MM1
0000
1000
0001
2000
0000
3100
0010
0001
1000
0001
0010
1000
0010
0100
1000
,
0002
0000
0000
0000
1003
0000
0100
0000
0001
0000
0100
0000
0010
0000
0001
0000
1000
0000
0100
0000
1000
0000
0010
0000
0100
0000
0000
0000
0001
1000
0001
1000
,
0001
0000
1000
0000
0100
0000
0010
0000
1000
0000
0010
0000
0001
0000
1000
0000
0001
0000
1000
0010
1000
0000
0100
0000
0010
0000
0001
0000
0100
0000
0010
0000
,
2000
0000
0000
0000
3001
0000
0010
0000
0012
0000
0000
0000
1003
0000
0100
0000
0020
0000
0000
0000
0031
0000
1000
0000
1001
0000
0000
0000
0001
0100
0001
0100
,
0001
1000
0001
0100
2000
0000
3100
0001
1000
0100
1000
0010
0100
0001
0100
0001
,
1000
0000
0100
0000
0010
0000
0100
0000
0002
0000
0000
0000
0103
0000
1000
0000
0002
0000
0000
0000
1003
0000
0000
0000
1100
0000
0000
0000
0100
0010
0100
0010
,
0001
0000
1000
0000
0001
0000
0100
0000
2000
0000
0000
0000
3100
0000
0001
0000
1000
0000
0001
0010
0001
0000
1000
0000
0001
0000
0010
0000
0001
0000
0010
0000
,
0001
0100
0010
1000
0002
0000
1003
0200
0320
0000
0031
0000
1000
0100
0010
0001
,
1000
1000
0000
0001
2001
0000
3001
0100
0010
1000
0100
0010
0001
1000
0001
1000
,
0100
0000
0100
0000
0000
0000
0010
0000
0002
0000
0000
0000
0023
0000
0000
0000
0032
0000
0000
0000
1003
0000
0010
0M00
0010
0000
0001
0000
1000
0001
1000
0001
,
1000
0000
0100
0000
0000
0000
0010
0000
0012
0000
0000
0000
1003
0000
0100
0000
1000
0000
0001
0010
0001
0000
0100
00M0
0100
0000
1000
0000
0001
0000
1000
0000
,
0010
0000
0010
0000
0000
0000
1000
0000
1001
0000
0000
0000
0001
0000
0000
0000
1000
0000
0000
0000
0001
0000
0100
00M0
0100
0000
1000
0000
0001
1000
0001
1000
,
0100
0000
0010
0000
0000
0000
0001
0000
2001
0000
0000
0000
3001
0000
0010
0000
0200
0000
0000
0000
1300
0000
0010
000M
0020
0000
0000
0000
0031
0000
1000
0000
,
0100
0000
0100
0000
0000
0000
1000
0000
1002
0000
0000
0000
0013
0000
0000
0000
2000
0000
0000
0000
3001
0000
0010
0M00
0010
0000
1000
0000
0001
0100
0001
0100
,
0001
1000
0000
0001
2001
0000
3010
0000
0100
0100
0000
0001
0201
0000
0310
0000
,
1000
0100
1000
0100
0010
0001
0010
0001
1000
0100
0010
0001
1000
0000
0010
0000
,
1M1M
0000
1000
0000
0001
0000
1000
0010
0100
0000
0001
0000
1000
0100
0010
0000
,
0001
1000
1002
0103
2001
3010
1000
0001
,
1000
0000
0100
0000
0001
0000
0100
1000
0001
0000
0100
0000
0010
0000
0010
0000
,
1000
0000
0010
0000
1010
0000
1000
0010
0100
0000
0001
0100
0010
0000
1000
0000
,
1001
0000
0001
0100
0020
0000
0000
1030
0001
0000
0100
0000
0010
0000
0001
0000
,
0010
0000
0100
0000
0101
0000
0001
0000
1001
0000
1000
0010
0100
0000
0001
0000
,
1001
0000
1000
0001
2000
0000
0000
3100
0010
0000
0001
0000
1000
0001
1000
0000
,
1001
0000
0000
0001
0010
0000
0000
0001
1000
0000
0001
0000
0100
0010
1000
0000
,
1001
0000
0010
0000
1010
0000
0M00
0010
0001
0000
1000
0000
0001
0010
0100
0000
,
1000
0000
0001
1000
0010
0M00
0010
0001
0100
00M0
0100
1000
0001
0000
0010
0000
,
0001
0000
1000
0001
0100
0000
00M0
0100
1000
0000
0001
0000
1000
0001
0100
0000
,
0010
0000
1000
0000
1010
0000
0010
1000
0010
0M00
0010
0001
1000
0000
0001
0000
,
0101
0000
00M0
0100
1000
0000
0001
1000
0010
0M00
0010
0001
1000
0000
0010
0000
,
0100
0001
1002
1003
0100
0010
0001
0001
,
0101
0000
00M0
0100
1000
0000
0001
1000
0001
0000
0010
0100
1000
0001
1000
0000
,
1001
0000
0001
0000
1000
0000
0100
0000
0001
0000
0100
0000
1000
0001
1000
0000
,
1010
0000
0010
0000
1000
0000
0100
0010
0001
0000
1000
0000
0010
0000
0100
0001
,
0100
0000
0000
0000
0001
0000
0000
0000
0010
0000
0000
0000
0001
0000
1000
0000
0001
0000
0000
0000
1000
0000
0000
0000
1000
0000
0000
0000
0100
00M0
0100
0000
,
0001
0000
1000
0000
0100
0000
1000
0001
1000
0000
0001
0000
0100
0000
0010
1000
,
0010
0000
0000
0000
1000
0000
0000
0000
1000
0000
0000
0000
0001
0000
1000
0000
0001
0000
0000
0000
0100
00M0
0100
0000
1000
0000
0000
0000
0001
0000
0100
0000
,
0010
0000
1000
0000
0100
0000
0010
0001
1000
0000
0001
0000
0100
0000
0010
1000
,
0001
0000
1000
0000
0100
0000
0010
0001
1000
0000
0001
0000
1000
0000
0001
0010
,
0001
0000
1000
0000
0100
0000
0010
0001
1000
0000
0001
0000
0100
0000
0010
1000
,
0001
0000
1000
0000
0010
0000
1000
0001
1000
0000
0001
0000
1000
0100
1000
0000
,
1001
0000
0000
0000
0001
0000
0000
0000
0100
0000
0000
0000
1000
0000
0100
00M0
0100
0000
0000
0000
1000
0000
0000
0000
0001
0000
0000
0000
0100
0000
0010
0000
,
0100
0000
0000
0000
0001
0000
0000
0000
0010
0000
0000
0000
1000
0000
0010
000M
0010
0000
0000
0000
1000
0000
0000
0000
0001
0000
0000
0000
0100
0000
0010
0000
,
1000
0000
0000
0000
0001
0000
0000
0000
0100
0000
0000
0000
1000
0000
0100
00M0
0100
0000
0000
0000
1000
0000
0000
0000
0001
0000
0000
0000
1000
0000
0010
0000
,
0100
0000
0000
0000
0001
0000
0000
0000
0010
0000
0000
0000
1000
0000
0010
000M
0010
0000
0000
0000
0100
0000
0001
0000
1000
0000
0000
0000
0001
0000
0010
0000
,
0100
0000
1000
0000
0100
0000
0001
0100
0010
0000
0001
0000
0100
0000
0010
1000
,
0010
0000
0100
0000
0010
0000
0001
0010
0100
0000
0001
0000
1000
0000
0001
1000
,
0001
0010
0100
1000
0001
0100
0010
1000
0001
0010
0100
1000
0001
0100
0010
1000
,
0020
0000
0030
0000
,
2002
0000
0000
0000
,
3003
0000
0000
0000
;

//--------------- dance-double - FS XO ----------------
#NOTES:
     dance-double:
     FS XO:
     Hard:
     14:
     0,0,0,0,0:
00000000
00000000
00000000
00000000
,
00000000
00000000
00000000
00000000
,
00000000
00000000
00000000
00000000
,
00000000
00000000
00001000
01000000
00100000
10000000
00010000
01000000
,
00010000
00000000
01010000
00000000
00010000
01000000
00000000
00010000
,
10000000
00000000
01000000
00100000
00010000
00001000
00000100
00000010
,
00000000
00000000
00000100
00001000
00000001
00000100
00000010
00001000
,
00000000
00000000
00000100
00001000
00010000
00001000
00000100
00010000
,
00000000
00000000
00011000
00000000
00001000
00100000
00000000
00100000
,
01100000
00000000
01000000
10000000
01000000
00010000
01000000
00100000
,
00010000
00000000
00001000
00000100
00000001
00000100
00001000
00000010
,
00001000
00000000
00000001
00000100
00000010
00000001
00000010
00000100
,
00000001
00000000
00001000
00000000
00000100
00001000
000M0000
00001000
,
00100000
00000000
00010000
01000000
10000000
01000000
00100000
10000000
,
00010000
00000000
10000000
00100000
01000000
00010000
00100000
00001000
,
00010000
00000001
00001000
00000010
00000001
00000010
00000100
00000001
,
00001000
00000000
00000100
00000000
00010000
00010000
00000000
00001000
,
M001100M
00000000
00010000
00000000
00002000
00000000
00000000
00000000
01003000
00000000
00100000
10000000
00010000
00000000
10000000
00000000
,
01000000
00000000
00100000
00010000
00100000
00000000
00001000
00000000
00010000
00000100
00010000
00000000
00000010
00000000
00001000
00000100
,
00000010
00000000
00000001
00001000
00000020
00000000
00000000
00000000
00001030
00000100
00000010
00000000
00000001
00000000
00001000
00000000
,
00000001
00000000
00001000
00000100
00000010
00000000
00000100
00000000
00001000
00000000
00000100
00010000
00000100
00000000
00010000
00001000
,
01000000
00000000
00010000
00100000
02000000
00000000
00000000
00000000
13000000
00000000
00010000
10000000
01000000
00000000
00100000
00000000
,
00001000
00000000
00010000
00000000
00001000
00000000
00000010
00000100
00000010
00000000
00001000
00000000
00000100
00000000
00000010
00000100
,
00001000
00000000
00000001
00001000
00000200
00000000
00000000
00000000
00001300
00000010
00001000
00000100
00001000
00000000
00000010
00000000
,
00010000
00001000
00010000
00000100
00010000
00000000
00001000
00000000
00100000
00000000
00010000
00000000
10000000
01000000
00100000
00010000
,
10000000
01000000
00M00000
01000000
00020000
00000000
00000000
00000000
00130000
00000000
00001000
00010000
00001000
00000000
00010000
00000000
,
00000010
00001000
00000M00
00001000
00010000
00000000
00001000
00000000
00010000
00000000
00000010
00001000
00000000
00000010
00000100
00000000
,
00000010
00000100
0000000M
00000100
00002000
00000000
00000000
00000000
00003100
00000000
00010000
00000000
00001000
00000000
01000000
00100000
,
01000000
00100000
000M0000
00100000
00010000
00000000
01000000
00000000
00010000
00000000
10000000
01000000
00000000
00100000
00010000
00000000
,
00100000
00001000
000M0000
00001000
00000200
00000000
00000000
00000000
00001300
00000000
00000001
00000000
00001000
00000000
00000010
00000000
,
00001000
00000100
000000M0
00000100
00000001
00000000
00000010
00000000
00000100
00000000
00010000
00001000
00000000
00010000
00001000
01000000
,
00010000
01000000
00M00000
01000000
10000000
00000000
00010000
00000000
10000000
01000000
00M00000
01000000
00010000
00000000
00100000
00000000
,
00001000
00010000
00001000
00010000
00000100
00001000
00000100
00001000
00000001
00000100
00000010
00001000
00000001
00000000
00001000
00000000
,
00MM0001
00000000
00000010
00000000
00001000
00000000
00000000
00010000
01000000
00000000
10000000
00000000
00010000
00000000
10000000
00000000
,
00000000
00010000
10000000
01000000
00010000
01000000
00100000
00010000
,
10000000
00000000
00010000
00000000
01000000
00000000
00000000
00001000
00010000
00000000
00000010
00000000
00001000
00000000
00000001
00000000
,
00001000
00000100
00000001
00000100
00000010
00000100
00001000
00000001
,
00001000
00000000
00000000
00000100
00001000
00000000
00000000
00000100
00010000
00000000
00001000
00000000
00100000
00000000
00010000
00000000
,
00000000
10000000
01000000
00010000
01000000
00100000
01000000
10000000
,
00010000
00000000
00000000
00100000
00010000
00000000
00000000
10000000
00100000
00000000
01000000
00000000
00001000
00000000
00010000
00000000
,
00000100
00000000
00000010
00000000
00000100
00000000
00001000
00000000
00000001
00000000
00000000
00000000
00001000
00000010
00001000
00000000
,
00000001
00000000
00000010
00000000
00001000
00000000
00000000
00010000
01000000
00000000
10000000
00000000
00100000
00000000
01000000
00000000
,
00000000
10000000
00010000
00100000
00001000
00010000
00000010
00001000
,
00000001
00000000
00000000
00001000
00000100
00000000
00000000
00000010
00000001
00000000
00001000
00000000
00000010
00000000
00000100
00000000
,
00000000
00000001
00000100
00001000
00010000
01000000
10000000
00010000
,
10000000
00000000
00000000
00100000
10000000
00000000
00000000
01000000
00100000
00000000
00010000
00000000
00001000
00000000
00000100
00000000
,
00000000
00010000
00000010
00000100
00001000
00000100
00000001
00001000
,
00000001
00000100
00000010
00001000
00000100
00000010
00000001
00001000
,
00000001
00000000
00000000
00001000
00000100
00000000
00000000
00010000
00001000
00000000
00000000
00000000
00010000
00001000
00010000
00000000
,
00001000
00000000
00100000
00000000
00010000
00000000
10000000
01000000
00000000
00000000
00100000
00000000
00001000
00000000
00010000
00001000
,
00000000
00000000
00010000
00000000
00000010
00000000
00001000
00000001
00000000
00000000
00000010
00000000
00000100
00000000
00001000
00000100
,
00000000
00000000
00000010
00000000
00000001
00000000
00001000
00000010
00000000
00000000
00010000
00000000
00001000
00000000
00100000
00001000
,
00000000
00000000
00100000
00000000
00010000
00000000
10000000
01000000
00000000
00000000
00100000
00010000
00100000
00000000
00010000
10000000
,
00010000
00000000
10000000
00000000
01000000
00000000
00100000
00010000
00000000
00000000
00001000
00000000
00000100
00000000
00000010
00000001
,
00000000
00000000
00001000
00000000
00000010
00000000
00000100
00000001
00000000
00000000
00000100
00000000
00000010
00000000
00010000
00001000
,
00010000
00000000
00001000
00000000
01000000
00000000
00010000
10000000
00000000
00000000
00010000
00000000
10000000
00000000
01000000
00100000
,
00000000
00000000
00010000
00000000
00100000
00000000
00001000
00010000
00002000
00000000
00000000
00000000
01003000
00000000
00010000
00000000
,
10010000
00000000
10000000
00000000
00010000
00000000
00100000
00010000
00100000
00000000
00001000
00000000
00010000
00000000
00000100
00001000
,
00000100
00000000
00001000
00000000
00000001
00000000
00000010
00000100
00000010
00000000
00000001
00000000
00001000
00000000
00000010
00001000
,
00000010
00000000
00010000
00000000
00001000
00000000
00100000
00010000
00100000
00000000
00010000
00000000
00100000
00000000
01000000
10000000
,
01000000
00000000
00100000
00000000
00010000
00000000
00100000
00010000
00100000
00000000
00001000
00000000
00010000
00000000
00001000
00010000
,
00001000
00000000
00010000
00000000
00000010
00000000
00001000
00000001
00001000
00000000
00000001
00000000
00000010
00000000
00000100
00001000
,
00000100
00000000
00000010
00000000
00000100
00000000
00001000
00000100
00001000
00000000
00000100
00000000
00010000
00000000
00001000
00100000
,
00001000
01000000
00100000
10000000
00010000
10000000
01000000
00100000
,
00010000
10000000
01000000
00000000
,
22000000
00000000
00000000
00000000
,
33000000
00000000
00000000
00000000
;
