#VERSION:0.83;
#TITLE:Procrastination;
#SUBTITLE:;
#ARTIST:TonyAkita;
#TITLETRANSLIT:;
#SUBTITLETRANSLIT:;
#ARTISTTRANSLIT:;
#GENRE:DUE TECHNO;
#ORIGIN:;
#CREDIT:;
#BANNER:Procrastination.png;
#BACKGROUND:Procrastination-bg.png;
#PREVIEWVID:;
#JACKET:Procrastination-jacket.png;
#CDIMAGE:;
#DISCIMAGE:;
#LYRICSPATH:;
#CDTITLE:;
#MUSIC:Procrastination.mp3;
#OFFSET:-0.024430;
#SAMPLESTART:16.024000;
#SAMPLELENGTH:10.667000;
#SELECTABLE:YES;
#BPMS:0.000=360.000;
#STOPS:;
#DELAYS:;
#WARPS:;
#TIMESIGNATURES:0.000=4=4;
#TICKCOUNTS:0.000=4;
#COMBOS:0.000=1;
#SPEEDS:0.000=1.000=0.000=0;
#SCROLLS:0.000=1.000;
#FAKES:;
#LABELS:0.000=Song Start;
#BGCHANGES:;
#KEYSOUNDS:;
#ATTACKS:
;

//---------------dance-single - ----------------
#NOTEDATA:;
#CHARTNAME:;
#STEPSTYPE:dance-single;
#DESCRIPTION:;
#CHARTSTYLE:;
#DIFFICULTY:Challenge;
#METER:18;
#RADARVALUES:1.088995,1.207623,0.352734,0.362532,0.000000,778.000000,742.000000,36.000000,37.000000,0.000000,0.000000,0.000000,0.000000,0.000000,1.088995,1.207623,0.352734,0.362532,0.000000,778.000000,742.000000,36.000000,37.000000,0.000000,0.000000,0.000000,0.000000,0.000000;
#CREDIT:TonyAkita;
#NOTES:
0000
0000
0000
0000
,
0000
0000
0000
0000
,
0000
0000
0000
0000
,
0000
0000
0000
0000
,
0000
0000
0000
0000
,
0000
0000
0000
0000
,
2002
0000
0000
0000
,
0000
0000
0000
3003
,
1000
0000
0010
0000
1000
0001
0100
0001
,
0100
0010
1000
0010
1000
0000
0001
0000
,
0100
0000
0001
0000
0010
0100
1000
0100
,
1000
0100
0010
0100
0010
0000
0100
0000
,
1000
0000
0001
0000
0100
0010
1000
0010
,
1000
0001
0010
0100
1000
0001
0100
0010
,
2000
0001
0000
0001
,
0000
0001
0000
3001
,
0001
0000
0010
0000
0001
1000
0100
1000
,
0100
0001
0100
0001
0100
0000
1000
0000
,
0100
0000
1000
0000
0001
0100
1000
0100
,
1000
0100
0001
0100
0001
0000
1000
0000
,
0100
0000
0010
0000
0001
0100
0010
0100
,
0010
1000
0100
0010
0001
1000
0010
0100
,
0002
1000
0000
1000
,
0000
1000
0000
1003
,
1000
0000
0100
0000
0001
0100
0010
0001
,
1000
0010
0100
0001
1000
0000
0001
0100
,
0001
0000
0100
0000
1000
0100
0010
1000
,
0001
0010
0100
1000
0001
0000
1000
0100
,
1000
0100
0000
0000
0100
0001
0000
0000
,
1000
0010
0000
0000
0010
0001
0000
0000
,
0100
0010
0000
0000
0010
0100
0000
0000
,
0001
1000
0000
0000
1000
0001
1000
0001
,
0100
0000
1000
0000
0100
0001
0100
0010
,
1000
0001
0010
0100
1000
0000
0100
0010
,
0100
0000
0001
0000
0100
1000
0100
0010
,
0001
1000
0010
0100
0001
0000
0100
0010
,
0100
0010
0000
0000
0010
1000
0000
0000
,
1000
0100
0000
0000
0100
1000
0000
0000
,
1000
0001
0000
0000
0001
0010
0000
0000
,
0010
0001
0000
0000
0001
0100
0001
0100
,
0020
1000
0230
1000
,
0301
0100
0001
0000
0001
0010
0001
0000
,
0020
0001
0230
0001
,
1300
0100
1000
0000
1000
0010
1000
0000
,
0002
1000
0203
1000
,
0310
0100
0010
0000
0010
1000
0010
0000
,
2000
0001
3200
0001
,
0310
0100
0010
0000
0010
0001
0010
0000
,
0001
0001
0101
0101
,
0010
1000
0100
0000
0100
1000
0010
0000
,
1000
1000
1100
1100
,
0010
0001
0100
0000
0100
0001
0010
0000
,
0001
0001
0110
0110
,
1000
0100
0001
0000
0001
0100
1000
0000
,
1000
1000
0110
0110
,
0001
0100
1000
0000
1000
0100
0001
0000
,
1000
0000
0010
1000
0000
0010
1000
0000
,
0010
0100
0000
0001
0010
0100
1000
0000
,
0001
0000
0010
0001
0000
0010
0001
0000
,
1000
0100
1000
0100
0001
0100
0001
0100
,
1000
0000
0100
0010
0000
0100
0010
0000
,
0001
1000
0000
0000
0001
0100
0010
1000
,
0001
0010
0100
0010
0001
1000
0010
1000
,
0001
0100
0010
0100
0001
1000
0100
1000
,
0001
0000
0010
1000
0000
0010
1000
0000
,
0010
0001
0000
0000
1000
0010
0100
0001
,
1000
0000
0100
0001
0000
0100
0001
0000
,
0100
0010
0100
0010
0001
1000
0001
1000
,
0010
0000
0001
0010
0000
0001
0010
0000
,
1000
0001
0000
0000
1000
0100
0010
0001
,
1000
0010
0100
0010
1000
0001
0010
0001
,
1000
0100
0010
0100
1000
0001
0100
0001
,
1000
0000
0100
0010
0100
0010
0100
0000
,
0001
0000
0100
0010
0100
0010
0100
0000
,
1000
0000
0001
0100
0010
0100
0001
0000
,
1000
0000
0100
0010
0001
1000
0001
1000
,
0001
0000
0100
0010
0100
0010
0100
0000
,
1000
0000
0100
0010
0100
0010
0100
0000
,
0001
0000
1000
0100
0010
0100
1000
0000
,
0001
0000
0100
0010
1000
0001
1000
0001
,
1000
1000
1100
1100
,
0010
0001
0010
0001
0100
0001
0100
0001
,
0100
0100
0101
0101
,
0010
1000
0010
1000
0100
1000
0100
1000
,
0001
0001
0101
0101
,
1000
0100
0010
0100
1000
0100
0010
0100
,
1000
1000
1100
1100
,
0001
0100
0010
0100
0001
0100
0010
0100
,
0002
0000
0000
0000
,
0000
0000
0000
0000
,
0003
0000
0000
0000
,
0000
0000
0000
1001
,
2002
0000
0000
0000
,
0000
0000
0000
0000
,
3003
0000
0000
0000
,
0000
0000
0000
0000
,
1000
0100
0020
0000
1030
0020
0000
0000
,
0031
0010
0002
0000
1003
0002
0000
0000
,
0103
0010
2000
0000
3100
2000
0000
0000
,
3100
0010
0001
0000
1000
0001
0000
1000
,
0001
0100
0020
0000
0031
0020
0000
0000
,
1030
0100
2000
0000
3001
2000
0000
0000
,
3100
0010
0002
0000
0103
0002
0000
0000
,
0103
0010
0100
0000
0001
1000
0000
0001
,
0101
0001
1001
0001
,
0011
0000
0110
0000
,
1100
1000
1001
1000
,
1010
0000
0110
0001
,
2000
0000
0000
0000
,
0000
0000
0000
3000
,
1000
0100
1000
0100
0010
0001
0010
0001
,
0100
0010
0100
0010
1000
0001
1000
0001
,
1000
0000
0010
0000
0001
0010
0100
0001
,
1000
0100
0010
0001
1000
0000
0001
0010
,
0001
0000
0010
0000
1000
0010
0100
1000
,
0001
0100
0010
1000
0001
0000
1000
0100
,
0010
0001
0010
0001
1000
0001
1000
0001
,
0100
0001
0100
0001
1000
0100
0010
0001
,
1000
0010
1000
0010
1000
0001
1000
0001
,
1000
0100
1000
0100
1000
0000
0100
0010
,
0100
0000
0001
0000
0100
1000
0100
0010
,
0001
1000
0010
0100
0001
0000
0100
0010
,
0100
0000
1000
0000
0100
0001
0100
0010
,
1000
0001
0010
0100
1000
0000
0001
0100
,
0010
1000
0010
1000
0001
1000
0001
1000
,
0100
1000
0100
1000
0001
0010
0100
1000
,
0001
0010
0001
0010
0001
1000
0001
1000
,
0001
0100
0001
0100
0010
0000
1000
0001
,
0020
1000
0230
1300
,
0001
0100
0001
0100
0010
1000
0010
1000
,
0020
0001
0230
0301
,
1000
0100
1000
0100
0010
0001
0010
0001
,
0200
1000
0320
1030
,
0001
0010
0001
0010
1000
0010
1000
0010
,
0200
0001
0320
0031
,
1000
0010
1000
0010
0001
0010
0001
0010
,
1000
1000
1010
1010
,
0001
0100
0010
0100
0001
0100
0010
0100
,
0001
0001
0011
0011
,
1000
0100
0010
0100
1000
0100
0010
0100
,
1000
1000
0011
0011
,
0001
0100
0010
1000
0001
0100
0010
1000
,
0001
0001
1100
1100
,
1000
0100
0010
0001
1000
0100
0010
0001
,
0020
0000
0000
0030
,
1001
0000
0000
0000
;

//---------------dance-single - ----------------
#NOTEDATA:;
#CHARTNAME:;
#STEPSTYPE:dance-single;
#DESCRIPTION:;
#CHARTSTYLE:;
#DIFFICULTY:Medium;
#METER:15;
#RADARVALUES:0.806248,0.923476,0.127376,0.215559,0.000000,576.000000,563.000000,13.000000,22.000000,0.000000,0.000000,0.000000,0.000000,0.000000,0.806248,0.923476,0.127376,0.215559,0.000000,576.000000,563.000000,13.000000,22.000000,0.000000,0.000000,0.000000,0.000000,0.000000;
#CREDIT:TonyAkita;
#NOTES:
0000
0000
0000
0000
,
0000
0000
0000
0000
,
0000
0000
0000
0000
,
0000
0000
0000
0000
,
0000
0000
0000
0000
,
0000
0000
0000
0000
,
2002
0000
0000
0000
,
0000
0000
0000
3003
,
1000
0010
1000
0100
,
1000
0000
0010
0000
0100
0000
0001
0100
,
0001
0010
0001
0100
,
0001
0000
0010
0000
0100
0000
1000
0100
,
1000
0100
0001
0100
,
1000
0100
0010
0001
,
0020
0000
0000
0000
,
0000
0000
0000
0030
,
0001
0100
1000
0100
,
0001
0000
0100
0000
0010
0000
1000
0001
,
1000
0100
0001
0100
,
1000
0000
0100
0000
0010
0000
0001
1000
,
0001
0100
0010
1000
,
0001
0010
0100
1000
,
0020
0000
0000
0000
,
0000
0000
0000
0030
,
1000
0000
0100
0000
0001
0000
0100
0010
,
0001
0100
0001
1000
,
0100
0000
0010
0000
1000
0000
0010
0001
,
0100
0010
1000
0001
,
1000
0100
0000
0000
0100
0010
0000
0000
,
0010
0001
0000
0000
0001
1000
0000
0000
,
1000
0001
0000
0000
0001
0100
0000
0000
,
0100
0010
0000
0000
0010
1000
0000
0000
,
0001
0000
0100
0000
1000
0000
0100
0010
,
1000
0100
1000
0001
,
0100
0000
0010
0000
0001
0000
0010
1000
,
0100
0010
0001
1000
,
0001
0100
0000
0000
0100
0010
0000
0000
,
0010
1000
0000
0000
1000
0001
0000
0000
,
0001
1000
0000
0000
1000
0100
0000
0000
,
0100
0010
0000
0000
0010
0001
0000
0000
,
1000
0010
1000
0100
,
1000
0010
1000
0000
0001
0100
0001
0000
,
0001
0010
0001
0100
,
0001
0010
0001
0000
1000
0100
1000
0000
,
0100
0001
0100
1000
,
0001
0100
0001
0000
0001
0010
0001
0000
,
0100
1000
0100
0001
,
1000
0100
1000
0000
1000
0010
1000
0000
,
0001
0010
0100
1000
,
0001
0100
0010
0000
0010
0100
0001
0000
,
1000
0100
0010
0001
,
1000
0010
0100
0000
0100
0010
1000
0000
,
0001
0010
1000
0010
,
0100
1000
0010
0000
0010
1000
0100
0000
,
0001
0100
1000
0100
,
0010
0001
0100
0000
0100
0001
0010
0000
,
0002
0000
0000
0010
0000
0000
1000
0000
,
0000
0100
0000
0000
1003
0001
1000
0001
,
2000
0000
0000
0010
0000
0000
3001
0000
,
1000
0100
1000
0100
0010
0001
0010
0001
,
2000
0000
0000
0010
0000
0000
0001
0000
,
0000
0010
0000
0000
3001
1000
0001
1000
,
0001
0100
0010
1000
,
0001
0010
0100
1000
,
0020
0000
0000
0001
0000
0000
1000
0000
,
0000
0001
0000
0000
0130
0001
0100
0001
,
0020
0000
0000
1000
0000
0000
0001
0000
,
0130
1000
0100
1000
0010
1000
0010
1000
,
0020
0000
0000
0001
0000
0000
1000
0000
,
0000
0001
0000
0000
0130
0001
0100
0001
,
0010
0001
0100
0001
,
1000
0010
1000
0100
,
0011
0001
0100
0010
,
1000
0010
0100
0001
,
1010
1000
0100
0010
,
0001
0000
0010
0000
0100
1000
0100
1000
,
0001
0100
1000
0100
,
0001
0100
0010
1000
,
1100
0100
0001
0100
,
1000
0000
0100
0000
0010
0001
0010
0001
,
0100
0001
0010
0001
,
1000
0100
1000
0100
1000
0100
1000
0100
,
1000
0010
1000
0001
,
0100
0010
0100
0010
0100
0010
0100
0010
,
0100
1000
0100
0001
,
1000
0100
1000
0100
1000
0100
1000
0100
,
1000
0100
0001
0100
,
1000
0001
1000
0001
1000
0001
1000
0001
,
0020
0000
0000
0000
,
0000
0000
0000
0000
,
0030
0000
0000
0000
,
0000
0000
0000
0010
,
2002
0000
0000
0000
,
0000
0000
0000
0000
,
3003
0000
0000
0000
,
0000
0000
0000
0000
,
2000
0000
0001
0000
0000
0001
0000
0000
,
3002
0000
0010
0000
0000
0010
0000
0000
,
0023
0000
1000
0000
0000
1000
0000
0000
,
1030
0010
0000
0011
,
0002
0000
1000
0000
0000
1000
0000
0000
,
2003
0000
0010
0000
0000
0010
0000
0000
,
3020
0000
0001
0000
0000
0001
0000
0000
,
0031
0010
0000
1010
,
1000
0100
0010
0001
,
0110
0000
1001
0000
,
0001
0100
0010
1000
,
0110
0000
1001
0000
,
0220
0000
0000
0000
,
0330
0000
0000
0000
,
1000
0010
1000
0010
,
0100
0001
0100
0001
,
1000
0000
0100
0000
0001
0000
0100
0010
,
0001
0100
0001
1000
,
0010
0000
0100
0000
1000
0000
0100
0001
,
0010
0100
1000
0001
,
1000
0100
0000
0000
0100
0010
0000
0000
,
0010
0001
0000
0000
0001
1000
0000
0000
,
1000
0001
0000
0000
0001
0100
0000
0000
,
0100
0010
0000
0000
0010
1000
0000
0000
,
0001
0000
0100
0000
1000
0000
0100
0010
,
1000
0100
1000
0001
,
0010
0000
0100
0000
0001
0000
0100
1000
,
0010
0100
0001
1000
,
0001
0100
0000
0000
0100
0010
0000
0000
,
0010
1000
0000
0000
1000
0001
0000
0000
,
0001
1000
0000
0000
1000
0100
0000
0000
,
0100
0010
0000
0000
0010
0001
0000
0000
,
1000
0010
1000
0100
,
1000
0010
1000
0000
0001
0100
0001
0000
,
0001
0010
0001
0100
,
0001
0010
0001
0000
1000
0100
1000
0000
,
0100
0001
0100
1000
,
0001
0010
0001
0000
0001
0100
0001
0000
,
0100
1000
0100
0001
,
1000
0010
1000
0000
1000
0100
1000
0000
,
0001
0100
0010
1000
,
1000
0010
1000
0010
1000
0010
1000
0010
,
1000
0010
0001
0010
,
1000
0001
1000
0001
1000
0001
1000
0001
,
1000
0100
0010
0001
,
0001
0010
0001
0010
0001
0010
0001
0010
,
0001
0010
1000
0010
,
0001
1000
0001
1000
0001
1000
0001
1000
,
0020
0000
0000
0030
,
1001
0000
0000
0000
;

//---------------dance-single - ----------------
#NOTEDATA:;
#CHARTNAME:;
#STEPSTYPE:dance-single;
#DESCRIPTION:;
#CHARTSTYLE:;
#DIFFICULTY:Hard;
#METER:17;
#RADARVALUES:0.950421,1.136586,0.293945,0.166569,0.000000,679.000000,649.000000,30.000000,17.000000,0.000000,0.000000,0.000000,0.000000,0.000000,0.950421,1.136586,0.293945,0.166569,0.000000,679.000000,649.000000,30.000000,17.000000,0.000000,0.000000,0.000000,0.000000,0.000000;
#CREDIT:TonyAkita;
#NOTES:
0000
0000
0000
0000
,
0000
0000
0000
0000
,
0000
0000
0000
0000
,
0000
0000
0000
0000
,
0000
0000
0000
0000
,
0000
0000
0000
0000
,
2002
0000
0000
0000
,
0000
0000
0000
3003
,
1000
0000
0010
0000
1000
0100
1000
0100
,
1000
0001
0100
0001
,
0010
0000
0001
0000
0100
0010
0100
0010
,
0100
1000
0100
0001
,
1000
0000
0100
0000
0010
0001
0010
0001
,
0010
0000
0001
0000
0100
0000
0001
0010
,
0200
1000
0000
1000
,
0000
1000
0000
1300
,
0001
0000
0100
0000
1000
0100
0001
0100
,
0001
1000
0010
1000
,
0100
0000
0001
0000
0100
1000
0001
1000
,
0001
0100
0010
1000
,
0001
0000
0010
0000
1000
0010
0001
0010
,
0001
0000
1000
0000
0100
0000
1000
0010
,
0200
0001
0000
0001
,
0000
0001
0000
0301
,
1000
0000
0100
0000
0001
0000
0100
0010
,
0001
0000
0100
0000
0001
0100
0010
0100
,
0001
0000
0100
0000
1000
0000
0100
0010
,
1000
0000
0100
0000
1000
0100
0010
0100
,
1000
0100
0000
0000
0100
0001
0000
0000
,
1000
0010
0000
0000
0010
0001
0000
0000
,
0100
0010
0000
0000
0010
0100
0000
0000
,
0001
1000
0000
0000
1000
0001
0010
0000
,
0100
0000
0001
0000
0100
0000
1000
0001
,
0100
0000
0010
0000
0100
0001
0010
0001
,
0100
0000
1000
0000
0100
0000
0001
1000
,
0100
0000
0010
0000
0100
1000
0010
1000
,
0001
0100
0000
0000
0100
1000
0000
0000
,
0001
0010
0000
0000
0010
1000
0000
0000
,
0100
0010
0000
0000
0010
0100
0000
0000
,
1000
0001
0000
0000
0001
1000
0000
0000
,
0020
0001
0100
1030
,
0001
0100
0001
0000
0001
0010
0001
0000
,
0020
1000
0100
0031
,
1000
0100
1000
0000
1000
0010
1000
0000
,
0002
0100
1000
0013
,
0001
0010
0001
0000
1000
0100
1000
0000
,
2000
0100
0001
3010
,
1000
0010
1000
0000
0001
0100
0001
0000
,
0101
0001
0010
0001
,
1000
0100
0010
0000
0010
0100
1000
0000
,
1100
1000
0010
1000
,
0001
0100
0010
0000
0010
0100
0001
0000
,
0101
0010
1000
0001
,
1000
0100
0001
0000
0001
0100
1000
0000
,
1100
0010
0001
1000
,
0001
0100
1000
0000
1000
0100
0001
0000
,
0100
0000
0010
1000
0000
0010
0100
0000
,
0010
1000
0000
0000
0010
0100
0010
0100
,
0001
0000
1000
0100
0000
0010
0100
0000
,
1000
0100
0010
0001
,
0100
0000
0010
0100
0000
0001
0100
0000
,
0010
1000
0000
0000
0001
1000
0001
1000
,
0001
0000
1000
0100
0010
0100
1000
0000
,
1000
0000
0001
0100
0010
0100
0001
0000
,
1000
0000
0100
0001
0000
0100
1000
0000
,
0100
0010
0000
0000
0001
0010
0001
0010
,
0001
0000
0100
1000
0000
0100
0001
0000
,
0100
0010
0100
0001
,
1000
0000
0010
0001
0000
0010
1000
0000
,
0001
0010
0000
0000
0100
1000
0100
1000
,
0100
0000
1000
0100
0010
0100
1000
0000
,
1000
0000
0001
0100
0010
0100
0001
0000
,
0101
1000
0010
1000
,
0100
1000
0001
0010
,
1100
0001
0100
0001
,
0010
0000
0001
0000
1000
0001
1000
0001
,
1000
0100
0001
0100
,
1000
0100
0010
0001
,
0101
0100
1000
0100
,
0001
0000
1000
0000
0100
0010
0100
0010
,
0001
0001
0011
0011
,
1000
0100
1000
0100
1000
0010
1000
0010
,
1000
1000
1010
1010
,
0001
0100
0001
0100
0001
0010
0001
0010
,
0001
0001
1100
1100
,
1000
0100
0010
0100
1000
0100
0010
0100
,
1000
1000
0101
0101
,
0001
0100
0010
0100
0001
0100
0010
0100
,
0002
0000
0000
0000
,
0000
0000
0000
0000
,
0003
0000
0000
0000
,
0000
0000
0000
1001
,
2002
0000
0000
0000
,
0000
0000
0000
0000
,
3003
0000
0000
0000
,
0000
0000
0000
0000
,
1000
0100
1000
0000
0100
0001
0000
0000
,
0100
0010
0001
0000
1000
0001
0000
0000
,
0001
0100
0001
0000
0100
1000
0000
0000
,
0100
0010
1000
0000
0001
1000
0000
0000
,
0001
0010
0100
0000
0001
0100
0000
0000
,
1000
0100
1000
0000
0010
1000
0000
0000
,
1000
0010
0100
0000
1000
0100
0000
0000
,
0001
0100
0001
0000
0010
0001
0000
0000
,
0011
0010
0110
0100
,
1100
0000
1001
0000
,
1010
0010
0110
0100
,
0101
0000
0001
1000
,
0020
0000
0000
0000
,
0030
0000
0000
0000
,
1000
0100
1000
0000
0001
0010
0001
0000
,
0100
0010
0100
0000
0010
0100
0010
0000
,
1000
0000
0100
0000
0001
0000
0100
0010
,
0001
0000
0010
0000
0001
0100
0010
0100
,
0001
0000
0100
0000
1000
0000
0100
0010
,
1000
0000
0010
0000
1000
0100
0010
0001
,
1000
0010
1000
0000
1000
0100
1000
0000
,
0001
0010
0001
0000
0001
0100
0001
0000
,
0100
0010
1000
0000
0001
0010
0100
0000
,
1000
0100
0001
0000
0100
0010
0100
0010
,
0100
0000
0001
0000
0100
0000
0010
0001
,
0100
0000
0010
0000
1000
0001
1000
0001
,
0100
0000
1000
0000
0100
0000
0010
1000
,
0100
0000
0010
0000
0001
1000
0001
1000
,
0010
0100
0001
0000
0010
0100
1000
0000
,
0001
0100
1000
0000
1000
0100
0001
0000
,
0100
0010
1000
0000
0100
0010
0001
0000
,
1000
0100
0001
0000
0100
0010
0100
0010
,
0200
0001
0010
1300
,
0001
0100
1000
0000
1000
0100
0001
0000
,
0200
1000
0010
0301
,
1000
0100
0001
0000
0001
0100
1000
0000
,
0002
0100
1000
0013
,
0100
1000
0010
0000
0010
1000
0100
0000
,
2000
0100
0001
3010
,
0100
0001
0010
0000
0010
0001
0100
0000
,
0101
0001
0010
0001
,
1000
0100
0010
0100
1000
0100
0010
0000
,
1100
1000
0010
1000
,
0001
0100
0010
0100
0001
0100
0010
0000
,
1010
0001
0010
1000
,
0010
0001
0100
0001
0010
0001
0100
0000
,
0011
1000
0010
0001
,
0010
1000
0100
1000
0010
1000
0100
0000
,
0020
0000
0000
0030
,
1001
0000
0000
0000
;

//---------------dance-single - ----------------
#NOTEDATA:;
#CHARTNAME:;
#STEPSTYPE:dance-single;
#DESCRIPTION:;
#CHARTSTYLE:;
#DIFFICULTY:Easy;
#METER:12;
#RADARVALUES:0.580891,0.710366,0.215559,0.303743,0.000000,415.000000,393.000000,22.000000,31.000000,0.000000,0.000000,0.000000,0.000000,0.000000,0.580891,0.710366,0.215559,0.303743,0.000000,415.000000,393.000000,22.000000,31.000000,0.000000,0.000000,0.000000,0.000000,0.000000;
#CREDIT:TonyAkita;
#NOTES:
// measure 0
0000
0000
0000
0000
,  // measure 1
0000
0000
0000
0000
,  // measure 2
0000
0000
0000
0000
,  // measure 3
0000
0000
0000
0000
,  // measure 4
0000
0000
0000
0000
,  // measure 5
0000
0000
0000
0000
,  // measure 6
2002
0000
0000
0000
,  // measure 7
3003
0000
0000
0000
,  // measure 8
1000
0000
0010
0000
,  // measure 9
1000
0000
0001
0100
,  // measure 10
0001
0000
0010
0000
,  // measure 11
0001
0000
1000
0100
,  // measure 12
0010
0000
1000
0000
,  // measure 13
0010
0000
0001
1000
,  // measure 14
0020
0000
0000
0000
,  // measure 15
0000
0000
0000
0000
,  // measure 16
0031
0000
0010
0000
,  // measure 17
1000
0000
0001
0010
,  // measure 18
1000
0000
0010
0000
,  // measure 19
0001
0000
1000
0010
,  // measure 20
1000
0000
0001
0000
,  // measure 21
0100
0000
0010
0100
,  // measure 22
0020
0000
0000
0000
,  // measure 23
0000
0000
0000
0000
,  // measure 24
1030
0100
0010
0100
,  // measure 25
1000
0001
0010
0001
,  // measure 26
0100
0010
0100
0001
,  // measure 27
0100
0010
1000
0001
,  // measure 28
0020
0000
1000
0000
,  // measure 29
0100
0000
0031
1000
,  // measure 30
0020
0000
0001
0000
,  // measure 31
0100
0000
1030
0010
,  // measure 32
1000
0100
0001
0100
,  // measure 33
1000
0001
0010
0001
,  // measure 34
0100
1000
0100
0001
,  // measure 35
1000
0010
1000
0001
,  // measure 36
0101
0000
0110
0000
,  // measure 37
1010
0000
1001
0000
,  // measure 38
1100
0000
0110
0000
,  // measure 39
0011
0000
1001
0000
,  // measure 40
1000
0010
1000
0010
,  // measure 41
0200
0000
0000
0300
,  // measure 42
0001
0010
0001
0010
,  // measure 43
0200
0000
0000
0300
,  // measure 44
1000
0010
1000
0100
,  // measure 45
0020
0000
0000
0030
,  // measure 46
0001
0100
0001
0010
,  // measure 47
0200
0000
0000
0300
,  // measure 48
0001
0100
1000
0001
,  // measure 49
0002
0000
0000
0003
,  // measure 50
0100
0001
0010
0001
,  // measure 51
0200
0000
0000
0300
,  // measure 52
1000
0100
0001
1000
,  // measure 53
2000
0000
0000
3000
,  // measure 54
0100
1000
0010
1000
,  // measure 55
0200
0000
0000
0300
,  // measure 56
1000
0000
0100
0000
,  // measure 57
0001
0000
0100
0010
,  // measure 58
0100
0000
0010
0000
,  // measure 59
0001
0100
0010
1000
,  // measure 60
0001
0000
0010
0000
,  // measure 61
1000
0000
0010
0100
,  // measure 62
1000
0010
1000
0010
,  // measure 63
0100
0001
0100
0001
,  // measure 64
1000
0000
0100
0000
,  // measure 65
1000
0000
0010
0100
,  // measure 66
0010
0000
0001
0000
,  // measure 67
0010
1000
0010
1000
,  // measure 68
0001
0000
0010
0000
,  // measure 69
1000
0000
0010
0100
,  // measure 70
1000
0010
1000
0010
,  // measure 71
0100
0001
0100
0001
,  // measure 72
1000
0100
0010
0100
,  // measure 73
1000
0100
1000
0000
,  // measure 74
0001
0100
0010
0100
,  // measure 75
0001
0100
0001
0000
,  // measure 76
1000
0100
0010
0001
,  // measure 77
0100
0010
0100
0000
,  // measure 78
0001
0100
0010
1000
,  // measure 79
0100
0010
0100
0000
,  // measure 80
2000
0100
0100
3100
,  // measure 81
0010
0001
0010
0001
,  // measure 82
0002
0100
0100
0103
,  // measure 83
0010
1000
0010
1000
,  // measure 84
0002
0010
0010
0013
,  // measure 85
0100
1000
0010
1000
,  // measure 86
2000
0010
0010
3010
,  // measure 87
0100
0001
0010
0001
,  // measure 88
0200
0000
0000
0000
,  // measure 89
0000
0000
0000
0000
,  // measure 90
0300
0000
0000
0000
,  // measure 91
0000
0000
0000
0100
,  // measure 92
0020
0000
0000
0000
,  // measure 93
0000
0000
0000
0000
,  // measure 94
0030
0000
0000
0000
,  // measure 95
0000
0000
0000
0000
,  // measure 96
1000
0010
0100
0000
,  // measure 97
1000
0100
1000
0000
,  // measure 98
0100
0001
0010
0000
,  // measure 99
0100
0001
0100
0000
,  // measure 100
0010
0100
0010
0000
,  // measure 101
0001
0010
0001
0000
,  // measure 102
1000
0010
1000
0000
,  // measure 103
0010
0100
0010
0000
,  // measure 104
1000
0100
0010
0001
,  // measure 105
0011
0000
0101
0000
,  // measure 106
0001
0100
0010
1000
,  // measure 107
1010
0000
1100
0000
,  // measure 108
0110
0000
0000
0000
,  // measure 109
0000
0000
0000
0000
,  // measure 110
0001
1000
0001
1000
,  // measure 111
0001
1000
0001
0000
,  // measure 112
1000
0010
0100
0010
,  // measure 113
1000
0001
0100
0001
,  // measure 114
0010
0100
0010
0001
,  // measure 115
1000
0100
1000
0001
,  // measure 116
0200
0000
1000
0000
,  // measure 117
0010
0000
0301
1000
,  // measure 118
0200
0000
0001
0000
,  // measure 119
0010
0000
1300
0100
,  // measure 120
1000
0010
0001
0010
,  // measure 121
1000
0001
0100
0001
,  // measure 122
0010
1000
0010
0001
,  // measure 123
1000
0100
1000
0001
,  // measure 124
0101
0000
0110
0000
,  // measure 125
1010
0000
1001
0000
,  // measure 126
0011
0000
0110
0000
,  // measure 127
1100
0000
1001
0000
,  // measure 128
0002
0100
0100
0103
,  // measure 129
0010
1000
0100
1000
,  // measure 130
2000
0100
0100
3100
,  // measure 131
0010
0001
0100
0001
,  // measure 132
0020
0100
0100
0130
,  // measure 133
0001
0100
1000
0010
,  // measure 134
0020
0100
0100
0130
,  // measure 135
1000
0100
0001
0010
,  // measure 136
0200
0001
0001
0301
,  // measure 137
0100
1000
0010
1000
,  // measure 138
2000
0010
0010
3010
,  // measure 139
0100
0001
0010
0001
,  // measure 140
0200
1000
1000
1300
,  // measure 141
0100
0001
0010
0001
,  // measure 142
0002
0010
0010
0013
,  // measure 143
0100
1000
0010
1000
,  // measure 144
0200
0000
0000
0000
,  // measure 145
0300
0000
0000
0000
;
