#VERSION:0.83;
#TITLE:Pop It Off;
#SUBTITLE:;
#ARTIST:Henry Fong X Vlien Boy ft. Lisa Mercedes;
#TITLETRANSLIT:;
#SUBTITLETRANSLIT:;
#ARTISTTRANSLIT:;
#GENRE:;
#ORIGIN:;
#CREDIT:;
#BANNER:Pop It Off.png;
#BACKGROUND:Pop It Off-bg.png;
#PREVIEWVID:;
#JACKET:Pop It Off-jacket.png;
#CDIMAGE:;
#DISCIMAGE:;
#LYRICSPATH:;
#CDTITLE:cdtitle.png;
#MUSIC:Pop It Off.ogg;
#OFFSET:-0.162000;
#SAMPLESTART:28.962000;
#SAMPLELENGTH:9.600000;
#SELECTABLE:YES;
#BPMS:0.000=100.000;
#STOPS:;
#DELAYS:;
#WARPS:;
#TIMESIGNATURES:0.000=4=4;
#TICKCOUNTS:0.000=4;
#COMBOS:0.000=1;
#SPEEDS:0.000=1.000=0.000=0;
#SCROLLS:0.000=1.000,
76.000=0.000,
78.000=0.500,
78.500=0.750,
79.000=1.000,
172.000=0.000,
174.000=0.500,
174.500=0.750,
175.000=1.000;
#FAKES:;
#LABELS:0.000=Song Start;
#LASTSECONDHINT:129.759995;
#BGCHANGES:;
#KEYSOUNDS:;
#ATTACKS:
;

//---------------dance-single - Pilgrimsito----------------
#NOTEDATA:;
#CHARTNAME:Pilgrimsito;
#STEPSTYPE:dance-single;
#DESCRIPTION:Pilgrimsito;
#CHARTSTYLE:;
#DIFFICULTY:Medium;
#METER:12;
#RADARVALUES:0.477746,0.601036,0.323635,0.392985,0.435366,434.000000,392.000000,42.000000,51.000000,0.000000,0.000000,0.000000,0.000000,0.000000,0.477746,0.601036,0.323635,0.392985,0.435366,434.000000,392.000000,42.000000,51.000000,0.000000,0.000000,0.000000,0.000000,0.000000;
#CREDIT:Pilgrimsito;
#NOTES:
0000
0000
0000
0000
,
0000
0000
0000
0000
,
0000
0000
0000
0000
,
0000
0000
0000
0000
,
0001
0000
1000
0100
1000
0000
0001
0000
1000
0000
0001
0100
0001
0000
1000
0000
,
0001
0000
1000
0010
1000
0000
0001
0000
1000
0000
0001
0010
0001
0000
1000
0000
,
0001
0000
0010
0100
1000
0000
0001
0000
1000
0000
0010
0100
0001
0000
1000
0000
,
0001
0000
0010
0100
1000
0000
1000
0000
0001
0100
0001
0100
0010
0000
1000
0000
,
1001
0000
0002
0003
0000
0000
2000
3000
0000
0000
0200
0300
0010
0000
0010
0000
,
0110
0000
0200
0300
0000
0000
2000
3000
0000
0000
0020
0030
0000
0000
0200
0300
,
0101
0000
0002
0003
0000
0000
2000
3000
0100
0000
0100
0000
0100
0000
2000
3000
,
1010
0000
0020
0030
0000
0000
0200
0300
0001
0000
0001
0000
0001
0000
2000
3000
,
2100
0000
0000
3010
0000
0000
0100
0000
0102
0000
0000
0013
0000
0000
0100
0000
,
1002
0000
0000
0103
0000
0000
0001
0000
2001
0000
0000
3100
0000
0000
1000
0000
,
2010
0000
0000
3100
0000
0000
0010
0000
0012
0000
0000
0103
0000
0000
0010
0000
,
1002
0000
0000
0013
0000
0000
0001
0000
2001
0000
0000
3010
0000
0000
1000
0000
,
1001
0000
0001
0001
1000
1000
0010
0010
,
0100
0100
0001
0001
1000
1000
0100
0100
,
1000
0010
1000
0010
0100
0001
0100
0001
0010
0100
0010
0100
1000
0001
1000
0001
,
1000
0000
0000
0000
0000
0000
0010
0010
,
1001
0000
0000
1000
0001
0000
0100
0000
0110
0000
0000
0001
1000
0000
0100
0000
,
0110
0000
0000
0010
0001
0000
1000
0000
1010
0000
0000
0010
1000
0000
0001
0000
,
0011
0000
0000
0001
1000
0000
0010
0000
0110
0000
0000
1000
0001
0000
0010
0000
,
0110
0000
0000
0100
1000
0000
0001
0000
0101
0000
0000
0100
0001
0000
1000
0000
,
0001
0000
0000
0010
0000
0000
0001
0000
0000
0000
0000
0000
2000
0000
3000
0000
0001
0000
0000
0100
0000
0000
0001
0000
0000
0000
0000
0000
2000
0000
3000
0000
,
0001
0000
0000
0010
0000
0000
0001
0000
0000
0000
0000
0000
2000
0000
3000
0000
0001
0000
0000
0100
0000
0000
0001
0000
0000
0000
0000
0000
0020
0000
0030
0000
,
0001
0000
0000
0100
0000
0000
0010
0000
0000
0000
0000
0000
0200
0000
0300
0000
0001
0000
0000
0010
0000
0000
0100
0000
0000
0000
0000
0000
0020
0000
0030
0000
,
0100
0000
0000
1000
0000
0000
0010
0000
0000
0000
0000
0000
0200
0000
0300
0000
0010
0000
0000
1000
0000
0000
0100
0000
0000
0000
0000
0000
0010
0000
0000
0000
,
0001
0100
1000
0000
1000
0100
0001
0000
,
0001
0010
0100
0010
0001
0100
0110
0000
,
0001
0010
1000
0000
1000
0010
0001
0000
,
0001
0100
0010
0100
0001
0010
0110
0000
,
0012
0000
0000
0103
0000
0000
0010
0000
2010
0000
0000
3100
0000
0000
0010
0000
,
2001
0000
0000
3010
0000
0000
1000
0000
1002
0000
0000
0013
0000
0000
0001
0000
,
0102
0000
0000
0013
0000
0000
0100
0000
2100
0000
0000
3010
0000
0000
0100
0000
,
2001
0000
0000
3100
0000
0000
1000
0000
1002
0000
0000
0103
0000
0000
0001
0000
,
1001
0000
1000
0100
0000
1000
0100
0000
0010
0000
0001
0100
0000
0001
0100
0000
,
0010
0000
1000
0001
0000
1000
0001
0000
0010
0000
0001
1000
0000
0001
1000
0000
,
0010
0000
1000
0100
0000
1000
0100
0000
0010
0000
0001
0100
0000
0001
0100
0000
,
0010
0000
1000
0001
0000
1000
0001
0000
0010
0000
0001
1000
0000
0001
1000
0000
,
1001
0000
1000
1000
0001
0001
0010
0010
,
0100
0100
1000
1000
0001
0001
0100
0100
,
0001
0010
0001
0010
0100
1000
0100
1000
0010
0100
0010
0100
0001
1000
0001
1000
,
0001
0000
0000
0000
0000
0000
0010
0010
,
1001
0000
0001
1000
0100
1000
0001
0000
0101
0000
0001
1000
0010
1000
0001
0000
,
0011
0000
0001
1000
0100
1000
0001
0000
0101
0000
0001
1000
0010
1000
0001
0000
,
1001
0000
1000
0001
0100
0001
1000
0000
1100
0000
1000
0001
0010
0001
1000
0000
,
1010
0000
0000
0000
1000
0000
0001
0000
0100
0000
0001
0000
1000
0000
0000
0000
1100
0000
0000
1000
0000
0000
0001
0000
1000
0000
0000
0000
0010
0000
0000
0000
,
1000
0000
0000
0100
0000
0000
0020
0000
0000
0030
0000
0000
0200
0000
0300
0000
1000
0000
0000
0010
0000
0000
0200
0000
0000
0300
0000
0000
0002
0000
0003
0000
,
1000
0000
0000
0100
0000
0000
0020
0000
0000
0030
0000
0000
0200
0000
0300
0000
1000
0000
0000
0010
0000
0000
0200
0000
0000
0300
0000
0000
0002
0000
0003
0000
,
1000
0000
0000
0100
0000
0000
0002
0000
0000
0003
0000
0000
0200
0000
0300
0000
1000
0000
0000
0010
0000
0000
0002
0000
0000
0003
0000
0000
0020
0000
0030
0000
,
1000
0000
0000
0100
0000
0000
0002
0000
0000
0003
0000
0000
0200
0000
0300
0000
1000
0000
0000
0010
0000
0000
0002
0000
0000
0003
0000
0000
0010
0000
0000
0000
,
0110
0000
0000
0000
;

//---------------dance-single - Pilgrimsito----------------
#NOTEDATA:;
#CHARTNAME:Pilgrimsito;
#STEPSTYPE:dance-single;
#DESCRIPTION:Pilgrimsito;
#CHARTSTYLE:;
#DIFFICULTY:Hard;
#METER:14;
#RADARVALUES:0.672587,0.761312,0.816792,0.508569,0.697355,611.000000,505.000000,106.000000,66.000000,7.000000,0.000000,0.000000,0.000000,0.000000,0.672587,0.761312,0.816792,0.508569,0.697355,611.000000,505.000000,106.000000,66.000000,7.000000,0.000000,0.000000,0.000000,0.000000;
#CREDIT:Pilgrimsito;
#NOTES:
// measure 0
0000
0000
0000
0000
,  // measure 1
0000
0000
0000
0000
,  // measure 2
0000
0000
0000
0000
,  // measure 3
0000
0000
0000
0000
,  // measure 4
1100
0000
1000
0010
0100
0000
0001
0000
1010
0000
1000
0100
0010
0000
0001
0000
,  // measure 5
1100
0000
1000
0010
0100
0000
0001
0000
1000
1000
0001
1000
0100
0000
0010
0000
,  // measure 6
0011
0000
0001
1000
0010
0000
0100
0000
0101
0000
0001
1000
0100
0000
0010
0000
,  // measure 7
0011
0000
0001
1000
0010
0000
1000
0000
0001
0001
1000
0001
0010
0000
0100
0000
,  // measure 8
1001
0000
0000
2000
0000
3010
1000
0100
0010
0100
1000
0010
0100
0000
0100
0000
,  // measure 9
0101
0000
0000
0000
0001
0000
0010
0000
0001
0000
0000
0001
0000
0000
1000
0000
0100
0000
0000
0100
0000
0000
1000
0000
0020
0000
0030
0000
0100
0000
0001
0000
,  // measure 10
1001
0000
0000
0000
0000
0000
1000
0000
0100
0000
0000
0100
0000
0000
1000
0000
0002
0000
0000
0000
0010
0000
0000
0000
1000
0000
0000
0000
0103
0000
0000
0000
,  // measure 11
0011
0000
0000
0000
0000
0000
0000
0000
1000
0000
0000
1000
0000
0000
0100
0000
2000
0000
0000
0000
0010
0000
0000
0000
0001
0000
0000
0000
3100
0000
0000
0000
,  // measure 12
1001
0000
1000
0100
0000
1000
0010
0000
0210
0300
0002
0003
2000
3000
0010
0000
,  // measure 13
1100
1000
0002
0003
0001
0100
0010
0100
0101
0000
0001
0001
2000
3000
0100
0010
,  // measure 14
0001
0000
1000
0000
0000
0000
1000
0000
0010
0000
0000
0010
0000
0000
1000
0000
1001
0000
0000
0000
0110
0000
0000
0000
2001
0000
0000
0000
3100
0000
0000
0000
,  // measure 15
1000
0000
0010
0000
0000
0000
0100
0000
0001
0000
0000
0001
0000
0000
0010
0000
1001
0000
0000
0000
0110
0000
0000
0000
1002
0000
0000
0000
0103
0000
0000
0000
,  // measure 16
1001
0000
1000
0100
0010
0000
0010
0100
1000
0001
1000
0000
0001
0000
0001
0000
,  // measure 17
0100
0000
0100
0001
0010
0100
0010
0001
0100
0010
1000
0100
1000
0000
1000
0000
,  // measure 18
0001
0100
0010
1000
0100
0001
0100
1000
0010
0100
0001
0010
1000
0010
0001
0100
,  // measure 19
1000
0000
0000
0000
0000
0000
0100
0100
,  // measure 20
1010
0020
0000
0130
0001
0000
0010
0000
0011
0020
0000
0130
1000
0000
0010
0000
,  // measure 21
0101
0200
0000
0310
1000
0000
0100
0000
1100
0200
0000
0310
0001
0000
0100
0000
,  // measure 22
1010
0020
0000
0031
0010
0000
1000
0000
1100
0200
0000
0301
0100
0000
1000
0000
,  // measure 23
1010
0020
0000
0031
0010
0000
1000
0000
1100
0200
0000
0301
0100
0000
1000
0000
,  // measure 24
0101
0000
0000
0001
0000
0000
0011
0000
0011
0000
0000
0000
2002
0000
3003
0000
1100
0000
0000
1000
0000
0000
1010
0000
1010
0000
0000
0000
2002
0000
3003
0000
,  // measure 25
0101
0000
0000
0100
0000
0000
0110
0000
0110
0000
0000
0000
2002
0000
3003
0000
1100
0000
0000
0100
0000
0000
0110
0000
0110
0000
0000
0000
2002
0000
3003
0000
,  // measure 26
1010
0000
0000
1000
0000
0000
1100
0000
1100
0000
0000
0000
2002
0000
3003
0000
0011
0000
0000
0001
0000
0000
0101
0000
0101
0000
0000
0000
2002
0000
3003
0000
,  // measure 27
1010
0000
0000
0010
0000
0000
0110
0000
0110
0000
0000
0000
2002
0000
3003
0000
0011
0000
0000
0010
0000
0000
0110
0000
0110
0000
0000
0000
0100
0000
0000
0000
,  // measure 28
1001
0000
0001
0100
1000
0000
0100
0000
0001
0000
1000
0100
0001
0000
0100
0000
,  // measure 29
1000
0000
0001
0010
0100
0000
1000
0010
0100
0010
1000
0000
1100
0000
0100
0000
,  // measure 30
1000
0000
0001
0010
1000
0000
0010
0000
0001
0000
1000
0010
0001
0000
0010
0000
,  // measure 31
1000
0000
0001
0100
0010
0000
1000
0100
0010
0100
1000
0000
1010
0000
0010
0000
,  // measure 32
1001
0000
0000
2000
0000
3100
1000
0010
0100
0010
1000
0100
0010
0000
0010
0000
,  // measure 33
0011
0000
0000
0000
0001
0000
0100
0000
0001
0000
0000
0001
0000
0000
1000
0000
0010
0000
0000
0010
0000
0000
1000
0000
0200
0000
0300
0000
0010
0000
0001
0000
,  // measure 34
1000
0000
0001
0000
0000
0000
1000
0000
0010
0000
0000
0010
0000
0000
1000
0000
1001
0000
0000
0000
0110
0000
0000
0000
1002
0000
0000
0000
0013
0000
0000
0000
,  // measure 35
0001
0000
1000
0000
0000
0000
1000
0000
0100
0000
0000
0100
0000
0000
1000
0000
1001
0000
0000
0000
0110
0000
0000
0000
2001
0000
0000
0000
3010
0000
0000
0000
,  // measure 36
1001
0000
1000
0010
0000
1000
0100
0000
0120
0030
0002
0003
2000
3000
0100
0000
,  // measure 37
1010
1000
0002
0003
0001
0010
0100
0010
0011
0000
0001
0001
2000
3000
0010
0100
,  // measure 38
0001
0000
1000
0000
0000
0000
1000
0000
0100
0000
0000
0100
0000
0000
1000
0000
1010
0000
0000
0000
0101
0000
0000
0000
2010
0000
0000
0000
3001
0000
0000
0000
,  // measure 39
1000
0000
0010
0000
0000
0000
1000
0000
0001
0000
0000
0001
0000
0000
0010
0000
0011
0000
0000
0000
1100
0000
0000
0000
0012
0000
0000
0000
1003
0000
0000
0000
,  // measure 40
1001
0000
0001
0100
0010
0000
0010
0100
0001
1000
0001
0000
1000
0000
1000
0000
,  // measure 41
0100
0000
0100
1000
0010
0100
0010
1000
0100
0010
0001
0100
0001
0000
0001
0000
,  // measure 42
1000
0100
0010
0001
0100
1000
0100
0001
0010
0100
1000
0010
0001
0010
1000
0100
,  // measure 43
0001
0000
0000
0000
0000
0000
0100
0100
,  // measure 44
1001
0000
1000
0100
M100
0001
0010
0000
1001
0000
0001
0100
010M
1000
0010
0000
,  // measure 45
1001
0000
1000
0010
M010
0001
0100
0000
1001
0000
0001
0010
001M
1000
0100
0000
,  // measure 46
1001
0000
0001
0100
010M
0010
0001
0000
1001
0000
1000
0100
M100
0010
1000
0000
,  // measure 47
1001
0000
0000
0000
0001
0000
0100
0000
010M
0000
0010
0000
0001
0000
0000
0000
1001
0000
0000
0001
0000
0000
1000
0000
1000
0000
0000
0000
0100
0000
0000
0000
,  // measure 48
0012
0000
0000
1000
0000
0000
0100
0000
0103
0000
0000
0000
2002
0000
3003
0000
2010
0000
0000
0001
0000
0000
0100
0000
3100
0000
0000
0000
2002
0000
3003
0000
,  // measure 49
0201
0000
0000
1000
0000
0000
0010
0000
0310
0000
0000
0000
2002
0000
3003
0000
1200
0000
0000
0001
0000
0000
0010
0000
0310
0000
0000
0000
2002
0000
3003
0000
,  // measure 50
2100
0000
0000
0001
0000
0000
0010
0000
3010
0000
0000
0000
2002
0000
3003
0000
0102
0000
0000
1000
0000
0000
0010
0000
0013
0000
0000
0000
2002
0000
3003
0000
,  // measure 51
1020
0000
0000
0001
0000
0000
0100
0000
0130
0000
0000
0000
2002
0000
3003
0000
0021
0000
0000
1000
0000
0000
0100
0000
0130
0000
0000
0000
0010
0000
0000
0000
,  // measure 52
1001
0000
0000
0000
;
