#TITLE:Poison;
#SUBTITLE:(from Hazbin Hotel);
#ARTIST:Blake Roman;
#MUSIC:Poison.ogg;
#BANNER:;
#BACKGROUND:;
#LYRICSPATH:;
#CDTITLE:;
#SAMPLESTART:37.767;
#SAMPLELENGTH:16;
#OFFSET:-0.164;
#BPMS:0.000=150.000;
#STOPS:;
#TIMESIGNATURES:;
#BGCHANGES:;
#FGCHANGES:;
#ATTACKS:;

//---------------dance-single - D0omsday---------------
#NOTES:
     dance-single:
     D0omsday:
     Beginner:
     3:
     0,0,0,0,0:
// measure 0
0000
0000
0000
0000
,  // measure 1
0000
0000
0000
0000
,  // measure 2
0000
0000
0000
0000
,  // measure 3
0000
0000
0000
0000
,  // measure 4
1000
0000
0000
0000
,  // measure 5
0010
0000
0000
0000
,  // measure 6
0100
0000
0000
0000
,  // measure 7
0001
0000
0000
0000
,  // measure 8
1000
0000
0000
0001
,  // measure 9
0000
0000
0010
0000
,  // measure 10
0001
0000
0000
1000
,  // measure 11
0000
0020
0000
0030
,  // measure 12
0100
0000
0000
0000
,  // measure 13
0001
0000
0000
0000
,  // measure 14
0010
0000
0000
0000
,  // measure 15
0100
0000
0000
0000
,  // measure 16
1000
0000
0000
0001
,  // measure 17
0000
0000
0100
0000
,  // measure 18
0001
0000
0000
1000
,  // measure 19
0000
0200
0000
0300
,  // measure 20
0010
0000
0010
0000
,  // measure 21
0001
0000
0001
0000
,  // measure 22
1000
0000
0001
0000
,  // measure 23
1000
0000
0000
0000
,  // measure 24
0010
0000
0110
0000
,  // measure 25
1000
0000
1001
0000
,  // measure 26
0001
0000
0010
0000
,  // measure 27
0100
0000
0000
0000
0000
0000
0000
0010
,  // measure 28
0000
0000
0110
0000
,  // measure 29
0001
0000
1001
0000
,  // measure 30
1000
0000
0000
0000
,  // measure 31
0001
0000
0000
0000
,  // measure 32
2000
0000
3200
0000
,  // measure 33
0302
0000
0023
0000
,  // measure 34
1030
0000
0000
0000
,  // measure 35
0001
0000
0000
0000
,  // measure 36
2000
0000
3020
0000
,  // measure 37
0032
0000
0203
0000
,  // measure 38
1300
0000
0000
0000
,  // measure 39
0001
0000
2002
0000
,  // measure 40
3003
0000
0000
0000
,  // measure 41
0000
0000
0000
0000
,  // measure 42
0001
0000
0000
0000
,  // measure 43
0100
0000
0000
0000
,  // measure 44
0010
0000
0000
1000
,  // measure 45
0000
0000
0001
0000
,  // measure 46
0010
0000
0000
0100
,  // measure 47
0000
2000
0000
3000
,  // measure 48
0001
0000
0001
0000
,  // measure 49
0100
0000
0100
0000
,  // measure 50
0001
0000
1000
0000
,  // measure 51
0001
0000
0000
0000
,  // measure 52
0010
0000
0110
0000
,  // measure 53
0001
0000
1001
0000
,  // measure 54
1000
0000
0010
0000
,  // measure 55
0100
0000
0000
0000
0000
0000
0000
0010
,  // measure 56
0000
0000
0110
0000
,  // measure 57
1000
0000
1001
0000
,  // measure 58
0001
0000
0000
0000
,  // measure 59
1000
0000
0000
0000
,  // measure 60
0002
0000
0203
0000
,  // measure 61
2300
0000
3020
0000
,  // measure 62
0031
0000
0000
0000
,  // measure 63
1000
0000
0000
0000
,  // measure 64
0002
0000
0023
0000
,  // measure 65
2030
0000
3200
0000
,  // measure 66
0301
0000
0000
0000
,  // measure 67
1000
0000
2002
0000
,  // measure 68
3003
0000
0100
0000
,  // measure 69
0000
0000
0100
0000
,  // measure 70
0000
0010
0000
0000
,  // measure 71
0001
0000
0001
0000
,  // measure 72
0000
0000
1000
0000
,  // measure 73
0000
0000
1000
0000
,  // measure 74
0100
0000
0000
0000
,  // measure 75
0010
0000
0001
0000
;

//---------------dance-single - D0omsday---------------
#NOTES:
     dance-single:
     D0omsday:
     Easy:
     6:
     0,0,0,0,0:
// measure 0
0000
0000
0000
0000
,  // measure 1
0000
0000
0000
0000
,  // measure 2
0000
0000
0000
0000
,  // measure 3
0000
0000
0000
0000
,  // measure 4
1000
0100
1000
0000
,  // measure 5
0010
0000
0100
0100
,  // measure 6
0001
1000
0001
0000
,  // measure 7
0010
0000
0100
0100
,  // measure 8
1000
0000
0000
0001
0000
0000
1000
0000
,  // measure 9
0000
0010
0000
0100
,  // measure 10
0001
0000
0000
1000
0000
0000
0001
0000
,  // measure 11
0000
2002
0000
3003
,  // measure 12
1000
0010
1000
0000
,  // measure 13
0100
0000
0010
0010
,  // measure 14
0001
1000
0001
0000
,  // measure 15
0100
0000
0010
0010
,  // measure 16
1000
0000
0000
0100
0000
0000
0010
0000
,  // measure 17
0000
0001
0000
1000
,  // measure 18
0001
0000
0000
0100
0000
0000
0010
0000
,  // measure 19
0000
2002
0000
3003
,  // measure 20
1000
0100
0010
0001
,  // measure 21
0100
0010
1000
0000
,  // measure 22
0001
1000
0001
1000
,  // measure 23
0001
0000
0000
0000
,  // measure 24
1001
1000
0010
0000
,  // measure 25
1000
0001
0010
0000
,  // measure 26
0100
0000
1000
0000
,  // measure 27
0010
0000
0000
0000
0100
0000
0000
0010
,  // measure 28
0000
1000
0001
0000
,  // measure 29
0010
0001
1000
0000
,  // measure 30
0010
0000
0100
0000
,  // measure 31
0001
0001
1000
1000
,  // measure 32
0002
0000
0023
0000
,  // measure 33
2030
0000
3200
0000
,  // measure 34
0301
0000
0100
0100
,  // measure 35
0010
0000
1000
0001
,  // measure 36
2000
0000
3200
0000
,  // measure 37
0302
0000
0023
0000
,  // measure 38
1030
0000
0001
0000
,  // measure 39
0010
0010
0220
0000
,  // measure 40
0330
0000
1000
0000
,  // measure 41
0000
0000
0001
0000
,  // measure 42
0100
0010
0100
0000
,  // measure 43
0001
0000
1000
1000
,  // measure 44
0100
0000
0000
0010
0000
0000
0001
0000
,  // measure 45
0000
1000
0000
0010
,  // measure 46
0100
0000
0000
0010
0000
0000
1000
0000
,  // measure 47
0000
2002
0000
3003
,  // measure 48
0001
0010
0100
1000
,  // measure 49
0010
0100
0001
0000
,  // measure 50
1000
0001
1000
0001
,  // measure 51
1000
0000
0000
0000
,  // measure 52
1001
0001
0010
0000
,  // measure 53
0001
1000
0010
0000
,  // measure 54
1000
0000
0100
0000
,  // measure 55
0010
0000
0000
0000
0001
0000
0000
0010
,  // measure 56
0000
0100
1000
0000
,  // measure 57
0010
0100
0001
0000
,  // measure 58
1000
0000
0100
0000
,  // measure 59
1000
1000
0001
0001
,  // measure 60
2000
0000
3020
0000
,  // measure 61
0032
0000
0203
0000
,  // measure 62
1300
0000
0001
0001
,  // measure 63
0100
0000
0001
1000
,  // measure 64
0002
0000
0203
0000
,  // measure 65
2300
0000
3020
0000
,  // measure 66
0031
0000
1000
0000
,  // measure 67
0010
0010
0220
0000
,  // measure 68
0330
0000
0001
0000
,  // measure 69
0001
0000
1000
0000
,  // measure 70
1000
0010
1000
0000
,  // measure 71
0001
0010
0001
0000
,  // measure 72
0100
0000
0100
0000
,  // measure 73
0010
0000
0010
0000
,  // measure 74
1000
0100
1000
0000
,  // measure 75
0001
0100
0001
0010
;

//---------------dance-single - D0omsday---------------
#NOTES:
     dance-single:
     D0omsday:
     Medium:
     9:
     0,0,0,0,0:
// measure 0
0000
0000
0000
0000
,  // measure 1
0000
0000
0000
0000
,  // measure 2
0000
0000
0000
0000
,  // measure 3
0000
0000
0000
0000
,  // measure 4
2001
0000
3100
0010
0000
0010
0100
0000
,  // measure 5
1000
0001
1000
0000
0010
0000
0100
0000
,  // measure 6
0102
0000
1003
0100
0000
0100
1000
0000
,  // measure 7
0001
0100
0001
0100
0010
0000
0100
0000
,  // measure 8
0001
0000
0010
0100
0000
0010
1000
0000
,  // measure 9
0010
0001
0100
0010
,  // measure 10
1000
0000
0100
0010
0000
0100
0001
0000
,  // measure 11
0100
0000
0110
2002
3003
0220
0000
0330
,  // measure 12
2001
0000
3010
0100
0000
0100
0001
0000
,  // measure 13
0010
0001
0010
0000
0100
0000
1000
0000
,  // measure 14
2010
0000
3001
0010
0000
0010
0100
0000
,  // measure 15
1000
0010
1000
0010
0100
0000
0001
0000
,  // measure 16
1000
0000
0010
0100
0000
0010
0001
0000
,  // measure 17
0010
1000
0100
0010
,  // measure 18
0001
0000
0100
0010
0000
0100
1000
0000
,  // measure 19
0100
0000
0110
2002
3003
0220
0000
0330
,  // measure 20
0001
0000
0010
0100
0010
0000
0001
0000
,  // measure 21
0100
0000
0010
0000
1000
0000
0001
0010
,  // measure 22
0001
0100
1000
0100
,  // measure 23
0001
0000
0000
0000
0000
1000
0001
1000
,  // measure 24
1001
0000
0011
0000
1100
0000
1000
0010
,  // measure 25
1000
0000
1010
0000
0101
0000
0001
0010
,  // measure 26
0001
0000
0100
0001
0000
0001
0010
0100
,  // measure 27
0000
1000
0000
0001
0100
0001
0000
0010
,  // measure 28
0100
0000
1100
0000
0011
0000
0001
0100
,  // measure 29
0001
0000
0101
0000
1010
0000
1000
0002
,  // measure 30
0000
0013
0100
0000
0010
0000
0001
0100
,  // measure 31
0000
1000
0000
0100
0001
0100
0010
0000
,  // measure 32
2000
0000
3200
0000
,  // measure 33
0302
0000
0023
0000
,  // measure 34
1030
0000
0001
0000
0010
0100
0010
0100
,  // measure 35
1000
0000
0001
0000
0100
0010
0100
0000
,  // measure 36
0002
0000
0023
0000
,  // measure 37
2030
0000
3200
0000
,  // measure 38
0301
0000
1000
0100
1000
0000
0010
0000
,  // measure 39
0100
0110
2002
0000
,  // measure 40
3003
0000
0001
0000
,  // measure 41
0000
0000
0010
0000
,  // measure 42
0120
0000
0031
1000
0000
1000
0010
0000
,  // measure 43
0100
0001
0100
0001
0010
0000
0001
0000
,  // measure 44
0100
0000
0010
0100
0000
1000
0100
0000
,  // measure 45
0001
0010
0100
1000
,  // measure 46
0010
0000
0100
0010
0000
0001
0010
0000
,  // measure 47
0100
0000
0110
2002
3003
0220
0000
0330
,  // measure 48
1000
0000
0001
0010
0001
0000
0100
0000
,  // measure 49
0010
0000
1000
0000
0100
0000
1000
0001
,  // measure 50
1000
0010
0001
0010
,  // measure 51
1000
0000
0000
0000
0000
0001
0010
0100
,  // measure 52
1100
0000
1010
0000
0101
0000
0001
0100
,  // measure 53
0010
0000
0110
0000
1001
0000
1000
0100
,  // measure 54
1000
0000
0100
0010
0000
0010
0001
0100
,  // measure 55
0000
1000
0000
0100
0001
1000
0000
0010
,  // measure 56
0100
0000
0110
0000
1001
0000
1000
0100
,  // measure 57
0010
0000
0011
0000
1100
0000
0100
0020
,  // measure 58
0000
0031
1000
0000
0010
0000
0100
1000
,  // measure 59
0000
0100
0000
0010
1000
0001
0010
0000
,  // measure 60
0200
0000
0302
0000
,  // measure 61
0023
0000
2030
0000
,  // measure 62
3100
0000
1000
0000
0010
1000
0010
1000
,  // measure 63
0001
0000
0010
0000
0001
0100
0001
0000
,  // measure 64
0020
0000
0032
0000
,  // measure 65
0203
0000
2300
0000
,  // measure 66
3010
0000
0001
0010
0001
0000
1000
0000
,  // measure 67
0010
0110
2002
0000
,  // measure 68
3003
0000
0001
0000
0010
0000
0001
1000
,  // measure 69
0000
1000
0010
0000
0100
0000
0000
0001
,  // measure 70
0100
0000
0010
0000
1000
0000
0100
0010
,  // measure 71
0000
1000
0000
0010
0100
1000
0000
0001
,  // measure 72
0000
0100
0010
0000
1000
0000
0001
0010
,  // measure 73
0001
0010
0100
0000
0010
0000
0000
0001
,  // measure 74
0000
1000
0010
0000
1000
0001
1000
0100
,  // measure 75
0000
0010
0000
1000
0010
0100
0010
0001
;

//---------------dance-single - D0omsday---------------
#NOTES:
     dance-single:
     D0omsday:
     Hard:
     14:
     0,0,0,0,0:
// measure 0
0000
0000
0000
0000
,  // measure 1
0000
0000
0000
0000
,  // measure 2
0000
0000
0000
0000
,  // measure 3
0000
0000
0000
0000
,  // measure 4
2100
0000
3001
0100
0010
0100
0001
0000
,  // measure 5
0010
0100
0010
0000
0011
0000
1100
0000
,  // measure 6
1002
0000
0103
0010
0001
0010
0100
0000
,  // measure 7
0001
1000
0100
1000
0010
0000
0100
0000
,  // measure 8
0001
0010
0100
0001
0100
0010
0001
0000
,  // measure 9
0100
0010
1000
0000
0100
0010
0001
0000
,  // measure 10
1000
0010
0100
1000
0100
0010
1000
0000
,  // measure 11
0001
0000
1001
0220
0330
2002
0000
3003
,  // measure 12
0102
0000
1003
0010
0100
0010
1000
0000
,  // measure 13
0100
0010
0100
0000
1100
0000
0011
0000
,  // measure 14
2001
0000
3010
0100
1000
0100
0010
0000
,  // measure 15
1000
0001
0010
0001
1000
0010
0100
0000
,  // measure 16
0001
0010
0100
0001
0100
0010
0001
0000
,  // measure 17
1000
0100
0010
0000
0001
0100
0010
0000
,  // measure 18
1000
0100
0010
1000
0010
0100
1000
0000
,  // measure 19
0001
0000
0110
2002
3003
0220
0000
0330
,  // measure 20
0001
1000
0001
0000
0010
0100
0010
0000
,  // measure 21
0100
1000
0010
0100
0001
0000
0100
0001
,  // measure 22
1000
0100
0001
0010
,  // measure 23
1000
0000
0000
0000
0000
0010
0100
0110
,  // measure 24
1001
0000
0001
0000
1000
0100
0010
0000
1000
0000
0010
0000
0100
0000
1000
0000
,  // measure 25
0010
0000
1000
0000
0001
0100
0010
0000
0001
0000
0010
0000
0100
0000
0001
0000
,  // measure 26
1000
0100
0001
0100
1000
0001
0100
0010
,  // measure 27
1000
0000
0100
0000
0010
0000
0100
0000
1000
0001
1000
0001
1000
0000
0010
0000
,  // measure 28
0100
0000
0001
0000
0010
0001
0100
0000
1000
0000
0100
0000
0010
0000
1000
0000
,  // measure 29
0100
0000
0010
0000
0100
1000
0010
0000
0001
0000
0010
0000
1000
0000
0002
0000
,  // measure 30
0000
0013
0100
0010
1000
0010
0100
0001
,  // measure 31
0100
0010
0001
0000
1000
0000
0010
0100
0001
0100
0010
0000
1000
0000
0001
0000
,  // measure 32
0020
0100
2030
0001
,  // measure 33
3200
0010
0302
1000
,  // measure 34
0013
0100
1000
0010
0100
1000
0100
0001
,  // measure 35
0010
0000
0100
0000
1000
0000
0010
0000
0100
0001
1000
0001
0010
0000
0001
0000
,  // measure 36
0200
0010
2300
0001
,  // measure 37
3020
0000
0100
0000
0032
0000
1003
0001
,  // measure 38
0100
0010
1000
0100
0010
0100
0001
0100
,  // measure 39
0010
0001
0000
0000
0001
1000
0000
0000
1000
0010
1000
0000
0010
0000
0100
0000
,  // measure 40
0002
0000
0010
2003
,  // measure 41
0000
3002
0100
0003
,  // measure 42
0120
0000
0031
0010
0100
0001
1000
0000
,  // measure 43
0100
0010
1000
0010
0100
0010
0001
0000
,  // measure 44
1000
0010
0001
1000
0001
0010
1000
0000
,  // measure 45
0001
0010
0100
0000
1000
0010
0100
0000
,  // measure 46
0001
0010
1000
0001
1000
0010
0001
0000
,  // measure 47
1000
0000
1001
0220
0330
2002
0000
3003
,  // measure 48
1000
0100
1000
0000
0001
0100
0001
0000
,  // measure 49
1000
0100
0010
0100
1000
0000
0010
0100
,  // measure 50
0001
0010
1000
0100
,  // measure 51
0001
0000
0000
0000
0000
1010
0011
1010
,  // measure 52
1001
0000
0001
0000
0100
0010
0001
0000
1000
0000
0100
0000
0010
0000
1000
0000
,  // measure 53
0001
0000
0010
0000
0100
0010
1000
0000
0001
0000
0100
0000
0010
0000
0001
0000
,  // measure 54
1000
0010
1000
0100
0010
1000
0010
0001
,  // measure 55
0100
0000
1000
0000
0100
0000
0010
0000
1000
0001
1000
0001
1000
0000
0010
0000
,  // measure 56
0100
0000
0001
0000
1000
0100
0001
0000
1000
0000
0010
0000
0001
0000
0100
0000
,  // measure 57
0010
0000
1000
0000
0001
0100
1000
0000
0001
0000
0010
0000
1000
0000
0002
0000
,  // measure 58
0000
0013
0100
0001
0100
1000
0010
0100
,  // measure 59
1000
0000
0100
0000
0010
0000
0001
0010
1000
0000
0001
0000
0010
0000
0100
0000
,  // measure 60
2000
0001
3020
0100
,  // measure 61
0032
1000
0203
0010
,  // measure 62
1300
0001
0100
1000
0001
0010
1000
0001
,  // measure 63
0010
0000
0100
0000
1000
0000
0100
0000
0010
0001
1000
0001
0100
0000
0010
0000
,  // measure 64
2000
0001
3200
0010
,  // measure 65
0302
0000
1000
0000
0023
0000
0130
0010
,  // measure 66
1000
0001
0010
1000
0010
0001
0100
0010
,  // measure 67
1000
0100
0000
0000
0100
0010
0000
0000
0010
0001
0010
0000
0100
0000
1000
0000
,  // measure 68
0000
0000
0002
0000
0103
0000
0001
0100
,  // measure 69
0010
1000
0002
0000
0013
0000
0000
0001
,  // measure 70
0100
0001
0010
0100
2000
0000
3001
0200
,  // measure 71
0000
0320
0000
1030
0010
0100
0000
0001
,  // measure 72
0000
0010
0200
0000
0301
0000
0100
1000
,  // measure 73
0010
0100
0002
0000
0013
0000
0000
0200
,  // measure 74
0000
0310
0002
0000
1003
0010
0001
0020
,  // measure 75
0000
0230
0000
1300
0100
0010
1000
0001
;
0031
0010
0100
0000
1000
,  // measure 72
0000
0010
0200
0000
0301
0000
1000
0100
,  // measure 73
0010
0001
2000
0000
3010
0000
0000
0200
,  // measure 74
0000
0301
0020
0000
1030
0010
0001
0200
,  // measure 75
0000
2300
0000
3100
0001
0010
1000
0100
;
