#TITLE:Patakha Guddi;
#SUBTITLE:;
#ARTIST:Nooran Sisters;
#TITLETRANSLIT:;
#SUBTITLETRANSLIT:;
#ARTISTTRANSLIT:;
#GENRE:;
#CREDIT:;
#MUSIC:Patakha Guddi.ogg;
#BANNER:Patakha Guddi-bn.png;
#BACKGROUND:Patakha Guddi-bg.png;
#CDTITLE:;
#SAMPLESTART:27.514;
#SAMPLELENGTH:15.000;
#SELECTABLE:YES;
#OFFSET:1.799;
#BPMS:0.000=131.000;
#STOPS:;
#BGCHANGES:;
#FGCHANGES:;

//--------------- dance-single - ----------------
#NOTES:
     dance-single:
     :
     Hard:
     11:
     0,0,0,0,0:
0000
0000
0000
0000
,
0000
0000
0000
0000
,
0000
0000
0000
0000
,
0100
0000
1000
0010
1000
0000
0000
0000
0001
0000
0010
0100
0010
0000
0000
0000
,
0001
0000
0100
0010
0100
0000
0000
0000
0010
1000
0100
0000
0010
0000
0001
0000
,
0100
0000
0001
0010
0001
0000
0000
0000
1000
0000
0010
0100
0010
0000
0000
0000
,
1000
0000
1000
0000
0100
0000
0100
0000
0010
0000
0001
1000
0001
0000
0100
0000
,
0020
0000
0000
0000
,
0000
0000
0000
0000
0000
0000
0130
0010
,
0110
0000
1000
1000
0001
0100
0001
0000
,
0110
0000
0001
0001
1000
0100
1000
0000
,
1010
0000
0001
0010
0100
1000
0010
0000
,
2100
0000
0000
0010
0000
0000
3010
0000
0102
0000
0000
0010
0000
0000
0013
0000
,
0100
0000
1000
0001
1000
0000
0010
0000
0200
0000
0000
0000
0000
0000
0000
0000
,
0000
0000
0000
0000
,
0000
0000
0000
0000
0000
0000
0000
0000
0301
0000
0001
0000
0001
1000
0001
0000
,
0010
0100
1000
0010
0100
0001
0010
0000
,
0001
0100
0010
1000
0100
0000
0100
1000
,
1020
0000
0130
0001
0021
0000
0130
1000
,
0010
0100
0000
0100
0010
0000
1000
0000
0100
0000
0000
0000
0100
0000
0010
0000
,
0012
0000
0000
1000
0000
0000
0013
0000
2010
0000
0000
0001
0000
0000
3010
0000
,
0100
0000
0010
0000
1000
0000
0001
0010
1000
0000
0000
0000
0010
0000
0100
0000
,
2100
0000
0000
0001
0000
0000
3100
0000
0102
0000
0000
1000
0000
0000
0103
0000
,
0010
0100
0001
0010
0100
1000
0010
0100
,
0102
0000
0000
0010
0000
0000
0103
0000
2100
0000
0000
0010
0000
0000
3100
0000
,
0010
0100
1000
0010
0100
0001
0010
0100
,
1001
0000
0100
0010
1001
0000
0100
0010
,
0001
0001
1000
1000
0010
0100
0001
1000
,
0100
0000
0010
0001
0010
0000
0100
0000
1000
0000
0010
0000
0010
0000
0100
0000
,
0001
0001
1000
1000
0100
0010
0001
0100
,
0010
1000
0010
1000
0010
0000
0100
0001
,
0010
0001
0010
0001
0010
0000
0100
0010
,
2002
0000
0000
0003
0010
0010
3020
0130
,
0001
0001
0001
0010
,
0001
0000
0000
0000
0000
0000
0100
0010
,
0100
0000
0000
0000
0000
0000
0001
1000
,
0001
0000
0000
0000
0000
0000
0010
0010
,
0100
0000
0000
0000
0000
0000
1000
0010
,
0100
0000
0000
0000
0000
0000
0010
0010
,
1000
0000
0000
0000
0000
0000
0100
0100
,
2000
0000
0000
0010
0000
0010
0000
0010
,
0000
0010
0000
3010
0100
0001
0001
0000
,
1001
0000
0000
0100
1000
0100
1000
1010
,
0000
0110
0000
0101
0001
0000
1000
0000
,
1001
0000
0000
0010
0001
0010
0001
0101
,
0000
0110
0000
1010
1000
0100
0100
0000
,
0110
0000
0000
0000
0000
0000
0100
0010
0100
0000
1000
0000
0001
0000
0100
0000
,
0000
0000
0100
0000
0000
0100
0000
0000
0100
0000
0010
0000
1000
0001
1000
0000
,
1001
0000
0000
1000
0001
0100
0010
1000
,
1001
0000
0000
0001
1000
0010
0100
0001
,
0020
0000
0000
0230
0000
0000
2300
0000
3020
0000
0230
0000
0302
0000
2003
0000
,
3100
0100
0010
0010
0001
0001
1000
1000
,
0110
0000
0000
0001
1000
0100
0010
0001
,
0110
0000
0000
1000
0100
0010
0001
1000
,
0020
0000
0000
0230
0000
0000
0302
0000
0023
0000
0230
0000
2300
0000
3002
0000
,
0103
0100
0010
0010
1000
1000
0001
0001
,
0100
0000
0001
0010
0001
0000
0000
0000
1000
0000
0010
0100
0010
0000
0000
0000
,
1000
0000
0100
0010
0100
0000
0000
0000
0010
0001
0100
0000
0010
0000
1000
0000
,
0010
0100
0001
0010
0100
1000
0010
0100
,
0001
0100
0010
1000
0100
0000
0100
1000
,
1020
0000
0130
0001
0021
0000
0130
1000
,
0010
0100
0000
0100
0010
0000
1000
0000
0100
0000
0000
0000
0100
0000
0010
0000
,
0012
0000
0000
1000
0000
0000
0013
0000
2010
0000
0000
0001
0000
0000
3010
0000
,
0100
0000
0010
0000
1000
0000
0001
0010
1000
0000
0000
0000
0010
0000
0100
0000
,
2100
0000
0000
0001
0000
0000
3100
0000
0102
0000
0000
1000
0000
0000
0103
0000
,
0010
0100
0001
0010
0100
1000
0010
0100
,
0102
0000
0000
0010
0000
0000
0103
0000
2100
0000
0000
0010
0000
0000
3100
0000
,
0010
0100
1000
0010
0100
0001
0010
0001
,
2002
0000
0000
0000
,
3003
0000
0000
0000
;

//--------------- dance-single - ----------------
#NOTES:
     dance-single:
     :
     Challenge:
     14:
     0,0,0,0,0:
0000
0000
0000
0000
,
0000
0000
0000
0000
,
0000
0000
0000
0000
,
0100
0001
1000
0100
0010
0010
0000
0000
0100
1000
0001
0100
0010
0010
0000
0000
,
0100
0001
1000
0100
0010
0010
0000
0000
0100
0100
1000
1000
0010
0010
0100
0000
,
0010
1000
0001
0010
0100
0100
0000
0000
0010
0001
1000
0010
0100
0100
0000
0000
,
0001
0000
0001
0000
0010
0100
0010
0000
0001
0000
0100
0010
1000
0100
0001
0100
,
2000
0000
0000
0000
0000
0000
3000
0000
0001
0100
0010
1000
0100
0100
0000
0000
,
1000
0010
0100
0001
0010
0010
0100
0100
1000
0000
0000
0000
0001
0000
0010
0000
,
0120
0000
0000
0130
1000
0000
0010
0000
0001
0000
0010
0000
1000
0000
0100
0000
,
0210
0000
0000
0310
0001
0000
0100
0000
1000
0000
0100
0000
0001
0000
0010
0000
,
0120
0000
0000
0130
0010
0000
0001
0000
0100
0000
0010
0000
1000
0001
0010
0000
,
0100
0000
1000
0010
0000
0010
0100
0000
0001
0000
0010
0100
0000
0100
1000
0000
,
0010
0000
0100
1000
0100
0000
0001
0000
0020
0000
0200
0000
0000
0000
0000
0000
,
0000
0000
0000
0000
,
0000
0000
0000
0000
0000
0000
0330
0000
1000
0001
1000
0001
1000
0001
1000
0001
,
1000
0000
0010
0000
0100
0000
0001
0000
0010
0000
0100
0000
0010
0000
0001
0100
,
1000
0000
0001
0000
0010
0000
1000
0100
0001
0000
1000
0000
0010
0000
0001
0000
,
0100
1000
0010
0100
0001
0010
1000
0001
,
0100
0010
0000
0010
0001
0000
0100
0010
0100
0000
0001
0000
0010
0000
0100
0000
,
1000
0000
0010
0100
0000
0100
0010
0000
1000
0000
0100
0010
0000
0010
0100
0000
,
1000
0000
0010
0000
0100
0000
0001
0010
0100
0000
0001
0000
1000
0000
0010
0000
,
0001
0000
0100
0010
0000
0010
0100
0000
0001
0000
0010
0100
0000
0100
0010
0000
,
0001
1000
0010
0100
1000
0001
0010
1000
,
0001
0000
0010
0100
0000
0100
0010
0000
0001
0000
0100
0010
0000
0010
0100
0000
,
0001
1000
0100
0010
1000
0010
0001
0100
,
0101
0000
0000
0100
0001
0000
0010
0000
1100
0000
0000
0100
1000
0000
0010
0000
,
1000
0100
0001
0100
1000
0010
0001
0010
,
1000
0000
0100
0010
0100
0000
1000
0000
0001
0000
0100
0010
0100
0000
0001
0000
,
1000
0100
0001
0100
1000
0010
0001
0010
,
1000
0001
1000
0001
1000
0001
1000
0001
0010
0000
0000
0000
0001
0000
1000
0000
,
0010
0100
0010
0100
0010
0100
0010
0100
0001
0000
0000
0000
0010
0000
0001
0000
,
0200
0000
0010
0000
0310
0100
0010
0100
,
0002
0000
0000
0000
1003
0100
0010
0100
0010
0000
0000
0000
0001
0000
1000
0000
,
0200
0000
0000
0000
0000
0300
0100
1000
,
0010
0200
0000
0000
0000
0300
0100
0001
,
0010
0200
0000
0000
0000
0300
0100
0010
,
0001
2000
0000
0000
0000
3000
1000
0010
,
0100
0002
0000
0000
0000
0003
0001
0010
,
0100
2000
0000
0000
0000
3000
1000
0010
,
1010
0000
0010
1000
0000
0000
1000
0100
0000
0000
0100
0010
0000
0000
0010
0001
,
0000
0000
0001
0100
0000
0000
0100
0000
0100
0000
0010
0000
1000
0100
1000
0000
,
0001
0200
0000
0310
0100
0010
1000
0100
,
0000
0000
0010
0000
0010
0000
0100
0000
1000
0000
0010
0000
0100
0001
0100
0000
,
0010
1000
1000
0001
0100
0001
0010
0100
,
0000
0000
1000
0000
1000
0000
0010
1000
0100
0000
0010
0000
0001
0100
0001
0000
,
0001
0100
0100
0010
1000
0010
0100
0002
,
0000
0000
1003
0010
0000
1000
0010
0000
0100
0000
0001
0000
0010
0100
0010
0000
,
1001
0000
0000
0001
1000
0100
0010
0001
,
1001
0000
0000
1000
0001
0010
0100
1000
,
0020
0000
0000
0230
0000
0000
0302
0000
0023
0000
0230
0000
2300
0000
3002
0000
,
0103
0100
0010
0010
1000
1000
0001
0001
,
0110
0000
0000
1000
0001
0100
0010
1000
,
0110
0000
0000
0001
0100
0010
1000
0001
,
0020
0000
0000
0230
0000
0000
2300
0000
3020
0000
0230
0000
0302
0000
2003
0000
,
3100
0100
0010
0010
0001
0001
1000
1000
,
0100
1000
0001
0100
0010
0010
0000
0000
0100
0001
1000
0100
0010
0010
0000
0000
,
0100
1000
0001
0100
0010
0010
0000
0000
0100
0100
0001
0001
0010
0010
0100
0000
,
1000
0000
0010
0000
0100
0000
0001
0000
0010
0000
0100
0000
0010
0000
0001
0100
,
1000
0000
0001
0000
0010
0000
1000
0100
0001
0000
1000
0000
0010
0000
0001
0000
,
0100
1000
0010
0100
0001
0010
1000
0001
,
0100
0010
0000
0010
0001
0000
0100
0010
0100
0000
0001
0000
0010
0000
0100
0000
,
1000
0000
0010
0100
0000
0100
0010
0000
1000
0000
0100
0010
0000
0010
0100
0000
,
1000
0000
0010
0000
0100
0000
0001
0010
0100
0000
0001
0000
1000
0000
0010
0000
,
0001
0000
0100
0010
0000
0010
0100
0000
0001
0000
0010
0100
0000
0100
0010
0000
,
0001
1000
0010
0100
1000
0001
0010
1000
,
0001
0000
0010
0100
0000
0100
0010
0000
0001
0000
0100
0010
0000
0010
0100
0000
,
0001
1000
0100
0010
1000
0010
0001
0100
,
0020
0000
0000
0000
,
0030
0000
0000
0000
;
