#TITLE:PARTY-JYAN'D GRASS LAND;
#SUBTITLE:;
#ARTIST:hapi⇒ with 緋藤レイル;
#TITLETRANSLIT:;
#SUBTITLETRANSLIT:;
#ARTISTTRANSLIT:hapi⇒ with hifujiRAIL;
#GENRE:MINIMAL DRUNK HAPPY;
#CREDIT:;
#BANNER:PARTY-JYAN'D GRASS LAND.png;
#BACKGROUND:PARTY-JYAN'D GRASS LAND-bg.png;
#LYRICSPATH:;
#CDTITLE:;
#MUSIC:PARTY-JYAN'D GRASS LAND.ogg;
#OFFSET:-0.003098;
#SAMPLESTART:99.009018;
#SAMPLELENGTH:16.420000;
#SELECTABLE:YES;
#BPMS:0.000000=160.000000
;
#STOPS:
;
#BGCHANGES:0.000=PARTY-JYAN'D GRASS LAND.mp4=1.000=1=0=1===CrossFade==,
99999=-nosongbg-=1.000=0=0=0 // don't automatically add -songbackground-
;
#KEYSOUNDS:;
#ATTACKS:;

//---------------dance-single - ----------------
#NOTES:
     dance-single:
     :
     Hard:
     16:
     0.724930,0.824142,0.180392,0.203922,0.435294,647.000000,624.000000,23.000000,26.000000,17.000000,0.000000,0.724930,0.824142,0.180392,0.203922,0.435294,647.000000,624.000000,23.000000,26.000000,17.000000,0.000000:
// measure 0
0000
0000
0000
0000
,  // measure 1
0000
0000
0000
0000
,  // measure 2
0000
0000
0000
0000
,  // measure 3
0000
0000
0000
0000
,  // measure 4
1000
0000
0001
0000
0100
0000
0010
0000
1000
0000
0010
0000
0100
0000
0001
1000
,  // measure 5
0001
0000
1000
0000
0100
0000
0010
0000
0001
0000
0010
0000
0100
0000
1000
0001
,  // measure 6
1000
0000
0001
0000
0100
0000
0010
0000
1000
0000
0010
0000
0100
0000
0001
1000
,  // measure 7
0001
0010
0001
0010
0100
1000
0100
1000
0001
0100
0001
0100
0020
0000
0030
0000
,  // measure 8
0000
0000
0000
0000
,  // measure 9
1000
0001
1000
0001
1000
0001
1000
0001
1000
0001
1000
0001
2000
0000
3000
0000
,  // measure 10
0001
0000
0100
0000
0001
0000
0100
0000
0001
0100
00M0
0100
1000
0000
0001
0000
,  // measure 11
1000
0100
1000
0100
1000
0001
1001
0000
,  // measure 12
0001
0000
0010
0000
0001
0000
0010
0000
0001
0000
1000
0010
1000
0010
1000
0010
,  // measure 13
2000
3200
0301
0100
,  // measure 14
1000
0000
0010
0000
0100
0000
0010
0000
1000
0010
0M00
0010
0001
0000
1000
0000
,  // measure 15
0001
0010
0100
0010
0001
1000
1001
0000
,  // measure 16
1000
0000
0100
0000
0010
0000
0100
0000
1000
0010
1000
0010
1000
0010
1000
0010
,  // measure 17
2000
0000
3200
0000
0301
0001
0200
0300
,  // measure 18
1000
0000
0000
0010
0000
0000
1000
0000
0000
0001
0100
0001
0100
0000
0000
0100
0000
0000
0010
0000
0000
0100
0000
0000
,  // measure 19
1000
1000
0100
0010
1000
0001
1000
0000
,  // measure 20
0001
0000
0000
0010
0000
0000
0001
0000
0000
1000
0100
1000
0100
0000
0000
0100
0000
0000
0010
0000
0000
0100
0000
0000
,  // measure 21
0001
0001
0100
0010
0001
1000
0001
0000
,  // measure 22
1000
0000
0000
0100
0000
0000
1000
0000
0000
0001
0010
0001
0010
0000
0000
0010
0000
0000
0100
0000
0000
0010
0000
0000
,  // measure 23
1000
0000
1000
0000
0010
0000
0100
0000
1000
0000
0001
0000
1000
0000
1000
0010
,  // measure 24
0100
0000
0100
0001
0100
0000
1000
0000
0100
0000
0100
0010
0100
0000
0001
0000
,  // measure 25
1000
0000
1000
0100
0010
0000
0001
0000
1002
0000
0000
0000
0103
0000
0100
0000
,  // measure 26
0001
0000
0000
0000
0000
0000
0010
0000
0000
0000
0000
0000
0001
0000
0000
0000
0000
0000
1000
0000
0010
0000
1000
0000
0010
0000
0000
0M00
0000
0000
0010
0000
0000
0000
0000
0000
0001
0000
0000
0000
0000
0000
1000
0000
0000
0000
0000
0000
,  // measure 27
0100
00M0
0100
0000
0001
0000
1000
0000
0001
0000
0100
0000
0001
0000
0000
0000
,  // measure 28
1000
0000
0000
0000
0000
0000
0010
0000
0000
0000
0000
0000
1000
0000
0000
0000
0000
0000
0001
0000
0010
0000
0001
0000
0010
0000
0000
0M00
0000
0000
0010
0000
0000
0000
0000
0000
1000
0000
0000
0000
0000
0000
0001
0000
0000
0000
0000
0000
,  // measure 29
0100
00M0
0100
0000
1000
0000
0001
0000
1000
0000
0100
0000
1000
0000
0000
0000
,  // measure 30
0001
0000
0000
0000
0000
0000
0100
0000
0000
0000
0000
0000
0001
0000
0000
0000
0000
0000
1000
0000
0100
0000
1000
0000
0100
0000
0000
00M0
0000
0000
0100
0000
0000
0000
0000
0000
0001
0000
0000
0000
0000
0000
1000
0000
0000
0000
0000
0000
,  // measure 31
0010
0M00
0010
0000
0001
0000
1000
0000
0001
0000
0100
0000
0001
0000
0001
0010
,  // measure 32
0100
0000
0100
1000
0100
0000
0001
0000
0100
0000
0100
0010
0100
0000
1000
0000
,  // measure 33
0100
0000
1000
0010
0100
0001
1000
0100
0010
0000
0001
0000
0020
0000
0030
0000
,  // measure 34
1001
0000
1000
0001
1000
0000
1000
0100
,  // measure 35
0010
1000
0010
0001
,  // measure 36
0100
0000
0100
0010
0100
0000
1000
0000
,  // measure 37
0200
0310
2000
3001
,  // measure 38
1001
0000
0001
1000
0001
0000
0001
0100
,  // measure 39
0010
0001
0010
1000
,  // measure 40
0100
0000
0100
0010
0100
0000
0001
0000
,  // measure 41
0100
0000
0000
1000
0000
0000
0001
0000
0000
1000
0000
0000
0010
0000
0000
1000
0000
0000
0001
0000
0010
0000
0100
0000
,  // measure 42
1000
0000
1000
0010
1000
0000
1000
0010
,  // measure 43
0100
0000
1000
0000
0100
0000
0001
0010
,  // measure 44
1000
0000
0010
0001
1000
0000
0010
0000
,  // measure 45
2000
0100
3002
0100
,  // measure 46
1003
0000
1000
0100
0010
0000
0010
0001
,  // measure 47
0100
0000
0100
0010
1000
0000
1000
0100
,  // measure 48
0010
0000
0010
1000
0010
0000
1000
0010
,  // measure 49
0001
0000
0000
0000
0000
0000
2002
3003
,  // measure 50
0001
0100
1010
0000
0001
0100
1010
0000
,  // measure 51
0001
0000
0000
0001
0010
0001
0100
0001
1000
0000
0001
0000
1100
0000
0011
0000
,  // measure 52
1000
0010
0101
0000
1000
0010
0101
0000
,  // measure 53
1000
0100
0010
0000
10M0
0000
1000
0100
0010
0000
0001
0000
1001
0000
0000
0000
,  // measure 54
1000
0010
0101
0000
1000
0010
0101
0000
,  // measure 55
1000
0000
0000
1000
0100
1000
0010
1000
0001
0000
1000
0000
0011
0000
1100
0000
,  // measure 56
0001
0100
1010
0000
0001
0100
1010
0000
,  // measure 57
0001
0000
0010
1000
0010
0000
0001
0000
0100
0000
0010
0000
1001
0000
0000
0000
,  // measure 58
0001
0000
0001
0100
0001
0000
0001
1000
0100
0000
0002
0000
0000
0000
0103
0000
,  // measure 59
1000
0000
1000
0010
1000
0000
0001
0000
2000
0000
0010
0000
0001
0000
3001
0000
,  // measure 60
1000
0000
1000
0100
1000
0000
1000
0001
0100
0000
2000
0000
0000
0000
3100
0000
,  // measure 61
0001
0000
0001
0010
0001
0000
1000
0000
0002
0000
0010
0000
1000
0000
1003
0000
,  // measure 62
0001
0000
0001
0010
0001
0000
0001
1000
0010
0000
0002
0000
0000
0000
0013
0000
,  // measure 63
1000
0000
1000
0100
1000
0000
0001
0000
2000
0000
0100
0000
0001
0000
3001
0000
,  // measure 64
1000
0000
1000
0010
0100
0000
0100
0001
1000
0000
1000
0100
0010
0000
0010
0001
,  // measure 65
0100
0000
0100
1000
0100
0000
1000
0100
0010
0000
0000
0000
2002
0000
3003
0000
,  // measure 66
0001
0000
0000
0100
0000
0000
0001
0000
0000
1000
0100
0010
0100
0000
0000
0100
0000
0000
1000
0000
0000
0100
0000
0000
,  // measure 67
0001
0001
0100
0010
0001
1000
0001
0000
,  // measure 68
1000
0000
0000
0100
0000
0000
1000
0000
0000
0001
0100
0010
0100
0000
0000
0100
0000
0000
0001
0000
0000
0100
0000
0000
,  // measure 69
1000
1000
0100
0010
1000
0001
1000
0000
,  // measure 70
0001
0000
0000
0010
0000
0000
0001
0000
0000
1000
0010
0100
0010
0000
0000
0010
0000
0000
1000
0000
0000
0010
0000
0000
,  // measure 71
0001
0000
0001
0000
0010
0000
0100
0000
0001
0000
1000
0000
0001
0000
0001
0010
,  // measure 72
0100
0000
0100
1000
0100
0000
0001
0000
0100
0000
0100
0010
0100
0000
1000
0000
,  // measure 73
0100
0000
0100
0010
0001
0000
1000
0000
2001
0000
0000
0000
3100
0000
0100
0000
,  // measure 74
1000
0000
0000
0000
0000
0000
0010
0000
0000
0000
0000
0000
1000
0000
0000
0000
0000
0000
0001
0000
0010
0000
0100
0000
0010
0000
0000
0M00
0000
0000
0010
0000
0000
0000
0000
0000
1000
0000
0000
0000
0000
0000
0100
0000
0000
0000
0000
0000
,  // measure 75
0001
00M0
0001
0000
0010
0000
0100
0000
1000
0000
0001
0000
1000
0000
0000
0000
,  // measure 76
0001
0000
0000
0000
0000
0000
0010
0000
0000
0000
0000
0000
0001
0000
0000
0000
0000
0000
1000
0000
0010
0000
0100
0000
0010
0000
0000
0M00
0000
0000
0010
0000
0000
0000
0000
0000
0001
0000
0000
0000
0000
0000
0100
0000
0000
0000
0000
0000
,  // measure 77
1000
00M0
1000
0000
0010
0000
0100
0000
0001
0000
1000
0000
0001
0000
0000
0000
,  // measure 78
1000
0000
0000
0000
0000
0000
0100
0000
0000
0000
0000
0000
1000
0000
0000
0000
0000
0000
0001
0000
0100
0000
0010
0000
0100
0000
0000
00M0
0000
0000
0100
0000
0000
0000
0000
0000
1000
0000
0000
0000
0000
0000
0010
0000
0000
0000
0000
0000
,  // measure 79
0001
0M00
0001
0000
0100
0000
0010
0000
1000
0000
0001
0000
1000
0000
1000
0100
,  // measure 80
0010
0000
0010
0100
0010
0000
1000
0000
0010
0000
0010
0100
0010
0000
0001
0000
,  // measure 81
1000
0010
0100
0001
1000
0100
0010
0001
1000
0000
0001
0000
2002
0000
3003
0000
,  // measure 82
0000
0000
0000
0000
,  // measure 83
0000
0000
0000
0000
0000
0000
0000
0000
0000
0000
0000
0000
0000
M000
0000
0000
,  // measure 84
0000
000M
0000
0000
0000
0000
0000
0000
0000
0000
0000
0000
0000
0000
0000
0000
;

//---------------dance-single - ----------------
#NOTES:
     dance-single:
     :
     Medium:
     13:
     0.611765,0.770588,0.078431,0.227451,0.078431,546.000000,536.000000,10.000000,29.000000,0.000000,0.000000,0.611765,0.770588,0.078431,0.227451,0.078431,546.000000,536.000000,10.000000,29.000000,0.000000,0.000000:
0000
0000
0000
0000
,
0000
0000
0000
0000
,
0000
0000
0000
0000
,
0000
0000
0000
0000
,
1000
0100
1000
0100
0010
0001
1000
0000
,
0001
0100
0001
0100
0010
1000
0001
0000
,
1000
0100
1000
0100
0001
0100
1000
0000
,
0001
0100
0001
0100
1000
0100
0001
1000
,
0000
0000
0000
0000
,
0001
1000
0001
1000
0001
0000
1001
0000
,
0001
0000
0100
0000
0001
0000
0100
0000
0010
0000
0000
0010
0100
0000
0001
0000
,
1000
0100
1000
0100
0010
0100
1000
0000
,
0001
0010
0001
0010
0100
0100
0100
0100
,
2000
3020
0031
0010
,
1000
0000
0100
0000
1000
0000
0100
0000
0010
0000
0000
0010
0100
0000
1000
0000
,
0001
0100
0001
0100
0010
0100
0001
0000
,
1000
0010
1000
0010
0100
0100
0100
0100
,
0002
0023
1030
0010
,
0001
1000
0001
0100
0001
0001
0100
0010
,
0001
0001
0010
0100
0001
1000
0001
0000
,
1000
0001
1000
0100
1000
1000
0100
0010
,
1000
1000
0010
0100
1000
0001
1000
0000
,
0001
1000
0001
0010
0001
0001
0010
0100
,
0001
0001
0100
0010
0001
1000
0001
0100
,
0010
0010
0010
0001
0010
0010
0010
1000
,
0100
0100
0100
0010
2001
0000
3100
0000
,
1000
0001
1000
0010
1000
1000
0010
0100
,
1000
1000
0100
0010
1000
0001
1000
0000
,
0001
1000
0001
0010
0001
0001
0010
0100
,
0001
0001
0100
0010
0001
1000
0001
0000
,
1000
0001
1000
0100
1000
1000
0100
0010
,
1000
1000
0010
0100
1000
0001
1000
0010
,
0100
0100
0100
1000
0100
0100
0100
0001
,
0010
0010
0010
0100
1000
0001
1000
0000
,
1001
0000
0001
1000
0001
0000
0001
0010
,
0100
0001
0100
1000
,
0010
0000
0010
0100
0010
0000
0001
0000
,
0020
0130
0002
1003
,
1001
0000
1000
0001
1000
0000
1000
0010
,
0100
1000
0100
0001
,
0010
0000
0010
0100
0010
0000
1000
0000
,
0010
0001
1000
0001
0100
0001
1000
0001
,
1001
0000
0001
0100
0001
0000
0001
0100
,
0010
0000
0001
0000
0010
0000
1000
0100
,
0001
0000
0100
1000
0001
0000
0100
0000
,
0002
0010
2003
0010
,
3001
0000
0001
0010
0100
0000
0100
1000
,
0010
0000
0010
0100
0001
0000
0001
0010
,
0100
0000
0100
0001
0100
0000
0001
0100
,
1000
0000
0000
0000
0000
0000
2002
3003
,
2000
0010
3001
0000
2000
0010
3001
0000
,
1000
0000
0000
1000
0010
0000
0100
0000
0002
0000
0010
0000
1000
0000
1003
0000
,
0002
0100
1003
0000
0002
0100
1003
0000
,
0001
0001
0001
0100
0010
0100
1001
0000
,
0002
0100
1003
0000
0002
0100
1003
0000
,
0001
0000
0000
0001
0100
0000
0010
0000
2000
0000
0100
0000
0001
0000
3001
0000
,
2000
0010
3001
0000
2000
0010
3001
0000
,
1000
0010
0001
0010
1000
0001
1001
0000
,
0001
0100
0001
1000
0100
0002
0000
0103
,
1000
0010
0100
0001
2000
0000
3001
0000
,
1000
0100
1000
0001
0100
2000
0000
3100
,
0001
0010
0100
1000
0002
0000
1003
0000
,
0001
0010
0001
1000
0010
0002
0000
0013
,
1000
0100
0010
0001
2000
0000
3001
0000
,
1000
1000
0010
0010
0100
0100
0001
0001
,
0010
1000
0010
0001
1000
0000
1001
0000
,
1000
0000
0010
0000
1000
0000
0001
0010
0001
0000
0001
0000
0100
0000
0010
0000
,
0001
0001
0010
1000
0001
1000
0001
0000
,
0001
0000
0010
0000
0001
0000
1000
0010
1000
0000
1000
0000
0100
0000
0010
0000
,
1000
1000
0010
0001
1000
0001
1000
0000
,
1000
0000
0100
0000
1000
0000
0001
0100
0001
0000
0001
0000
0010
0000
0100
0000
,
0001
0001
0100
1000
0001
1000
0001
1000
,
0001
0000
1000
0010
1000
0000
0001
0000
1000
0000
0001
0100
0001
0000
1000
0000
,
0001
0000
0010
0100
0010
0000
0001
0000
2001
0000
0000
0000
3100
0000
0000
0000
,
1000
0000
0010
0000
1000
0000
0001
0010
0100
0000
0100
0000
1000
0000
0010
0000
,
0001
0001
0010
1000
0001
0100
0001
0000
,
0001
0000
0010
0000
0001
0000
1000
0010
0100
0000
0100
0000
0001
0000
0010
0000
,
1000
1000
0010
0001
1000
0100
1000
0000
,
1000
0000
0100
0000
1000
0000
0001
0100
0010
0000
0010
0000
1000
0000
0100
0000
,
0001
0000
0001
0000
0100
0000
1000
0000
0001
0000
0010
0000
0001
0000
0001
0100
,
0010
0000
1000
0010
1000
0000
0001
0000
1000
0000
0001
0010
0001
0000
1000
0000
,
0001
0100
0001
0100
0001
0100
0001
0100
0010
0000
1000
0000
0002
0000
0003
0000
;

//---------------dance-single - ----------------
#NOTES:
     dance-single:
     :
     Easy:
     7:
     0.367507,0.416765,0.235294,0.047059,0.000000,328.000000,298.000000,30.000000,6.000000,0.000000,0.000000,0.367507,0.416765,0.235294,0.047059,0.000000,328.000000,298.000000,30.000000,6.000000,0.000000,0.000000:
0000
0000
0000
0000
,
0000
0000
0000
0000
,
0000
0000
0000
0000
,
0000
0000
0000
0000
,
0001
1000
0001
0000
,
0100
0010
0100
0000
,
0001
0010
0100
1000
,
0001
1000
0001
0100
,
0000
0000
0000
0000
,
0010
0010
0010
1001
,
1000
0100
1000
1000
,
0001
0100
0001
1001
,
1000
0010
1000
1000
,
0001
0010
1000
0010
,
0001
0100
0001
0001
,
1000
0100
1000
1001
,
1000
0010
0001
0001
,
0010
1000
0001
1001
,
1000
0100
1000
1000
,
0001
0100
0010
1001
,
0001
0100
0001
0001
,
1000
0100
0010
1001
,
1000
0010
1000
1000
,
0001
0010
0100
1001
,
1000
1000
0001
0001
,
0010
0100
1001
0100
,
0001
0100
1000
0100
,
0010
0010
1000
1001
,
1000
0100
0001
0100
,
0010
0010
0001
1001
,
1000
0010
0001
0010
,
0100
0100
0010
1001
,
1000
1000
0001
0001
,
0010
0100
0010
1001
,
0001
0000
0100
0000
,
0010
0010
0000
0100
,
0100
0000
0001
0000
,
1000
0000
0001
0000
,
1000
0000
0100
0000
,
0010
0010
0000
0100
,
0100
0000
1000
0000
,
0001
0100
0010
1000
,
0001
0000
0010
0000
,
1000
1000
0000
0010
,
0010
0000
0100
0000
,
1000
0000
0001
0000
,
1000
1000
0010
0010
,
0100
0100
0001
0001
,
1000
1000
0100
0100
,
1001
0000
0000
0001
,
1000
1100
0001
0101
,
1000
0100
0010
1001
,
0001
0011
1000
1010
,
0001
0001
0001
1001
,
1000
0101
0001
1100
,
1000
0100
0010
1001
,
0001
1010
1000
0011
,
0001
0100
0010
1001
,
2000
0100
3002
0100
,
1003
0100
0010
1001
,
0002
0010
2003
0010
,
3001
0010
0100
1001
,
0002
0100
2003
0100
,
3001
0100
0010
1001
,
1000
0100
0001
0100
,
0010
0001
1001
0100
,
1000
0010
0001
0010
,
0100
0000
0001
0000
1000
1000
1000
0000
,
0001
0010
1000
0010
,
0100
0000
1000
0000
0001
0001
0001
0000
,
1000
0010
0001
0010
,
0100
0000
0001
0000
1000
1000
1000
0000
,
0100
0100
0100
0000
0010
0010
0010
0000
,
0001
0001
0001
0000
1000
0000
1001
0000
,
0001
0100
1000
0001
,
0010
0000
1000
0000
0001
0001
0001
0000
,
1000
0100
0001
1000
,
0010
0000
0001
0000
1000
1000
1000
0000
,
0001
0010
1000
0001
,
0100
0000
1000
0000
0001
0001
0001
0000
,
0100
0100
0100
0000
0010
0010
0010
0000
,
1000
1000
1000
0000
0001
0001
0001
0000
;

//---------------dance-single - ----------------
#NOTES:
     dance-single:
     :
     Beginner:
     4:
     0.231933,0.256471,0.007843,0.000000,0.000000,207.000000,206.000000,1.000000,0.000000,0.000000,0.000000,0.231933,0.256471,0.007843,0.000000,0.000000,207.000000,206.000000,1.000000,0.000000,0.000000,0.000000:
0000
0000
0000
0000
,
0000
0000
0000
0000
,
0000
0000
0000
0000
,
0000
0000
0000
0000
,
0001
0001
0001
0000
,
1000
1000
1000
0000
,
0010
0000
0100
0000
,
0001
0001
0001
0000
,
0000
0000
0000
0000
,
0000
0000
0000
0000
,
1000
0000
1000
0000
,
0010
0000
0100
0100
,
0100
0000
0001
0000
,
1000
1000
1000
0000
,
0001
0000
0001
0000
,
0010
0000
0100
0100
,
0100
0000
1000
0000
,
0001
0001
0001
0000
,
1000
0000
0010
0000
,
0100
0100
0100
0000
,
0001
0000
0010
0000
,
0100
0100
0100
0000
,
1000
0000
0001
0000
,
0010
0010
0010
0000
,
0001
0001
0001
0000
,
1000
1000
1000
0000
,
0010
0000
0100
0000
,
0001
0001
0001
0000
,
0010
0000
0100
0000
,
1000
1000
1000
0000
,
0001
0000
0100
0000
,
0010
0010
0010
0000
,
1000
1000
1000
0000
,
0001
0001
0001
0001
,
0001
0000
0010
0000
,
0100
0100
0000
1000
,
1000
0000
0010
0000
,
0100
0000
0000
0000
,
0001
0000
1000
0000
,
0100
0100
0000
0010
,
0010
0000
0001
0000
,
1000
0000
0010
0010
,
0010
0000
0100
0000
,
0001
0001
0000
1000
,
1000
0000
0100
0100
,
0100
0000
0010
0000
,
0001
0001
0001
0000
,
1000
1000
1000
0000
,
0010
0010
0010
0000
,
1001
0000
0000
0000
,
1000
0000
0010
0000
,
0100
0100
0100
0100
,
0100
0000
0001
0000
,
1000
1000
1000
1000
,
1000
0000
0100
0000
,
0010
0010
0010
0010
,
0010
0000
0001
0000
,
1000
0000
0001
0001
,
0001
0000
0100
0000
,
0010
0010
0010
0010
,
0010
0000
1000
0000
,
0001
0001
0001
0001
,
0001
0000
0010
0000
,
0100
0100
0100
0000
,
1000
1000
1000
1000
,
1000
1000
1000
0000
,
0001
0000
0100
0000
,
0010
0010
0010
0010
,
0010
0000
0100
0000
,
0001
0001
0001
0001
,
0001
0000
0010
0000
,
0100
0100
0100
0100
,
0100
0000
1000
0000
,
0001
0001
0001
0000
,
1000
0000
0010
0000
,
0100
0100
0100
0100
,
0100
0000
0010
0000
,
1000
1000
1000
1000
,
1000
0000
0001
0000
,
0010
0010
0010
0010
,
0010
0000
0100
0000
,
1000
1000
1000
1000
;
