#VERSION:0.83;
#TITLE:PARTY TIME!;
#SUBTITLE:;
#ARTIST:RoughSketch & Hommarju;
#TITLETRANSLIT:;
#SUBTITLETRANSLIT:;
#ARTISTTRANSLIT:;
#GENRE:;
#CREDIT:;
#MUSIC:PARTY TIME!.ogg;
#BANNER:;
#BACKGROUND:;
#CDTITLE:;
#SAMPLESTART:24.088;
#SAMPLELENGTH:15.000;
#SELECTABLE:YES;
#OFFSET:-1.351;
#BPMS:0.000=190.000;
#STOPS:;
#BGCHANGES:;
#FGCHANGES:;

//--------------- dance-single - eataninja ----------------
#NOTEDATA:;
#STEPSTYPE:dance-single;
#DESCRIPTION:eataninja;
#DIFFICULTY:Beginner;
#METER:5;
#RADARVALUES:0,0,0,0,0;
#NOTES:
0000
0000
0000
0000
,
0000
0000
0000
0000
,
0000
0000
0000
0000
,
0000
0000
0000
0000
,
0000
0000
0000
0000
,
0000
0000
0000
0000
,
0000
0000
0000
0000
,
0000
0000
0000
0000
,
0000
0000
0000
0000
,
1000
0000
0100
0000
,
0001
0000
0000
0000
,
0001
0000
0100
0000
,
1000
0000
0000
0000
,
0001
0000
0100
0000
,
0001
0000
0000
0000
,
1001
0000
1001
0000
,
0100
0100
0100
0000
,
1000
0000
0000
0000
,
0001
0000
0100
0000
,
0010
0000
0100
0000
,
0001
0000
0010
0000
,
0100
0000
1000
0000
,
0010
0000
1000
0000
,
0100
0000
1000
0000
,
0010
0000
0100
0000
,
0001
0000
0000
0000
,
1000
0000
0100
0000
,
0010
0000
0100
0000
,
1000
0000
0010
0000
,
0100
0000
0001
0000
,
0010
0000
0100
0000
,
0010
0000
0001
0000
,
1000
1000
1000
0000
,
0010
0000
0000
0000
,
0200
0000
0000
0300
,
0100
0000
0000
0000
,
0001
0000
1000
0000
,
1001
0000
0000
0000
,
1000
0000
0100
0000
,
1000
1000
1000
0000
,
0001
0000
0100
0000
,
0010
0010
0010
0000
,
1000
0000
0010
0000
,
1000
1000
1000
0000
,
0001
0000
0010
0000
,
0100
0000
0000
0000
,
1000
1000
0001
0000
,
0001
0000
0100
0000
,
0001
0001
1000
0000
,
1000
0000
0100
0000
,
0010
0010
0010
0000
,
0010
0010
0100
0000
,
0110
0000
1001
0000
,
1000
0010
1000
0000
,
0001
0000
0100
0000
,
1000
0000
0000
0000
,
1000
0000
0100
0000
,
0001
0000
0000
0000
,
0010
0000
0100
0000
,
1000
0000
0000
0000
,
0010
0000
0100
0000
,
0001
0000
0000
0000
,
1000
0000
0010
0000
,
0001
0000
0000
0000
,
0001
0000
0010
0000
,
1000
0000
0000
0000
,
0001
0000
0100
0000
,
0001
0000
0000
0000
,
1001
0000
1001
0000
,
0100
0100
0100
0000
,
0000
0000
0000
0000
,
0001
1000
1001
0000
,
1000
0000
0010
0000
,
0100
0000
1000
0000
,
0100
0000
0010
0000
,
1000
0000
0001
0000
,
0010
0000
0100
0000
,
0001
0000
0100
0000
,
0010
0010
0010
0000
,
0001
0000
0000
0000
,
1000
0000
0010
0000
,
0001
0000
0010
0000
,
0100
0000
0001
0000
,
1000
1000
1000
0000
,
0100
0000
0001
0000
,
0100
0000
1000
0000
,
0010
0000
0100
0000
,
0001
0001
0001
0000
,
0100
0100
0100
0000
,
0100
0100
0010
0000
,
0110
0000
1001
0000
,
0001
1000
0001
1000
,
0100
0000
0000
0000
;

//--------------- dance-single - eataninja ----------------
#NOTEDATA:;
#STEPSTYPE:dance-single;
#DESCRIPTION:eataninja;
#DIFFICULTY:Easy;
#METER:10;
#RADARVALUES:0,0,0,0,0;
#NOTES:
0000
0000
0000
0000
,
0000
0000
0000
0000
,
0000
0000
0000
0000
,
0000
0000
0000
0000
,
0000
0000
0000
0000
,
0000
0000
0000
0000
,
0000
0000
0000
0000
,
0000
0000
0000
0000
,
0000
0000
0000
0000
,
1000
0100
0001
0100
,
1000
0000
0001
1000
,
0001
0100
1000
0100
,
0001
0000
1000
0010
,
0100
0100
0001
0001
,
0010
0010
0100
0100
,
0110
1000
1001
0001
,
0100
0010
0100
0000
0001
1000
0001
0000
,
0010
0000
0000
0000
0100
0010
0001
0000
,
1000
1000
0010
0010
,
0001
0000
0010
0000
1000
0010
1000
0000
,
0001
0001
0010
0010
,
1000
0000
0010
0000
0001
0010
0001
0000
,
1000
1000
0100
0100
,
0001
0000
0100
0000
1000
0001
1000
0000
,
0010
0010
0100
0100
,
0001
0010
0110
1001
,
0001
0001
0100
0100
,
1000
0000
0100
0000
0001
0100
0001
0000
,
1000
1000
0100
0100
,
0001
0000
0100
0000
1000
0100
1000
0000
,
0001
0001
0010
0010
,
1000
0000
0010
0000
0001
1000
0001
0000
,
1001
0100
0110
0001
,
1000
0100
1000
0000
0001
0010
0001
0000
,
0200
0000
0000
0300
,
0101
0000
0000
0000
,
1000
0001
1000
0000
0001
1000
0001
0000
,
1001
0110
1001
0000
,
1000
0000
0100
0000
0001
0000
0100
0100
,
0010
0001
1001
0000
,
0001
0000
0100
0000
1000
0000
0100
0100
,
0010
1000
1001
0000
,
1000
0000
0100
0000
0001
0100
1000
0000
,
0001
0000
1000
1000
0010
0000
0100
0000
,
0001
0000
0010
0010
0010
0000
0100
0000
,
1001
1001
1001
0000
,
1000
0100
1000
0000
0001
0100
0001
0000
,
1000
0010
0100
0000
0001
0001
0000
0000
,
1000
0010
1000
0000
0001
0010
0001
0000
,
0010
0100
1000
0000
0001
0001
0000
0000
,
1000
0100
1000
0000
0010
0010
0000
0000
,
0001
0100
0001
0000
0100
0100
0000
0000
,
0101
0000
1010
0000
,
1000
0001
0010
0100
,
2000
0000
0001
0000
,
3001
0000
0000
0000
,
0002
0000
0100
0000
,
0103
0000
0000
0000
,
0200
0010
0010
0000
,
0301
0000
0000
0000
,
0002
1000
0100
0000
,
1003
0000
0000
0000
,
0001
0010
1000
0010
,
0001
0000
1000
0001
,
1000
0010
0001
0010
,
1000
0000
0001
0100
,
0010
0010
1000
1000
,
0100
0100
0010
0010
,
0110
0001
1001
1000
,
0010
0100
0010
0000
1000
0001
1000
0000
,
0100
0100
0100
0100
,
0010
0001
0010
0001
1000
0000
1010
0000
,
0001
0000
0100
0000
1000
0100
0001
0000
,
0010
0100
1000
1000
,
0001
0000
0010
0000
1000
0010
0001
0000
,
1000
0010
0100
0100
,
0001
0000
1000
0000
0100
0001
0100
0000
,
0010
0001
1000
1000
,
0010
0000
0100
0000
0001
1000
0100
0000
,
0001
0001
0100
1000
,
0001
0100
0001
0000
1000
0010
0100
0000
,
0001
0010
0100
1000
,
0001
0010
0001
0000
1000
1000
1000
0000
,
0010
0001
1000
0100
,
0010
0000
1000
0000
0001
0010
0100
0000
,
0010
0000
0001
0001
1000
0000
0010
0000
,
0110
0100
1001
0001
,
1000
0000
0100
0001
0100
0001
0100
0000
,
0010
0001
1000
0000
0010
0010
0000
0000
,
0100
0001
1000
0000
0001
0001
0000
0000
,
0101
0000
1010
0000
,
1000
0001
0010
0100
,
1001
0000
0000
0000
;

//--------------- dance-single - eataninja ----------------
#NOTEDATA:;
#STEPSTYPE:dance-single;
#DESCRIPTION:eataninja;
#DIFFICULTY:Medium;
#METER:14;
#RADARVALUES:0,0,0,0,0;
#NOTES:
0000
0000
0000
0000
,
0000
0000
0000
0000
,
0000
0000
0000
0000
,
0000
0000
0000
0000
,
0000
0000
0000
0000
,
0000
0000
0000
0000
,
0000
0000
0000
0000
,
0000
0000
0000
0000
,
0000
0000
0000
0000
,
1000
0000
0001
0000
0100
0000
0000
0000
0010
0000
0000
1000
0000
0000
0010
0000
,
1000
0000
0001
0000
0010
0000
0000
0000
0100
0000
0000
0010
0000
0000
0001
0000
,
0001
0000
1000
0000
0010
0000
0000
0000
0100
0000
0000
0001
0000
0000
0100
0000
,
0001
0000
1000
0000
0100
0000
0000
0000
0010
0000
0000
0001
0000
0000
1000
0000
,
0010
0001
0010
0000
0100
0010
1000
0000
,
0100
0001
0100
0000
0010
0001
1000
0000
,
0001
1000
0010
0100
0001
1000
0100
0010
,
0001
0100
0001
0100
1000
0100
1000
0100
,
0010
0000
0000
0010
0100
0001
1000
0000
,
0001
0010
0010
0001
1000
1000
0001
0100
,
0010
1000
0100
0010
0001
1000
0010
0000
,
0100
0001
0001
1000
0001
0001
0010
1000
,
0010
0100
1000
0001
0100
0010
1000
0000
,
0010
1000
1000
0001
1000
1000
0100
0001
,
0100
0010
0001
1000
0010
0100
0001
0000
,
1000
0100
1000
0100
0010
0001
1000
0010
,
0000
0100
0100
0001
1001
0000
1100
0000
,
0001
1000
1000
0001
0100
0100
0001
0010
,
0100
0001
0100
0010
0001
1000
0010
0000
,
0100
0001
0001
1000
0001
0001
0010
1000
,
0001
0100
1000
0001
1000
0010
0100
0000
,
0010
1000
1000
0001
1000
1000
0100
0001
,
1000
0010
0001
1000
0010
0100
0001
0000
,
1000
0010
1000
0010
0100
0001
0010
1000
,
0000
0010
0010
0100
0100
1000
0001
0000
,
0102
0000
1003
0000
,
2010
0000
3001
0000
,
1000
1000
0100
0000
0001
0001
0100
0000
,
1000
0000
0000
0000
0001
0000
0000
1000
0010
0000
0100
0000
0001
0000
0000
0000
,
1000
0100
1100
0000
0001
0000
0100
0100
,
0010
0000
1000
0100
0001
0001
0100
0000
,
0010
0001
0011
0000
1001
0000
1000
1000
,
0010
0100
0001
0001
1000
0100
0010
0000
,
0001
1000
1001
0000
1000
0010
0001
0010
,
0100
0000
0010
1000
0001
0001
1000
0000
,
1100
0000
0001
0001
0101
0000
1010
0000
,
0001
0000
1000
0100
0000
1000
0100
0000
0010
0000
0001
0000
1000
0000
0010
0000
,
0100
0001
1001
0000
0100
0001
1001
0000
,
0001
0000
1000
0100
0000
1000
0100
0000
0010
0000
0010
0000
0001
0000
0000
0000
,
0100
0001
1001
0000
0001
0100
1000
0100
,
0001
0000
1000
0010
0000
1000
0010
0000
0100
0000
0001
0000
0010
0000
0000
0000
,
0100
0000
0010
0001
0000
0010
0001
0000
1000
0000
1000
0000
0010
0000
0000
0000
,
0100
0000
0010
1000
0000
0010
1000
0000
0001
0000
0001
0000
0010
0000
0000
0000
,
0100
0010
1001
0000
1000
0010
0001
0000
,
0010
0000
0000
0100
0000
0000
0001
0000
1000
0000
0100
0000
0010
0000
0001
0000
,
0200
0000
1000
0000
,
0310
0000
0000
0000
,
2000
0000
0100
0000
,
3001
0000
0000
0000
,
0020
1000
0100
0000
,
0031
0000
0000
0000
,
0002
0010
1000
0000
,
0103
0000
0110
1001
,
1000
0000
0100
0000
0001
0000
0000
0000
0100
0000
0000
0010
0000
0000
0100
0000
,
0010
0000
0001
0000
0100
0000
0000
0000
0010
0000
0000
1000
0000
0000
1000
0000
,
0001
0000
0100
0000
1000
0000
0000
0000
0100
0000
0000
0010
0000
0000
0100
0000
,
0010
0000
1000
0000
0001
0000
0000
0000
0010
0000
0000
0100
0000
0000
1000
0000
,
0001
0100
0001
0100
0010
1000
0001
0000
,
1000
0100
1000
0100
0010
0001
1000
0000
,
0001
0100
0010
1000
0001
0010
0100
1000
,
0001
0010
0001
0010
1000
0010
1000
0010
,
0100
0100
0100
0100
,
1000
0001
0100
0010
1000
0100
1001
0000
,
1000
0100
0100
0001
0100
0100
0010
0010
,
0001
1000
0010
0100
0001
1000
0100
0000
,
1000
0010
0010
0001
0010
0010
0100
0001
,
1000
0001
1000
1000
0100
0010
0001
0000
,
1000
0100
0100
0001
0100
0100
0010
0001
,
1000
0010
0100
0100
0001
1000
0100
0000
,
0010
0001
1000
0010
0001
1000
0100
0010
,
0000
0010
1000
0100
0010
0001
1001
0000
,
1000
0010
0010
0001
0001
1000
0100
0001
,
1000
0100
0010
0001
0100
0010
1000
0000
,
0001
0010
0010
1000
0001
0001
0100
1000
,
0001
0100
0010
0100
0001
0010
0100
1000
,
0001
0000
0100
0001
0100
0000
0000
0000
0010
0000
1000
0000
0100
0000
0010
0000
,
0001
1000
0001
0001
0100
1000
0100
0000
,
0010
0000
1000
0010
1000
0000
0000
0000
0010
0000
0001
0000
1000
0000
0100
0000
,
0000
0010
1000
0100
0001
0100
1000
0000
,
0001
0000
0010
0001
0000
0010
0001
0000
1000
0000
0010
0000
0100
0000
0000
0000
,
0001
0000
0100
0001
0000
0100
0001
0000
1000
0000
0100
0000
0010
0000
0000
0000
,
0001
1000
1010
0000
1000
0010
0001
0000
,
0010
0000
1000
0010
0000
1000
0010
0000
0100
0000
0001
0000
0010
0000
0100
0000
,
1001
0000
0000
0000
;

//--------------- dance-single - eataninja ----------------
#NOTEDATA:;
#STEPSTYPE:dance-single;
#DESCRIPTION:eataninja;
#DIFFICULTY:Hard;
#METER:17;
#RADARVALUES:0,0,0,0,0;
#NOTES:
0000
0000
0000
0000
,
0000
0000
0000
0000
,
0000
0000
0000
0000
,
0000
0000
0000
0000
,
0000
0000
0000
0000
,
0000
0000
0000
0000
,
0000
0000
0000
0000
,
0000
0000
0000
0000
,
0000
0000
0000
0000
,
1000
0000
0001
0000
0100
0001
0000
0000
1000
0000
0000
1000
0000
0000
0010
0000
,
1000
0000
0001
0000
0010
0001
0000
0000
1000
0000
0000
0100
0000
0000
0110
0000
,
1001
0000
1000
0000
0010
1000
0000
0000
0001
0000
0000
0001
0000
0000
0100
0000
,
0001
0000
1000
0000
0100
1000
0000
0000
0001
0000
0000
0100
0000
0000
0110
0000
,
1001
0001
1000
0100
0001
0100
0010
0001
,
1001
1000
0001
0010
1000
0010
0100
1000
,
0001
0100
0010
0000
0100
0000
0001
0000
1000
0100
0010
0000
0100
0000
1000
0000
,
0001
0100
0001
0000
1000
0010
1000
0000
0001
1000
0001
0010
0100
1000
0001
0100
,
0010
0000
0000
0010
1001
0100
0101
0000
,
1000
0000
0001
0100
0001
0000
1000
0000
0001
0010
0001
0000
0200
0300
0200
0300
,
1000
0000
0001
0000
0100
0000
1000
0100
1000
0000
0100
0010
0100
0000
0000
0000
,
0001
0000
1000
0010
1000
0000
0001
0000
1000
0100
1000
0000
0020
0030
0020
0030
,
0001
0000
1000
0100
0010
0000
0001
0000
1000
0010
0100
0000
0010
0000
0000
0000
,
0100
0000
0001
0100
0001
0000
0100
0000
0001
1000
0001
0000
0020
0030
0020
0030
,
1000
0000
0100
0000
0010
0000
0001
1000
0001
0000
0100
0000
1000
0000
0000
0000
,
0100
0000
0010
1000
0010
0000
0100
0000
0001
0000
0010
0000
0100
0000
0001
0000
,
0000
0000
0100
0010
0001
0000
1000
0010
0100
0000
0010
0000
1001
0000
0000
0000
,
1000
0000
0001
0100
0001
0000
1000
0000
0001
0010
0001
0000
0200
0300
0200
0300
,
1000
0000
0020
0030
0020
0030
0001
1000
0001
0000
0010
0000
1000
0000
0010
0001
,
1000
0000
0001
0010
0001
0000
1000
0000
0001
0100
0001
0000
0020
0030
0020
0030
,
1000
0000
0200
0300
0200
0300
0001
0010
0100
0000
1000
0000
0010
0000
0100
0001
,
0100
0000
0001
1000
0001
0000
0010
0000
0100
0010
0001
0000
0200
0300
0200
0300
,
1000
0000
0020
0030
0020
0030
0001
0000
1000
0000
0100
0000
0001
0000
0100
0000
,
0110
0000
0010
0001
1000
0000
0010
0000
0110
0000
0100
0000
1000
0100
0001
0000
,
0000
0000
1000
0100
1000
0000
0001
0010
0001
0000
1000
0010
0100
0000
0000
0000
,
0002
0100
0100
0103
,
2000
0010
0010
3010
,
0002
1000
1000
1003
,
0101
0000
0000
0000
1010
0000
0000
0010
1000
0000
0100
0000
0001
0000
0000
0000
,
0100
0000
0010
0001
0000
0010
0001
0000
1000
0000
0010
0000
0100
0000
0001
0000
,
1000
0000
0001
0010
0000
0001
0010
0000
0100
0000
0100
0000
0010
0000
0001
0000
,
1000
0000
0010
0100
0000
0010
0100
0000
0001
0000
1000
0000
0100
0000
0010
0000
,
0001
0000
1000
0000
0010
1000
0010
1000
0001
0000
0100
0000
0010
0000
1000
0000
,
0001
0000
1000
0100
0000
1000
0100
0000
0010
0000
0001
0000
1000
0000
0010
0000
,
0100
0000
0001
1000
0000
0001
1000
0000
0100
0000
0100
0000
0010
0000
0001
0000
,
1000
0000
0001
0100
0000
0001
0100
0000
0010
0000
1000
0000
0001
0000
1000
0000
,
0100
0000
0001
0100
0000
1000
0100
0000
0010
0000
0001
0000
1000
0000
0010
0000
,
0100
0000
0010
1000
0000
0010
1000
0001
0100
0000
0010
0000
1000
0000
0001
0000
,
0010
0000
0100
1000
0000
0100
1000
0001
0100
0000
0100
0000
2002
3003
0000
0000
,
0001
0000
0100
0010
0000
0100
0010
1000
0001
0000
1000
0000
0100
0000
0010
0000
,
0001
0000
0100
1000
0000
0100
0001
0000
1000
0000
0100
0000
0002
0003
0000
0000
,
0100
0000
0010
0001
0000
1000
0010
0100
0010
0000
0100
0000
2000
3000
0000
0000
,
0100
0000
0010
1000
0000
0001
1000
0100
0010
0000
0010
0000
2000
3000
0000
0000
,
0010
0000
0001
1000
0100
0000
0000
0000
0010
0001
0010
0001
0100
0000
0000
0000
,
0010
0000
0001
0010
0000
1000
0010
0000
0100
0000
0001
0000
1000
0000
0100
0000
,
0020
0000
1000
0000
,
0100
0000
0031
0000
,
0200
0000
1000
0000
,
0010
0000
0301
0000
,
1000
0000
0001
0000
0010
0000
0100
1000
,
0001
0000
0100
0000
0010
0000
0100
0001
,
0010
0000
1000
0000
0001
0000
0100
0010
,
0001
1000
1010
0101
,
1000
0000
0001
0000
0100
0010
0000
0000
1000
0000
0001
0010
0000
0001
1000
0000
,
0010
0000
0100
0000
0010
1000
0000
0000
0001
0000
1000
0100
0000
0010
0100
0000
,
0010
0000
0001
0000
1000
0001
0000
0000
0100
0000
0010
1000
0000
0001
1000
0000
,
0100
0000
0010
0000
0001
1000
0000
0000
0010
0000
1000
0001
0000
0100
0001
0000
,
1000
0010
1000
0000
0001
0000
0010
0000
0100
0000
0001
0000
0100
0000
0010
0000
,
0001
1000
0001
0000
1000
0000
0010
0000
0100
0000
1000
0000
0100
0000
0010
0000
,
1000
0001
0010
0000
0100
0000
1000
0000
0001
1000
0010
0000
0100
0000
0001
0000
,
1000
0010
1000
0000
0001
0010
0001
0000
1000
0100
0010
0001
1000
0010
1000
0001
,
0100
0000
0000
0000
0100
0000
0000
0000
0100
0000
0000
0100
0001
0000
0001
0000
,
1000
0100
0010
0001
0011
1000
1010
0000
,
0001
0000
0100
0100
1000
0000
0001
0000
0100
0010
0100
0000
0001
0000
0010
0000
,
1000
0010
1000
0000
0010
0000
0100
0010
0001
0000
1000
0000
0010
0000
0000
0000
,
1000
0000
0100
0100
0001
0000
1000
0000
0100
0010
0001
0000
1000
0000
0010
0000
,
0001
0000
0010
0100
0010
0000
0100
0001
1000
0000
0100
0000
0010
0000
0000
0000
,
0001
0000
0100
0100
1000
0000
0001
0000
0100
0010
1000
0000
0001
0000
0010
0000
,
1000
0000
0010
0100
0010
0000
0100
0010
0001
0000
1000
0010
0100
0000
0000
0000
,
0001
0000
0100
0001
0100
0000
0010
0000
1000
0000
0100
0000
0001
0100
1000
0000
,
0000
0000
0001
0010
0001
0000
1000
0010
1000
0000
0010
0000
0101
0000
0000
0000
,
1000
0000
0001
0100
0100
1000
0001
0000
0010
0000
1000
0000
0010
0000
0001
0000
,
1000
0000
0010
0000
0100
0000
1000
0100
1000
0000
0100
0001
0100
0000
0010
1000
,
0001
0000
1000
0100
0100
0001
1000
0000
0001
0010
0001
0000
0010
0000
1000
0000
,
0010
0001
0010
0001
1000
0010
0100
0000
0010
1000
0010
1000
0001
0010
0100
0000
,
1000
0000
0100
0100
0001
0000
0010
0000
0100
0000
0001
0000
0100
0000
1000
0000
,
0001
0100
0001
0000
1000
0000
1000
0000
0010
0000
0001
0000
0010
0000
1000
0000
,
0001
0000
0100
0100
1000
0000
0020
0030
0020
0030
0001
0000
1000
0100
0001
0000
,
0000
0000
0100
0010
0100
0000
1000
0001
1000
0000
0010
0100
0010
0000
0001
0000
,
1000
0000
0100
0010
0000
0100
0010
1000
0001
0000
0010
0000
2000
3000
0000
0000
,
0010
0000
0001
0010
0000
0001
0010
0100
1000
0000
1000
0000
0020
0030
0000
0000
,
0100
0000
0001
0100
0010
0000
0000
0000
1000
0100
1000
0100
0010
0000
0000
0000
,
0001
0000
1000
0100
0000
0001
0100
0000
1000
0000
0001
0000
0100
0000
0010
0000
,
1001
0000
0000
0000
;
