#VERSION:0.83;
#TITLE:P.P.R.;
#SUBTITLE:;
#ARTIST:Handsome JET Jr.;
#TITLETRANSLIT:;
#SUBTITLETRANSLIT:;
#ARTISTTRANSLIT:;
#GENRE:;
#CREDIT:;
#MUSIC:PPR.ogg;
#BANNER:PPR-bn.png;
#BACKGROUND:PPR-bg.png;
#JACKET:PPR-jacket.png;
#DISCIMAGE:;
#CDIMAGE:;
#SELECTABLE:YES;
#LYRICSPATH:;
#CDTITLE:;
#SAMPLESTART:1.302;
#SAMPLELENGTH:12.000;
#BPMS:0.000=178.000,
364.000=168.000,
366.000=125.000,
368.000=116.010,
378.000=174.000
;
#STOPS:;
#WARPS:;
#DELAYS:;
#SPEEDS:;
#SCROLLS:0.000=1.000,
378.000=0.700
;
#TICKCOUNTS:0.000=4;
#TIMESIGNATURES:0.000=4=4;
#LABELS:0.000=Song Start;
#COMBOS:0.000=1;
#FAKES:;
#BGCHANGES:4=PPR.mp4=1.000=0=0=1=====,
99999=-nosongbg-=1.000=0=0=0=StretchNoLoop====
;
#FGCHANGES:;
#ATTACKS:;
#TAGS:;
#PREVIEWVID:;

//---------------dance-single - OrangeRight---------------
#NOTEDATA:;
#CHARTNAME:;
#CHARTSTYLE:;
#CREDIT:OrangeRight;
#STEPSTYPE:dance-single;
#DESCRIPTION:OrangeRight;
#DIFFICULTY:Beginner;
#METER:3;
#METERF:0;
#RADARVALUES:0.002173,0.002282,0.007607,0,0,2,1,1,0,0,0,0,0,0,0.002173,0.002282,0.007607,0,0,2,1,1,0,0,0,0,0,0;
#CHARTHASH:2583195108;
#BANNER:;
#LASTSECONDHINT:130.582748;
#NOTES:
// measure 0
0000
0000
0000
0000
,  // measure 1
0000
0000
0000
0000
,  // measure 2
0000
0000
0000
0000
,  // measure 3
0000
0000
0000
0000
,  // measure 4
0000
0000
0000
0000
,  // measure 5
1000
0000
0000
0000
,  // measure 6
0001
0000
0000
0000
,  // measure 7
1000
0000
0000
0000
,  // measure 8
1000
0000
0000
0000
,  // measure 9
0001
0000
0000
0000
,  // measure 10
0001
0000
0000
0000
,  // measure 11
1000
0000
0000
0000
,  // measure 12
0010
0000
0000
0000
,  // measure 13
1000
0000
0001
0000
,  // measure 14
1000
0000
0000
0000
,  // measure 15
0001
0000
0000
0000
,  // measure 16
0010
0000
0000
0000
,  // measure 17
0001
0000
1000
0000
,  // measure 18
0001
0000
0000
0000
,  // measure 19
1000
0000
0000
0000
,  // measure 20
1000
0000
0000
0000
,  // measure 21
0010
0000
0010
0000
,  // measure 22
0010
0000
0000
0000
,  // measure 23
0100
0000
0000
0000
,  // measure 24
0100
0000
0000
0000
,  // measure 25
0001
0000
1000
0000
,  // measure 26
0001
0000
0000
0000
,  // measure 27
1000
0000
0001
0000
,  // measure 28
1001
0000
0000
0000
,  // measure 29
1000
0000
0000
0000
,  // measure 30
0001
0000
0000
0000
,  // measure 31
0010
0000
0000
0000
,  // measure 32
0100
0000
0000
0000
,  // measure 33
1000
0000
0000
0000
,  // measure 34
0010
0000
0100
0000
,  // measure 35
0010
0000
0000
0000
,  // measure 36
1000
0000
0001
0000
,  // measure 37
0000
0000
0000
0000
,  // measure 38
0000
0000
0000
0000
,  // measure 39
1000
0000
1000
0000
,  // measure 40
0001
0000
0001
0000
,  // measure 41
0000
0000
0000
0000
,  // measure 42
0000
0000
0000
0000
,  // measure 43
0001
0000
0001
0000
,  // measure 44
1000
0000
1000
0000
,  // measure 45
0000
0000
0000
0000
,  // measure 46
0000
0000
0000
0000
,  // measure 47
0010
0000
0000
0000
,  // measure 48
0100
0000
0001
0000
,  // measure 49
0000
0000
0000
0000
,  // measure 50
0000
0000
0000
0000
,  // measure 51
0010
0000
0000
0000
,  // measure 52
0100
0000
1000
0000
,  // measure 53
0000
0000
0000
0000
,  // measure 54
0000
0000
0000
0000
,  // measure 55
1000
0000
0010
0000
,  // measure 56
0100
0000
0001
0000
,  // measure 57
0000
0000
0000
0000
,  // measure 58
0000
0000
0000
0000
,  // measure 59
0001
0000
0010
0000
,  // measure 60
0100
0000
1000
0000
,  // measure 61
0001
0000
0000
0000
,  // measure 62
0001
0000
1000
0000
,  // measure 63
1000
0000
0000
0000
,  // measure 64
1000
0000
0001
0000
,  // measure 65
1000
0000
0000
0000
,  // measure 66
1000
0000
0000
0000
,  // measure 67
0100
0000
0100
0000
,  // measure 68
0100
0000
0000
0000
,  // measure 69
0010
0000
0000
0000
,  // measure 70
0010
0000
0000
0000
,  // measure 71
0001
0000
1000
0000
,  // measure 72
0001
0000
0000
0000
,  // measure 73
1000
0000
0001
0000
,  // measure 74
1001
0000
0000
0000
,  // measure 75
1000
0000
0000
0000
,  // measure 76
0001
0000
0000
0000
,  // measure 77
0010
0000
0000
0000
,  // measure 78
0100
0000
0000
0000
,  // measure 79
1000
0000
0000
0000
,  // measure 80
0010
0000
0100
0000
,  // measure 81
0010
0000
0000
0000
,  // measure 82
1000
0000
0001
0000
,  // measure 83
1000
0000
1000
0000
,  // measure 84
1000
0000
1000
0000
,  // measure 85
0001
0000
0001
0000
,  // measure 86
0001
0000
0001
0000
,  // measure 87
1000
0000
1000
0000
,  // measure 88
0001
0000
0001
0000
,  // measure 89
1000
0000
0000
0000
,  // measure 90
0001
0000
0000
0000
,  // measure 91
1000
0000
0000
0000
,  // measure 92
2002
0000
0000
0000
,  // measure 93
0000
0000
0000
0000
,  // measure 94
0000
0000
0000
0000
,  // measure 95
0000
3003
0000
0000
;

//---------------dance-single - OrangeRight---------------
#NOTEDATA:;
#CHARTNAME:;
#CHARTSTYLE:;
#CREDIT:OrangeRight;
#STEPSTYPE:dance-single;
#DESCRIPTION:OrangeRight;
#DIFFICULTY:Easy;
#METER:7;
#METERF:0;
#RADARVALUES:0.002173,0.002282,0.007607,0,0,2,1,1,0,0,0,0,0,0,0.002173,0.002282,0.007607,0,0,2,1,1,0,0,0,0,0,0;
#CHARTHASH:2583195108;
#BANNER:;
#LASTSECONDHINT:130.582748;
#NOTES:
// measure 0
0000
0000
0000
0000
,  // measure 1
0000
0000
0000
0000
,  // measure 2
0000
0000
0000
0000
,  // measure 3
0000
0000
0000
0000
,  // measure 4
0000
0000
0000
0000
,  // measure 5
1000
0001
1000
0001
,  // measure 6
0010
0100
0010
0010
,  // measure 7
0001
0100
0100
0001
,  // measure 8
0001
0000
0000
1000
0000
0000
1001
0000
,  // measure 9
1000
0100
0100
1000
,  // measure 10
1000
0000
0000
0001
0000
0000
1001
0000
,  // measure 11
1000
0010
1000
0000
,  // measure 12
0001
0010
0001
0000
,  // measure 13
1000
0100
0010
0001
,  // measure 14
0100
0000
0100
0000
,  // measure 15
0001
0010
0001
0000
,  // measure 16
1000
0010
1000
0000
,  // measure 17
0001
0010
0100
1000
,  // measure 18
0002
0003
2000
3000
,  // measure 19
2002
0000
3003
1000
,  // measure 20
0001
0000
0010
0001
,  // measure 21
0100
0010
1000
0100
,  // measure 22
2000
3000
0002
0003
,  // measure 23
2002
0000
3003
0001
,  // measure 24
1000
0000
0100
1000
,  // measure 25
0010
0010
0010
0010
,  // measure 26
0100
0100
0100
0100
,  // measure 27
0001
1000
0001
1000
,  // measure 28
2002
0000
0000
3003
,  // measure 29
1000
0001
1000
0001
,  // measure 30
0100
0010
0100
0000
,  // measure 31
0001
1000
0001
1000
,  // measure 32
0100
0010
0100
0000
,  // measure 33
1000
0100
1000
0100
,  // measure 34
0010
0001
0010
0010
,  // measure 35
0100
1000
0001
1000
,  // measure 36
0010
0010
0100
0100
,  // measure 37
0002
0000
2003
0000
,  // measure 38
3002
0000
2003
0000
,  // measure 39
3001
0001
1000
1000
,  // measure 40
0001
0001
1000
1000
,  // measure 41
0020
0000
0230
0000
,  // measure 42
0320
0000
0230
0000
,  // measure 43
0310
0010
0100
0100
,  // measure 44
0010
0010
0100
0100
,  // measure 45
0002
0000
0023
0000
,  // measure 46
0230
0000
2300
0000
,  // measure 47
3001
0001
0010
0010
,  // measure 48
0100
0100
1000
0001
,  // measure 49
2000
0000
3020
0000
,  // measure 50
0230
0000
0302
0000
,  // measure 51
1003
1000
0010
0010
,  // measure 52
0100
0100
0002
0003
,  // measure 53
2000
0000
3002
0000
,  // measure 54
0203
0000
0320
0000
,  // measure 55
1030
0001
1000
0001
,  // measure 56
0100
0010
0100
0010
,  // measure 57
2000
0000
3200
0000
,  // measure 58
0320
0000
0032
0000
,  // measure 59
1003
0100
0010
0001
,  // measure 60
1000
1000
0001
0001
,  // measure 61
1000
1000
1000
0000
,  // measure 62
0001
0100
0010
1000
,  // measure 63
0001
0001
0001
0000
,  // measure 64
1000
1000
0001
0001
,  // measure 65
2002
0000
3003
0001
,  // measure 66
1000
0000
0100
1000
,  // measure 67
0010
0100
0001
1000
,  // measure 68
0001
0001
1000
1000
,  // measure 69
2002
0000
3003
0001
,  // measure 70
1000
0000
0010
0100
,  // measure 71
0001
0001
0001
0001
,  // measure 72
1000
1000
1000
1000
,  // measure 73
0010
0100
0010
0100
,  // measure 74
0220
0000
0000
0330
,  // measure 75
0010
1000
0010
1000
,  // measure 76
0001
0100
0001
0000
,  // measure 77
0010
0001
0010
0001
,  // measure 78
1000
0100
1000
0000
,  // measure 79
0001
1000
0001
1000
,  // measure 80
0010
0100
0010
0010
,  // measure 81
1000
0100
0010
0001
,  // measure 82
1000
1000
0001
0001
,  // measure 83
1001
0000
1001
0000
,  // measure 84
1001
0000
1001
0000
,  // measure 85
0110
0000
0110
0000
,  // measure 86
0110
0000
0110
0000
,  // measure 87
1000
0001
1000
0001
,  // measure 88
0100
0010
0100
0100
,  // measure 89
0001
0010
0100
1000
,  // measure 90
0001
0100
0010
1000
,  // measure 91
0001
0000
1000
0000
,  // measure 92
2002
0000
0000
0000
,  // measure 93
0000
0000
0000
0000
,  // measure 94
0000
0000
3003
0000
,  // measure 95
0000
1001
0000
0000
;

//---------------dance-single - OrangeRight---------------
#NOTEDATA:;
#CHARTNAME:;
#CHARTSTYLE:;
#CREDIT:OrangeRight;
#STEPSTYPE:dance-single;
#DESCRIPTION:OrangeRight;
#DIFFICULTY:Medium;
#METER:10;
#METERF:0;
#RADARVALUES:0.002173,0.002282,0.007607,0,0,2,1,1,0,0,0,0,0,0,0.002173,0.002282,0.007607,0,0,2,1,1,0,0,0,0,0,0;
#CHARTHASH:2583195108;
#BANNER:;
#LASTSECONDHINT:130.582748;
#NOTES:
// measure 0
0000
0000
0000
0000
,  // measure 1
0000
0000
0000
0000
,  // measure 2
0000
0000
0000
0000
,  // measure 3
0000
0000
0000
0000
,  // measure 4
0000
0000
0000
0000
,  // measure 5
1000
0001
0100
0001
,  // measure 6
0010
0100
1000
1000
,  // measure 7
0001
0000
1000
0100
1000
0000
0001
0100
,  // measure 8
0001
0000
1000
0001
0000
0000
1001
0000
,  // measure 9
1000
0000
0001
0010
0001
0000
1000
0010
,  // measure 10
1000
0000
0001
1000
0000
0001
0001
0000
,  // measure 11
1000
0000
0001
1000
0001
0000
0100
0000
,  // measure 12
0010
1000
0010
0000
,  // measure 13
1000
0000
0100
0010
0000
0010
0001
0000
,  // measure 14
0100
0010
0100
0000
,  // measure 15
0001
0000
1000
0001
1000
0000
0100
0000
,  // measure 16
0010
0001
0010
0000
,  // measure 17
0001
0100
1000
0100
,  // measure 18
0001
0001
1000
1000
,  // measure 19
2001
0000
3100
1000
,  // measure 20
1002
0000
0000
0000
0103
0000
0001
0010
,  // measure 21
0001
0000
0100
0000
0010
0000
1000
0100
,  // measure 22
1000
1000
0001
0001
,  // measure 23
1002
0000
0103
0001
,  // measure 24
2001
0000
0000
0000
3100
1000
0100
0000
,  // measure 25
1000
0000
0100
0000
0010
0001
0010
0000
,  // measure 26
0001
0000
0100
0000
0010
1000
0010
0000
,  // measure 27
1000
0100
1000
0000
0001
0100
0001
0000
,  // measure 28
2002
0000
0000
3003
,  // measure 29
1000
0001
0100
0010
,  // measure 30
1000
0000
0100
1000
0100
0000
1000
0000
,  // measure 31
0001
1000
0010
0100
,  // measure 32
0001
0000
1000
0001
1000
0000
0100
0000
,  // measure 33
1000
0010
0001
0010
,  // measure 34
1000
0000
0001
0010
0001
0000
1000
0000
,  // measure 35
0001
0001
1000
1000
,  // measure 36
0010
0100
0010
0100
,  // measure 37
0000
0000
0000
0000
,  // measure 38
0000
0000
0000
0000
,  // measure 39
0001
0000
1000
0001
1000
0000
0001
1000
,  // measure 40
0001
0000
1000
0001
1000
0000
0100
0000
,  // measure 41
0000
0000
0000
0000
,  // measure 42
0000
0000
0000
0000
,  // measure 43
0010
0000
0100
0010
0100
0000
0010
0100
,  // measure 44
0010
0000
0100
0010
0100
0000
1000
0000
,  // measure 45
0000
0000
0000
0000
,  // measure 46
0000
0000
0000
0000
,  // measure 47
1000
0100
0000
0010
0000
0100
0000
1000
,  // measure 48
0000
0010
0000
0100
0010
0000
1000
0000
,  // measure 49
0000
0000
0000
0000
,  // measure 50
0000
0000
0000
0000
,  // measure 51
0001
0010
0000
0100
0000
0010
0000
0001
,  // measure 52
0000
0100
0000
0010
0100
0000
0000
0000
,  // measure 53
0000
0000
0000
0000
,  // measure 54
0000
0000
0000
0000
,  // measure 55
0001
0000
0001
1000
0000
1000
0001
0000
,  // measure 56
0001
1000
0000
1000
0100
0000
0100
0000
,  // measure 57
0000
0000
0000
0000
,  // measure 58
0000
0000
0000
0000
,  // measure 59
1000
0010
1000
0000
0001
0010
0001
0000
,  // measure 60
1000
1000
0001
0001
,  // measure 61
1000
0000
0100
0000
1000
0100
1000
0000
,  // measure 62
0001
0000
0100
0010
0000
0010
1000
0000
,  // measure 63
0001
0000
0010
0000
0001
0010
0001
0000
,  // measure 64
1000
1000
0001
0001
,  // measure 65
1002
0000
0013
0001
,  // measure 66
2001
0000
0000
0000
3100
0000
1000
0010
,  // measure 67
1000
0000
0100
0000
0010
0000
0001
0100
,  // measure 68
0001
0001
1000
1000
,  // measure 69
2001
0000
3010
1000
,  // measure 70
1002
0000
0103
0001
,  // measure 71
0001
0000
0100
0000
0010
1000
0010
0000
,  // measure 72
1000
0000
0001
0000
1000
0001
1000
0000
,  // measure 73
0001
0010
0001
0000
1000
0010
1000
0000
,  // measure 74
2002
0000
0000
3003
,  // measure 75
0001
0010
0100
1000
,  // measure 76
0010
0000
0100
0001
1000
0000
0001
0000
,  // measure 77
1000
0010
0100
0001
,  // measure 78
1000
0000
0001
1000
0100
0000
0010
0000
,  // measure 79
0001
0100
1000
0100
,  // measure 80
0001
0000
1000
0100
1000
0000
0001
0000
,  // measure 81
1000
1000
0001
0001
,  // measure 82
0010
0100
0010
0100
,  // measure 83
0220
0330
2002
3003
,  // measure 84
1000
0000
0001
1000
0001
0000
1000
0000
,  // measure 85
2002
3003
0220
0330
,  // measure 86
0100
0000
0010
0100
0010
0000
0001
0000
,  // measure 87
1000
0000
0001
0010
0001
0000
1000
0010
,  // measure 88
1000
0000
0001
0100
0001
0000
1000
0000
,  // measure 89
0001
0010
1000
0010
,  // measure 90
0001
0100
1000
0100
,  // measure 91
0001
0000
0110
0000
,  // measure 92
2002
0000
0000
0000
,  // measure 93
0000
0000
0000
0000
,  // measure 94
0000
0000
3003
0000
,  // measure 95
0000
0110
0000
0000
;

//---------------dance-single - OrangeRight---------------
#NOTEDATA:;
#CHARTNAME:;
#CHARTSTYLE:;
#CREDIT:OrangeRight;
#STEPSTYPE:dance-single;
#DESCRIPTION:OrangeRight;
#DIFFICULTY:Hard;
#METER:12;
#METERF:0;
#RADARVALUES:0.515094,0.953332,0.509661,0.372737,0.483037,474,407,67,49,0,0,0,0,289,0.515094,0.953332,0.509661,0.372737,0.483037,474,407,67,49,0,0,0,0,289;
#BPMS:0.000=178.000
,322.000=168.000
,324.000=125.000
,326.000=116.010
,336.000=174.000
,540.000=168.000
,542.000=125.000
,544.000=116.010
,554.000=174.000
;
#STOPS:148.000=2.360
,157.000=2.360
,166.000=2.360
,175.000=2.360
,184.000=2.360
,193.000=2.360
;
#SPEEDS:148.000=0.300=0.100=1,
148.125=1.000=0.500=0,
157.000=0.300=0.100=1,
157.125=1.000=0.500=0,
166.000=0.300=0.100=1,
166.125=1.000=0.500=0,
175.000=0.300=0.100=1,
175.125=1.000=0.500=0,
184.000=0.300=0.100=1,
184.125=1.000=0.500=0,
193.000=0.300=0.100=1,
193.125=1.000=0.500=0;
#SCROLLS:0.000=1.000,
112.000=0.000,
112.750=4.000,
113.000=0.000,
113.750=4.000,
114.000=0.000,
114.750=4.000,
115.000=0.000,
115.750=4.000,
116.000=1.000,
254.000=0.000,
254.750=4.000,
255.000=0.000,
255.750=4.000,
256.000=0.000,
256.750=4.000,
257.000=0.000,
257.750=4.000,
258.000=1.000,
336.000=0.700,
472.000=0.000,
472.750=2.000,
473.000=0.000,
473.750=2.000,
474.000=0.000,
474.750=2.000,
475.000=0.000,
475.750=2.000,
476.000=0.500,
544.000=2.000,
554.000=0.700
;
#TICKCOUNTS:0.000=4;
#TIMESIGNATURES:0.000=4=4;
#LABELS:0.000=Song Start;
#ATTACKS:TIME=124.371:LEN=3.500:MODS=200% Tipsy,200% Drunk,*10 -30% Mini :TIME=99.775:LEN=0.850:MODS=*10 50% Beat :TIME=37.747:LEN=0.850:MODS=*10 50% Beat :TIME=122.696:LEN=0.010:MODS=*50 -20% Mini :TIME=123.411:LEN=0.010:MODS=*50 20% Mini :TIME=11.792:LEN=0.010:MODS=*100 -20% Mini :TIME=14.320:LEN=0.010:MODS=*100 -20% Mini :TIME=14.489:LEN=0.010:MODS=*100 -20% Mini :TIME=120.000:LEN=2.360:MODS=*20 20% Beat
;
#COMBOS:0.000=1;
#CHARTHASH:573132703;
#BANNER:;
#LASTSECONDHINT:130.582748;
#NOTES:
// measure 0
0000
0000
0000
0000
,  // measure 1
0000
0000
0000
0000
,  // measure 2
0000
0000
0000
0000
,  // measure 3
0000
0000
0000
0000
,  // measure 4
0000
0000
0000
0000
,  // measure 5
2000
0000
3001
0100
0002
0000
1003
0010
,  // measure 6
2000
0000
3001
0010
0002
0000
2003
0000
,  // measure 7
3001
0000
0010
0001
0100
0000
0010
1000
,  // measure 8
0100
0000
1000
0001
0000
0000
1001
0000
,  // measure 9
1000
0000
0100
1000
0010
0000
0100
0001
,  // measure 10
0010
0000
0001
1000
0001
0100
0100
0000
,  // measure 11
0002
0000
0013
0100
0010
0001
0000
0001
,  // measure 12
0100
0000
0010
1000
0000
1000
0001
0000
,  // measure 13
0100
0002
0000
0023
0000
0130
1000
0001
,  // measure 14
0100
0000
0001
1000
0000
0001
0010
0100
,  // measure 15
2000
0000
3010
0100
0010
1000
0000
1000
,  // measure 16
0100
0000
0010
0001
0000
0001
1000
0000
,  // measure 17
0001
0000
0100
0020
0000
1030
0001
0010
,  // measure 18
0001
0000
1000
0010
0100
0001
0010
0000
,  // measure 19
0012
1000
0100
1003
,  // measure 20
1001
0000
0001
0000
1000
0100
0010
0001
,  // measure 21
0100
1000
0100
0001
0000
1000
0100
0010
,  // measure 22
0001
0000
0100
0000
0010
1000
1010
0000
,  // measure 23
2100
0001
0010
3001
,  // measure 24
1001
0000
1000
0001
0100
0010
0100
0010
,  // measure 25
1010
0000
1010
0000
1000
0010
0100
0000
,  // measure 26
0101
0000
0101
0000
0100
0001
0010
0000
,  // measure 27
0011
1001
1100
0110
,  // measure 28
2002
0000
0000
3003
,  // measure 29
2000
0000
3001
0100
0002
0000
1003
0010
,  // measure 30
0200
0000
0310
1000
0100
0010
0001
0000
,  // measure 31
0002
0000
1003
0010
2000
0000
3001
0010
,  // measure 32
0200
0000
1300
0001
0100
0001
1000
0000
,  // measure 33
2000
0000
3010
0100
0002
0000
0013
0100
,  // measure 34
2000
0000
3001
0100
0101
0000
1010
0000
,  // measure 35
1000
0001
0100
0001
1000
0001
0010
0100
,  // measure 36
2000
0000
0000
0000
3020
0000
0000
0000
0230
0000
0000
0000
0302
0000
0000
0003
,  // measure 37
0000
0000
1000
0000
0001
0100
0001
0000
,  // measure 38
1000
0100
1000
0000
0001
0100
0010
0000
,  // measure 39
1010
0000
0000
0000
1000
0000
0100
0010
,  // measure 40
0001
0000
0100
0010
1000
0000
0001
1000
,  // measure 41
0100
0000
0110
0000
0000
0000
0010
0001
,  // measure 42
0000
0100
0000
1000
0000
0100
0000
0001
,  // measure 43
0000
1000
0100
0000
1100
0000
0000
0000
,  // measure 44
0100
1000
0000
0010
0000
0001
0000
0010
,  // measure 45
0000
1000
0000
0100
0020
0000
0030
0000
,  // measure 46
0000
0000
0001
0000
1000
0010
0000
0010
,  // measure 47
0100
0000
0100
0001
0000
0001
0010
0100
,  // measure 48
0010
0001
0000
0000
1000
0010
1000
0000
,  // measure 49
0001
0010
0001
0100
0000
0010
0000
1000
,  // measure 50
0001
0001
1000
1010
,  // measure 51
0001
0100
0101
0000
0001
0010
0100
1000
,  // measure 52
0001
1000
0010
0100
0001
0010
0011
0000
,  // measure 53
1000
0100
1100
0000
1000
1000
0010
0010
,  // measure 54
0100
0100
0001
0001
2001
0000
0100
0000
,  // measure 55
0001
3010
0110
0100
,  // measure 56
0001
0010
0100
1000
0010
0001
0010
1000
,  // measure 57
0000
0000
0001
0000
0010
0000
0100
0000
1000
0000
0000
1000
0010
0000
0000
0000
,  // measure 58
0100
0000
0000
0100
0001
0000
0000
0000
1002
0000
0000
0000
0010
0000
0000
0000
,  // measure 59
1000
0000
0103
0000
0110
0000
0010
1000
,  // measure 60
0100
0010
0001
1000
1001
0000
1001
0000
,  // measure 61
0001
1000
0100
0000
1100
0000
1100
0000
,  // measure 62
0100
1000
0010
0000
1010
0000
0110
0000
,  // measure 63
0101
0011
0220
0000
,  // measure 64
0000
0000
0330
0000
0200
0000
1300
0010
,  // measure 65
0200
0000
0301
1000
0200
0000
1300
0001
,  // measure 66
0010
0001
0100
0000
0020
0000
1030
0100
,  // measure 67
0020
0000
0031
1000
0020
0000
1030
0100
,  // measure 68
0010
0001
0100
0001
2000
0000
3100
0010
,  // measure 69
0002
0000
0103
0010
2000
0000
3001
0010
,  // measure 70
0110
0000
1100
0000
1000
0010
1000
0001
,  // measure 71
1000
0100
0010
0001
0011
0000
0110
0000
,  // measure 72
1100
0000
1001
0000
1020
0000
1030
0001
,  // measure 73
0021
0000
0031
1000
2010
0000
3001
1000
,  // measure 74
0001
0000
1001
0000
1200
0000
1300
0001
,  // measure 75
0201
0000
0301
1000
1200
0000
1300
0010
,  // measure 76
0100
0001
0010
0100
2100
0000
3010
0100
,  // measure 77
0102
0000
0013
0100
2100
0000
3001
1000
,  // measure 78
1010
0101
1100
0101
,  // measure 79
1100
0101
1010
0011
,  // measure 80
1010
0011
1001
0000
,  // measure 81
0110
0000
2002
0000
,  // measure 82
0000
0000
0000
0000
,  // measure 83
0000
0000
0000
0000
,  // measure 84
3003
0000
0000
0110
;

//---------------dance-single - OrangeRight---------------
#NOTEDATA:;
#CHARTNAME:;
#CHARTSTYLE:;
#CREDIT:OrangeRight;
#STEPSTYPE:dance-single;
#DESCRIPTION:OrangeRight;
#DIFFICULTY:Challenge;
#METER:16;
#METERF:16;
#RADARVALUES:0.650931,1.271109,0.600943,0.319489,0.680815,599,520,79,42,0,0,0,0,366,0.650931,1.271109,0.600943,0.319489,0.680815,599,520,79,42,0,0,0,0,366;
#BPMS:0.000=178.000
,322.000=168.000
,324.000=125.000
,326.000=116.010
,336.000=174.000
;
#STOPS:148.000=2.360
,157.000=2.360
,166.000=2.360
,175.000=2.360
,184.000=2.360
,193.000=2.360
;
#SPEEDS:148.000=0.300=0.100=1,
148.125=1.000=0.500=0,
157.000=0.300=0.100=1,
157.125=1.000=0.500=0,
166.000=0.300=0.100=1,
166.125=1.000=0.500=0,
175.000=0.300=0.100=1,
175.125=1.000=0.500=0,
184.000=0.300=0.100=1,
184.125=1.000=0.500=0,
193.000=0.300=0.100=1,
193.125=1.000=0.500=0;
#SCROLLS:0.000=1.000,
112.000=0.000,
112.750=4.000,
113.000=0.000,
113.750=4.000,
114.000=0.000,
114.750=4.000,
115.000=0.000,
115.750=4.000,
116.000=1.000,
254.000=0.000,
254.750=4.000,
255.000=0.000,
255.750=4.000,
256.000=0.000,
256.750=4.000,
257.000=0.000,
257.750=4.000,
258.000=1.000,
336.000=0.700
;
#TICKCOUNTS:0.000=4;
#TIMESIGNATURES:0.000=4=4;
#LABELS:0.000=Song Start;
#ATTACKS:TIME=124.371:LEN=3.500:MODS=200% Tipsy,200% Drunk,*10 -30% Mini :TIME=99.775:LEN=0.850:MODS=*10 50% Beat :TIME=37.747:LEN=0.850:MODS=*10 50% Beat :TIME=122.696:LEN=0.010:MODS=*50 -20% Mini :TIME=123.411:LEN=0.010:MODS=*50 20% Mini :TIME=11.792:LEN=0.010:MODS=*100 -20% Mini :TIME=14.320:LEN=0.010:MODS=*100 -20% Mini :TIME=14.489:LEN=0.010:MODS=*100 -20% Mini :TIME=120.000:LEN=2.360:MODS=*20 20% Beat
;
#COMBOS:0.000=1;
#CHARTHASH:1315339177;
#BANNER:;
#LASTSECONDHINT:130.582748;
#NOTES:
// measure 0
0000
0000
0000
0000
,  // measure 1
0000
0000
0000
0000
,  // measure 2
0000
0000
0000
0000
,  // measure 3
0000
0000
0000
0000
,  // measure 4
0000
0000
0000
0000
,  // measure 5
2000
0000
3001
0100
2000
0000
3100
0001
,  // measure 6
0020
0000
0130
1000
1010
0000
0101
0000
,  // measure 7
0001
0010
0100
1000
0001
0100
0010
1000
,  // measure 8
0001
0010
0100
1000
0000
0000
1001
0000
,  // measure 9
1000
0010
0100
0001
1000
0100
0010
0001
,  // measure 10
1000
0000
0010
0000
0100
0000
0001
0000
1000
0001
1000
0001
1000
0000
0001
0100
,  // measure 11
0002
0000
0013
1000
0010
0001
0100
0010
,  // measure 12
1000
0000
0100
1000
0000
1000
0010
0000
,  // measure 13
0100
0001
0010
0100
0010
0001
1000
0010
,  // measure 14
0100
0000
0001
1000
0000
0001
0010
0100
,  // measure 15
2000
0000
3010
0001
0010
1000
0100
0010
,  // measure 16
0001
0000
0100
0001
0000
0001
1000
0000
,  // measure 17
0001
0010
0001
1000
0010
0001
0010
1000
,  // measure 18
0100
0000
0010
0001
0100
0001
1000
0010
,  // measure 19
1020
0000
0001
0000
1030
0100
0010
0000
,  // measure 20
0011
0000
0001
0000
0100
0010
1000
0001
,  // measure 21
0010
0100
1000
2010
0000
3001
0100
0010
,  // measure 22
0100
0001
1000
0001
0010
0100
0110
0000
,  // measure 23
0021
0000
1000
0000
0031
0010
0100
0000
,  // measure 24
1100
0000
0000
0000
1000
0000
0001
0000
0100
0000
0001
1000
0001
1000
0001
1000
,  // measure 25
0010
0000
0000
0000
1010
0000
0000
0000
0010
0000
0100
0000
0001
0100
0001
0000
,  // measure 26
0101
0000
0000
0000
0011
0000
0000
0000
0010
0000
0100
0000
1000
0100
1000
0000
,  // measure 27
0001
0100
1000
0100
0010
0100
0001
1000
,  // measure 28
1001
0110
0110
1001
,  // measure 29
2100
0000
3001
0100
0102
0000
1003
0010
,  // measure 30
1020
0000
0130
0001
0011
0000
1100
0000
,  // measure 31
1002
0000
0013
0001
2001
0000
3010
1000
,  // measure 32
1200
0000
0000
0000
0310
0000
0001
0000
0100
0000
0010
0000
1000
0001
1000
0001
,  // measure 33
2000
0000
3100
0010
0012
0000
0103
0010
,  // measure 34
2010
0000
3001
0010
0100
1000
0010
1000
,  // measure 35
0100
0001
0100
1000
0010
0001
0010
1000
,  // measure 36
0001
0000
0100
0001
1000
0000
0100
1000
0001
0010
0001
0000
1000
0010
1000
0000
,  // measure 37
0000
0000
0001
0000
1000
0010
0001
0000
,  // measure 38
0001
0010
1000
0000
1000
0100
0010
0000
,  // measure 39
0011
0000
0000
0000
0010
0000
0001
0100
,  // measure 40
1000
0000
1000
0100
0001
0000
0001
0010
,  // measure 41
0100
0000
1100
0000
0000
0000
1000
0010
,  // measure 42
0000
1010
0000
0011
0000
0101
0000
1100
,  // measure 43
0000
1000
1001
0000
0101
0000
0000
0000
,  // measure 44
0001
0010
0000
0011
0000
1010
0000
1100
,  // measure 45
0000
0101
0000
0001
2002
0000
3003
0000
,  // measure 46
0000
0000
1010
0000
0001
0011
0000
1000
,  // measure 47
1100
0000
0001
0101
0000
0001
0010
1000
,  // measure 48
0010
0001
0000
0000
1000
0010
1000
0000
,  // measure 49
0001
0010
0001
0101
0000
1100
0000
1000
,  // measure 50
1010
0011
1001
1100
,  // measure 51
1000
0001
0101
0000
0001
0010
0100
1000
,  // measure 52
0010
0000
0001
0000
0010
0000
1000
0000
0100
0000
1000
0010
1000
0000
0001
0010
,  // measure 53
0001
0000
1000
0001
1000
0000
0100
0010
0001
0000
0001
0000
0100
0000
0100
0000
,  // measure 54
0010
0010
1000
1000
1200
0000
0001
0000
,  // measure 55
1300
0100
0010
0000
0101
0000
0001
0100
,  // measure 56
1000
0100
0001
1000
0100
0010
0001
0102
,  // measure 57
0000
0000
1003
0000
0001
0000
0010
0000
0001
0000
0000
0001
0010
0000
0100
0000
,  // measure 58
1000
0000
0000
1000
0010
0000
0100
0000
0201
0000
0000
0000
1000
0000
0000
0000
,  // measure 59
0301
0100
0010
0000
1010
0000
1000
0100
,  // measure 60
0010
0000
0001
1000
0001
1000
0001
1000
0100
0000
0000
0000
1100
0000
0000
0000
,  // measure 61
0100
0000
1000
0000
0001
0100
0001
0000
0101
0000
0000
0000
0011
0000
0000
0000
,  // measure 62
0010
0000
0001
0000
1000
0010
1000
0010
1000
0000
0100
0000
0001
0000
0100
0000
,  // measure 63
0010
0100
1000
0001
1001
0000
0110
0000
,  // measure 64
0110
0000
1001
0000
1020
0000
1030
0100
,  // measure 65
1200
0000
0310
0001
0201
0000
0310
1000
,  // measure 66
1010
0000
0101
0000
0021
0000
0031
0100
,  // measure 67
0201
0000
0310
1000
1200
0000
0310
0001
,  // measure 68
1000
0000
0010
0000
1000
0001
1000
0001
2000
0000
0000
0000
3010
0000
0100
0000
,  // measure 69
0102
0000
0013
0100
2100
0000
3001
0100
,  // measure 70
0010
1000
0100
1000
0010
0001
0010
1000
,  // measure 71
0100
0001
0100
1000
1100
0000
0011
0000
,  // measure 72
0001
0100
0001
0000
1000
0100
0010
0001
2000
0000
0000
0000
3001
0010
0001
0010
,  // measure 73
0002
0000
0000
0000
1003
0100
1000
0100
2000
0000
0000
0000
3010
0100
0010
0100
,  // measure 74
0001
0000
0000
0000
1001
0000
0000
0000
2000
0000
0000
0000
3100
0010
0100
0010
,  // measure 75
0002
0000
0000
0000
0103
0010
0100
0010
2000
0000
0000
0000
3001
1000
0001
1000
,  // measure 76
0001
0010
0001
0010
0100
1000
0100
1000
0002
0000
0000
0000
0103
0010
1000
0100
,  // measure 77
2000
0000
0000
0000
3010
0100
0001
0010
0002
0000
0000
0000
1003
0010
0100
0001
,  // measure 78
1000
0000
1001
0000
1000
0010
0001
0010
,  // measure 79
1000
0010
0001
0010
1000
0100
0001
0100
,  // measure 80
1000
0000
0100
0000
0001
0100
1000
0010
0100
0000
0000
0000
0000
0000
0000
0000
,  // measure 81
0110
0000
2002
0000
,  // measure 82
0000
0000
0000
0000
,  // measure 83
0000
0000
0000
0000
,  // measure 84
3003
0000
0000
0110
;
0000
0110
;
