#TITLE:Orbit;
#SUBTITLE:;
#ARTIST:Ellis;
#TITLETRANSLIT:;
#SUBTITLETRANSLIT:;
#ARTISTTRANSLIT:;
#GENRE:;
#CREDIT:;
#MUSIC:Orbit.ogg;
#BANNER:Orbit-bn.png;
#BACKGROUND:Orbit-bg.png;
#CDTITLE:;
#SAMPLESTART:24.828;
#SAMPLELENGTH:10.000;
#SELECTABLE:YES;
#OFFSET:1.034;
#BPMS:0.000=116.000
,148.000=121.000
,150.000=126.000
,151.000=130.000
,152.000=134.000
,153.000=139.000
,154.000=143.000
,155.000=147.000
,156.000=153.000
,157.000=156.000
,158.000=162.000
,159.000=166.000
,160.000=171.000
,161.000=175.000
,162.000=181.000
,163.000=186.000
,164.000=191.000
,165.000=197.000
,166.000=202.000
,167.000=206.000
,168.000=212.000
,169.000=217.000
,170.000=224.000
,171.000=230.000
,172.000=234.000
,173.000=238.000
,174.000=247.000
,175.000=252.000
,176.000=260.000
,178.000=272.000
,180.000=285.000
,182.000=299.000
,184.000=311.000
,186.000=324.000
,188.000=338.000
,190.000=351.000
,192.000=364.000
,194.000=378.000
,196.000=394.000
,198.000=406.000
,200.000=427.000
,202.000=348.000
,205.000=232.000
,207.000=174.000
,208.500=58.000
,209.000=116.000
;
#STOPS:;
#DISPLAYBPM:116.000;
#BGCHANGES:;
#FGCHANGES:;

//--------------- dance-single - OrangeRight ----------------
#NOTES:
     dance-single:
     OrangeRight:
     Beginner:
     1:
     0.051865,0.107554,0.009076,0.136145,0,40,39,1,15,0,0,0.051865,0.107554,0.009076,0.136145,0,40,39,1,15,0,0:
0000
0000
0000
0000
,
0000
0000
0000
0000
,
0000
0000
0000
0000
,
1000
0000
0000
0000
,
0001
0000
0000
0000
,
1000
0000
0000
0000
,
0001
0000
0000
0000
,
1000
0000
0000
0000
,
0001
0000
0000
0000
,
1000
0000
0000
0000
,
0100
0000
0000
0000
,
0010
0000
0000
0000
,
0001
0000
0000
0000
,
2000
0000
3000
0000
,
1000
0000
0000
0000
,
0002
0000
0003
0000
,
0001
0000
0000
0000
,
2000
0000
3000
0000
,
1000
0000
0000
0000
,
0002
0000
0003
0000
,
2000
0000
3000
0000
,
0200
0000
0000
0000
,
0300
0000
0000
0000
,
0200
0000
0000
0000
,
0300
0000
0000
0000
,
2000
0000
0000
0000
,
3000
0000
0000
0000
,
0002
0000
0000
0000
,
0003
0000
0000
0000
,
1000
0000
0000
0000
,
1000
0000
0000
0000
,
0001
0000
0000
0000
,
0001
0000
0000
0000
,
0100
0000
0000
0000
,
0100
0000
0000
0000
,
0001
0000
0000
0000
,
1000
0000
0000
0000
,
2002
0000
0000
0000
,
0000
0000
0000
0000
,
0000
0000
0000
0000
,
0000
0000
0000
0000
,
0000
0000
0000
0000
,
0000
0000
0000
0000
,
0000
0000
0000
0000
,
0000
0000
0000
0000
,
0000
0000
0000
0000
,
0000
0000
0000
0000
,
0000
0000
0000
0000
,
0000
0000
0000
0000
,
0000
0000
0000
0000
,
0000
0000
3003
0000
,
0000
0000
0000
0000
,
0000
2000
0000
3000
,
0000
1000
0000
0000
,
0000
0002
0000
0003
,
0000
0001
0000
0000
,
0000
0020
0000
0030
,
0000
0010
0000
0000
,
0000
0200
0000
0300
,
0000
0100
0000
0000
;

//--------------- dance-single - OrangeRight ----------------
#NOTES:
     dance-single:
     OrangeRight:
     Easy:
     4:
     0.197085,0.273424,0.045382,0.254137,0,152,147,5,28,0,0,0.197085,0.273424,0.045382,0.254137,0,152,147,5,28,0,0:
0000
0000
0000
0000
,
0000
0000
0000
0000
,
0000
0000
0000
0000
,
1000
1000
0001
0001
,
2000
3002
0103
0010
,
1000
0100
0010
0010
,
0001
0100
0002
0003
,
0001
0100
0010
0010
,
1000
0100
2000
3000
,
1000
0010
0100
0010
,
1000
0001
2000
3000
,
0001
0010
0100
0010
,
0002
0000
2003
0000
,
3001
0010
0100
1000
,
0010
0010
0100
0010
,
1000
0100
0010
0001
,
0100
0100
0010
0100
,
0001
0010
0100
0010
,
0001
1000
0010
0010
,
1000
0100
0010
0100
,
2000
0000
3002
0000
,
1003
0100
1000
0000
,
0001
0100
0001
0000
,
1000
0010
1000
0000
,
0001
0010
0100
0000
,
1000
0001
1000
0000
,
0010
0100
0010
0000
,
2000
3002
0103
0010
,
1000
1000
0001
0001
,
1000
0100
1000
1000
,
0001
0100
0001
0001
,
1000
0010
1000
1000
,
0001
0010
0001
0001
,
1000
0100
0010
0010
,
0001
0100
0010
0010
,
2000
3002
0013
0100
,
1000
0100
0010
0001
,
2002
0000
0000
0000
,
0000
0000
0000
0000
,
0000
0000
0000
0000
,
0000
0000
0000
0000
,
0000
0000
0000
0000
,
0000
0000
0000
0000
,
0000
0000
0000
0000
,
0000
0000
0000
0000
,
0000
0000
0000
0000
,
0000
0000
0000
0000
,
0000
0000
0000
0000
,
0000
0000
0000
0000
,
0000
0000
0000
0000
,
0000
0000
3003
0000
,
0000
0000
0000
0000
,
0000
2002
3003
1000
,
0001
0100
0001
0020
,
0030
2002
3003
0001
,
1000
0100
1000
0020
,
0030
2002
3003
1000
,
0100
0010
0001
0200
,
0300
0220
0330
0010
,
1000
0002
0000
2003
,
0000
3000
0000
0000
;

//--------------- dance-single - OrangeRight ----------------
#NOTES:
     dance-single:
     OrangeRight:
     Medium:
     7:
     0.277476,0.410136,0.054458,0.281365,0.054458,214,208,6,31,0,0,0.277476,0.410136,0.054458,0.281365,0.054458,214,208,6,31,0,0:
0000
0000
0000
0000
,
0000
0000
0000
0000
,
0000
0000
0000
0000
,
1000
0100
1000
0000
0001
0100
0001
0000
,
1000
0001
1000
0001
1000
0000
1001
0000
,
2000
0000
3100
0000
1000
0001
1000
0000
,
0010
0000
0000
0010
0000
0000
0010
0000
1000
0000
0001
0000
1000
0000
0000
0000
,
0002
0000
0103
0000
0001
1000
0001
0000
,
0010
0000
0000
0010
0000
0000
0010
0000
0001
0000
1000
0000
0001
0000
0000
0000
,
0200
0000
0301
0000
0001
0100
0001
0000
,
1000
0000
0000
0100
0000
0000
0100
0000
1000
0000
0001
0000
1000
0000
0000
0000
,
0020
0000
1030
0000
1000
0010
1000
0000
,
0010
0000
0000
0100
0000
0000
0002
0000
0000
0000
0000
0000
1003
0000
0000
0000
,
2000
0000
3001
0000
0001
0100
0001
0000
,
0100
0000
0000
0010
0000
0000
1000
0000
0001
0000
1000
0000
0001
0000
0000
0000
,
0002
0000
1003
0000
1000
0010
1000
0000
,
0010
0000
0000
0100
0000
0000
0010
0000
1000
0000
0100
0000
1000
0000
0000
0000
,
0002
0000
0013
0000
0001
0100
0001
0000
,
0100
0000
0000
0010
0000
0000
1000
0000
0100
0000
1000
0000
0100
0000
0000
0000
,
2000
0000
3010
0000
1000
0100
1000
0000
,
0001
0000
0000
0001
0000
0000
0002
0000
0000
0000
0000
0000
1003
0000
0000
0000
,
2000
0100
0000
0001
,
3002
0100
0000
1000
,
2003
0010
0000
0001
,
3002
0010
0000
1000
,
2003
0100
0000
0100
,
3200
0010
0000
0010
,
0320
0032
2003
3002
,
0203
0001
0001
0301
,
0001
0100
0001
0000
1000
0000
1000
0000
,
0100
1000
0100
0000
1000
0010
0010
0000
,
1000
0010
1000
0000
0001
0000
0001
0000
,
0010
0001
0010
0000
0100
1000
1000
0000
,
0001
0100
0010
0000
1000
0000
1000
0000
,
1000
0100
0010
0000
0001
0000
0001
0000
,
1000
0010
0100
0000
0001
0010
0100
0000
,
2000
0000
3002
0000
1003
0001
1000
0000
,
2002
0000
0000
0000
,
0000
0000
0000
0000
,
0000
0000
0000
0000
,
0000
0000
0000
0000
,
0000
0000
0000
0000
,
0000
0000
0000
0000
,
0000
0000
0000
0000
,
0000
0000
0000
0000
,
0000
0000
0000
0000
,
0000
0000
0000
0000
,
0000
0000
0000
0000
,
0000
0000
0000
0000
,
0000
0000
0000
0000
,
0000
0000
3003
0000
,
0000
0000
0000
0000
,
0000
0000
2001
0000
3100
1000
0001
0100
,
0001
0000
0000
0000
0010
0000
0000
0001
0000
0000
1000
0000
0010
0000
1000
0000
,
0001
0000
1002
0000
0013
0001
1000
0010
,
1000
0000
0000
0000
0010
0000
0000
1000
0000
0000
0001
0000
0010
0000
0001
0000
,
0100
0000
0120
0000
1030
0000
1000
0100
,
0010
0000
0000
0000
0010
0000
0000
0001
0000
0000
0100
0000
0010
0000
1000
0000
,
0100
0000
0000
0000
0120
0000
0000
0000
0031
0000
0000
0100
0000
0000
0010
0000
,
1000
2000
0000
0002
,
0000
3003
0000
0000
;

//--------------- dance-single - OrangeRight ----------------
#NOTES:
     dance-single:
     OrangeRight:
     Hard:
     11:
     0.386391,0.519505,0.145221,0.381205,0.217831,298,282,16,42,0,0,0.386391,0.519505,0.145221,0.381205,0.217831,298,282,16,42,0,0:
0000
0000
0000
0000
,
0000
0000
0000
0000
,
0000
0000
0000
0000
,
1000
0000
0100
0000
1000
0001
0000
0000
0001
0000
0100
0000
0001
1000
0000
0000
,
1000
0000
0010
0000
0100
0000
0001
0000
1000
0001
1000
0000
0001
0000
1000
0000
,
2001
0000
0000
0000
3100
0000
0000
1000
0000
1000
0010
0000
0100
0000
0001
0000
,
0010
0000
0000
0001
0000
0000
0100
0000
0010
0000
1000
0000
0001
0000
0000
0000
,
1002
0000
0000
0000
0013
0000
0000
0001
0000
0001
0100
0000
0010
0000
1000
0000
,
0001
0000
0000
0010
0000
0000
0100
0000
1000
0000
0010
0000
1010
0000
0000
0000
,
2001
0000
0000
0000
3100
0000
0000
1000
0000
1000
0001
0000
0010
0000
0100
0000
,
1000
0000
0000
0010
0000
0000
0100
0000
0001
0000
1000
0000
0001
0000
1000
0000
,
1002
0000
0000
0000
0013
0000
0000
0001
0000
0001
0100
0000
0010
0100
0010
0000
,
2000
0000
0000
3200
0000
0000
0320
0000
0031
1000
0001
0000
0100
0000
0001
0000
,
0102
0000
0000
0000
0013
0000
0000
0001
0000
0100
0010
0000
1000
0000
0001
0000
,
1000
0000
0100
1000
0100
0000
0010
0000
0001
0000
0100
0000
0010
0000
1000
0000
,
2010
0000
0000
0000
3100
0000
0000
1000
0000
0100
0010
0000
0001
0000
0100
0000
,
0001
0000
0010
0001
0010
0000
0100
0000
1000
0000
0010
0000
0110
0000
0000
0000
,
0102
0000
0000
0000
1003
0000
0000
0001
0000
1000
0100
0000
0010
0000
0001
0000
,
1000
0000
0010
1000
0010
0000
0100
0000
0001
0000
0010
0000
0100
0000
1000
0000
,
2100
0000
0000
0000
3001
0000
0000
1000
0000
0001
0100
0000
0010
0000
1000
0000
,
0002
0000
0000
0100
0000
0000
2000
0000
0000
0000
0000
0000
3003
0000
0000
0000
,
1000
0010
1000
0001
0100
0000
0100
0000
,
0001
0010
1000
0010
0001
0000
1000
0000
,
0001
0010
0001
1000
0100
0000
0100
0000
,
0010
0001
1000
0001
0100
0000
0010
0000
,
1000
0100
0010
0001
0200
0000
0310
0000
,
0010
1000
0100
0010
0002
0000
1003
0000
,
2001
0000
3020
0000
0130
0001
1000
0001
,
0020
0230
2300
3001
,
1000
0010
0100
0010
2000
0000
3001
0000
,
0001
0100
1000
0100
0002
1000
1003
0000
,
0001
0010
0100
1000
0020
0000
1030
0000
,
1000
0100
0010
0100
2000
0010
3010
0000
,
0010
0000
1000
0000
0100
0000
0010
0001
0000
0010
0001
0000
0100
0000
0000
0000
,
0001
0000
0100
0000
0010
0000
1000
0100
0000
1000
0100
0000
0010
0000
0000
0000
,
0002
0000
0203
0000
0310
1000
0100
0010
,
0002
0000
0000
0000
2003
0000
0000
0000
3001
1000
0001
0000
0100
0000
0010
0000
,
2002
0000
0000
0000
,
0000
0000
0000
0000
,
0000
0000
0000
0000
,
0000
0000
0000
0000
,
0000
0000
0000
0000
,
0000
0000
0000
0000
,
0000
0000
0000
0000
,
0000
0000
0000
0000
,
0000
0000
0000
0000
,
0000
0000
0000
0000
,
0000
0000
0000
0000
,
0000
0000
0000
0000
,
0000
0000
0000
0000
,
0000
0000
3003
0000
,
0000
0000
0000
0000
,
0000
0000
0000
0000
2001
0000
0000
0000
3100
0000
1000
0100
0000
0100
0010
0000
,
0001
0000
0100
0000
0001
0000
0000
0010
0000
0000
1000
0000
0010
0000
0001
0000
,
1000
0000
0001
0000
1002
0000
0000
0000
0013
0000
0001
0010
0000
0010
0100
0000
,
1000
0000
0010
0000
1000
0000
0000
0100
0000
0000
0001
0000
0100
0000
1000
0000
,
0010
1000
0010
0000
2010
0000
0000
0000
3100
0000
1000
0001
0000
0001
0100
0000
,
0010
0000
0100
0000
0001
0000
0000
0010
0000
0000
1000
0000
0010
0000
0001
0000
,
0100
0000
0001
0000
0012
0000
0000
0000
0103
0000
0001
0100
0000
0010
1000
0000
,
0001
1000
0001
1000
0002
0000
0000
0000
0000
0000
0000
0000
2000
0000
0000
0000
,
0000
3003
0000
0000
;

//--------------- dance-single - OrangeRight ----------------
#NOTES:
     dance-single:
     OrangeRight:
     Challenge:
     13:
     0.544578,0.710902,0.24506,0.290442,0.580884,420,393,27,32,8,0,0.544578,0.710902,0.24506,0.290442,0.580884,420,393,27,32,8,0:
0000
0000
0000
0000
,
0000
0000
0000
0000
,
0000
0000
0000
0000
,
1000
0000
0100
0000
1000
0001
0000
0000
0001
0000
0100
0000
0001
1000
0000
0000
,
1000
0000
0001
0000
0010
0000
0100
0000
1000
0001
1000
0000
1001
0000
0110
0000
,
0102
0000
0000
0000
0013
0001
0000
1000
0000
0001
0100
0000
0001
1000
0001
0000
,
1000
0000
0000
1000
0010
0000
0100
0000
0001
0010
0100
0000
1100
0000
1000
0010
,
2000
0000
0000
0000
3100
1000
0000
0001
0000
1000
0010
0000
1000
0001
1000
0000
,
1010
0000
0000
0110
0000
0000
0101
0000
0001
1000
0001
0000
2002
0000
3003
0000
,
2100
0000
0000
0000
3010
0000
1000
0100
0000
0100
0010
0000
0001
0100
0001
0000
,
1000
0000
0000
1000
0100
0000
0010
0000
0001
0100
0001
0000
0100
0010
0100
0010
,
0200
0000
0000
0000
0301
0010
0000
0100
0000
1000
0001
0000
0100
0010
1000
0001
,
2000
0000
0000
3020
0000
0000
0032
0000
0013
1000
0100
0000
0110
0000
1001
0000
,
2000
0000
0010
0000
3010
1000
0001
1000
0100
0010
0001
0000
0100
0010
1000
0000
,
0001
0000
1000
0100
0000
0100
0010
0000
0100
1000
0001
0000
1000
0000
0010
0100
,
0002
0000
0010
0000
0013
0001
1000
0001
0100
0010
1000
0000
0100
0010
0001
0000
,
0011
0000
0000
1001
0000
0000
1100
0000
1000
0010
1000
0000
0001
0010
0100
1000
,
0020
0000
0100
0000
0130
0010
1000
0100
1000
0001
0100
0000
0001
1000
0100
0000
,
1000
0000
0010
0100
0000
0100
0001
0000
1000
0001
0010
0000
0100
0000
1000
0001
,
0200
0000
0010
0000
0310
0100
0001
0010
0001
1000
0100
0000
1000
0001
0100
0001
,
2000
0000
0000
0010
0000
0000
0002
0000
0000
0000
3003
1000
0001
0000
0100
0000
,
0001
0000
0010
0000
0100
0000
0010
0002
0000
0000
0000
0000
1003
0000
0000
0000
,
1000
0000
0100
0000
0001
0000
0100
2000
0000
0000
0000
0000
3001
0000
0000
0000
,
0001
0000
0100
0000
0010
0000
1000
0200
0000
0000
0000
0000
0310
0000
0001
0000
,
1000
0000
0001
0000
0100
0000
0010
0200
0000
0000
0000
0000
0301
0000
1000
0000
,
0001
0000
0010
0000
0100
0000
1000
0001
0000
2000
0000
0000
3100
0000
0000
0000
,
1000
0000
0010
0100
0000
0001
0000
2000
0000
0000
0000
0000
3001
0000
0000
0000
,
2000
0000
0000
0000
3200
0000
0000
0000
0301
0000
0100
0000
1000
0000
0010
0100
,
0002
0000
0000
0000
0203
0000
0000
0000
1300
0000
0000
1000
0100
0000
0001
0000
,
1000
0000
0100
1000
0100
0000
1000
0010
0M00
0010
0001
0000
0101
0000
0010
0000
,
1100
0000
1000
0001
1000
0000
0001
0100
0000
0100
0010
0000
1010
0000
1000
0000
,
0001
0000
0010
0001
0010
0000
0001
0100
00M0
0100
1000
0000
0010
0000
0100
0000
,
0001
0000
1000
0001
1000
0000
0001
0010
0000
0010
0100
0000
0110
0000
0100
0000
,
1000
0000
0010
0100
0001
0000
1000
0100
00M0
0100
0001
0000
0011
0000
0100
0000
,
1010
0000
1000
0100
0000
0010
0000
0001
1000
0010
0100
0000
0101
0000
0100
0000
,
0001
0000
0000
0001
0010
0000
0000
0010
0100
0000
1000
0000
0001
0000
1000
0010
,
1000
0000
0000
1000
0100
0000
0000
0100
0010
0001
1000
0000
1001
0000
0110
0000
,
4000
0004
0000
0000
0000
0000
0000
0000
,
0000
0000
0000
0000
,
0000
0000
0000
0000
,
0000
0000
0000
0000
,
0000
0000
0000
0000
,
0000
0000
0000
0000
,
0000
0000
0000
0000
,
0000
0000
0000
0000
,
0000
0000
0000
0000
,
0000
0000
0000
0000
,
0000
0000
0000
0000
,
0000
0000
0000
0000
,
0000
0000
0000
0000
,
0000
0000
3003
0000
,
0000
0000
0000
0000
,
0000
0000
0000
0000
1002
0000
1000
0000
0013
0001
0100
0010
0M00
0010
0001
0000
,
0001
0100
0010
0000
1000
0000
1000
0100
0000
0100
0010
0000
0010
0001
0100
0000
,
0010
1000
0001
0000
2001
0000
0001
0000
3100
1000
0010
0100
00M0
0100
1000
0000
,
1000
0010
0100
0000
0001
0000
0001
0010
0000
0010
0100
0000
0100
1000
0010
0000
,
0010
1000
0100
0000
2100
0000
0001
0000
3010
1000
0001
0010
0M00
0010
1000
0000
,
0100
1000
0010
0000
0100
0000
0001
0010
0M00
0010
0100
0000
0001
0100
0010
0000
,
1000
0100
0010
0000
0012
0000
1000
0000
0103
0001
1000
0100
00M0
0100
0001
0000
,
0001
0010
0100
1000
0002
0000
1000
0000
0000
1000
0000
0000
2003
0000
0001
0000
,
0000
0002
0000
0000
3003
0000
0000
0000
0000
0000
0000
0000
0000
0000
0000
0000
;

//--------------- dance-single - OrangeRight ----------------
#NOTES:
     dance-single:
     OrangeRight:
     Edit:
     15:
     0.74296,0.820271,0.290442,0.272289,0.807791,573,541,32,30,16,0,0.74296,0.820271,0.290442,0.272289,0.807791,573,541,32,30,16,0:
0000
0000
0000
0000
,
0000
0000
0000
0000
,
0000
0000
0000
0000
,
1000
0100
1000
0100
1000
0010
0M00
0010
0001
0100
0001
0100
0001
0010
0M00
0010
,
2000
0000
0010
0000
3002
0000
0100
0000
1003
0001
1000
0000
1001
0000
0110
0000
,
1002
0000
1000
0000
0103
0001
0000
0010
0M00
0010
1000
0000
0001
0010
0100
0000
,
1100
0000
0000
1010
0000
0000
0110
0000
0100
0001
0010
0000
0100
0000
1000
0000
,
2001
0000
0001
0000
3100
1000
0000
0010
0M00
0010
0001
0000
1000
0100
0010
0000
,
0011
0000
0000
0101
0000
0000
0110
0000
0010
1000
0001
0000
2002
0000
3003
0000
,
2100
0000
0001
0000
3010
0000
1000
0100
00M0
0100
0001
0000
0010
0001
0100
0000
,
0110
0000
0000
1010
0000
0000
0101
0000
0100
0010
0100
0000
0001
1000
0001
0000
,
0012
0000
1000
0000
0103
0001
0000
0010
0M00
0010
1000
0000
0001
0100
0010
1000
,
0002
0000
0000
0023
0000
0000
2030
0000
3010
0001
0100
0000
0110
0000
1001
0000
,
1000
0010
1000
0001
1000
0100
0010
0001
0100
1000
0100
0001
0010
0100
1000
0010
,
2000
0000
3001
0020
0000
0031
0200
0000
0301
0100
0010
0100
0001
0010
0100
1000
,
0001
0100
0001
1000
0001
0010
0100
1000
0010
0001
0010
1000
0100
0010
0001
0100
,
0002
0000
1003
0020
0000
1030
0200
0000
1300
0100
0010
0001
1000
0010
0100
0010
,
1000
0100
0010
0001
0100
0010
0100
1000
0100
0010
1000
0100
0010
0001
1000
0001
,
0200
0000
0310
2000
0000
3001
0020
0000
0031
0010
0100
0010
0001
0100
0010
1000
,
0001
0010
0100
1000
0010
0100
0010
0001
0010
0100
0001
0010
0100
1000
0010
0100
,
1000
0000
0100
0001
0000
1000
0200
0000
0000
0000
0300
0100
0010
0000
0001
0000
,
1000
0000
0010
0000
0100
0000
0001
1000
0001
0000
0010
0000
0100
0000
1000
0000
,
0010
0000
0001
0000
0010
0000
1000
0100
0010
0000
0001
0000
1000
0000
1000
0000
,
0001
0000
0100
0000
0010
0000
1000
0001
1000
0000
0100
0000
0010
0000
1000
0000
,
0010
0000
0001
0000
0100
0000
0010
1000
0001
0000
1000
0000
0100
0000
0100
0000
,
1000
0000
0010
0000
0100
0000
0001
0010
0000
0010
0100
0000
1000
0000
0010
0000
,
1000
0000
0001
0100
0000
0010
0000
1000
0001
0000
0010
0000
0100
0000
1000
0000
,
0020
0000
0100
0000
0230
0000
0001
0000
0301
0000
0010
0000
1000
0000
0010
0001
,
0100
0000
0000
0100
0010
0000
0000
0010
1000
0000
0000
1000
0001
0000
1000
0000
,
1001
0000
0001
0100
0001
0000
0001
0010
0M00
0010
1000
0000
1100
0000
0010
0000
,
0101
0000
0001
1000
0001
0000
1000
0100
00M0
0100
0001
0000
0101
0000
0001
0000
,
1001
0000
1000
0100
1000
0000
1000
0010
0M00
0010
0001
0000
0010
0000
1000
0000
,
0010
0000
0100
1000
0010
0000
1000
0100
00M0
0100
0001
0000
1001
0000
1000
0000
,
1010
0000
0010
1000
0010
0000
0010
0100
000M
0100
1000
0000
1010
0000
0100
0000
,
0011
0000
0001
0100
0001
0000
0100
0010
M000
0010
0001
0000
1001
0000
1000
0000
,
1010
0000
0010
0100
0010
0000
1000
0100
000M
0100
0010
0000
1000
0000
0001
0010
,
1000
0000
0010
0001
0100
0000
0001
0100
1000
0100
0001
0000
1001
0000
0110
0000
,
1001
0001
1000
0001
1000
0001
1000
0001
,
0100
0010
0100
0010
0100
0010
0100
0010
,
1000
0010
1000
0010
0100
0001
0100
0001
,
1000
0100
1000
0100
0010
0001
0010
0001
,
1000
0010
0100
0001
0010
0100
0010
0001
,
0100
0010
0100
0001
0010
0100
1000
0001
,
1000
0010
0100
0010
1000
0100
0010
0100
,
1000
0001
0100
0010
1000
0001
0010
0100
,
1000
0001
0400
0040
0000
0000
0000
0000
,
0000
0000
0000
0000
,
0000
0000
0000
0000
,
0000
0000
0000
0000
,
M000
0000
0000
0000
,
0330
0000
2000
0000
,
0000
3200
0000
0320
,
0000
0000
0032
0003
0001
1000
0010
0100
0001
0010
0001
0100
1000
0100
0001
0010
,
0100
1000
0010
0100
0001
0000
0001
0010
0M00
0010
1000
0000
1000
0100
0010
0001
,
0100
0010
1000
0100
1000
0001
0010
0100
1000
0010
1000
0100
0001
0100
1000
0010
,
0100
0001
0010
0100
1000
0000
1000
0010
0M00
0010
0001
0000
0001
1000
0100
1000
,
0001
1000
0001
1000
0010
0100
0001
0100
0010
1000
0100
0001
0100
1000
0010
0100
,
0001
0010
0100
1000
0010
0000
1000
0100
00M0
0100
0001
0000
0100
0010
0100
0001
,
0010
0100
1000
0010
0100
0001
1000
0100
0010
0001
1000
0010
0001
0010
0100
0010
,
1000
0100
0001
0100
2000
0000
0010
0000
0000
0100
0000
0000
3002
0000
0010
0000
,
0000
0200
0000
0000
0303
0000
0000
0000
0000
0000
0000
0000
0000
0000
0000
0000
;

//--------------- dance-double - OrangeRight ----------------
#NOTES:
     dance-double:
     OrangeRight:
     Easy:
     3:
     0.162077,0.273424,0.018153,0.272289,0,125,123,2,30,0,0,0.162077,0.273424,0.018153,0.272289,0,125,123,2,30,0,0:
00000000
00000000
00000000
00000000
,
00000000
00000000
00000000
00000000
,
00000000
00000000
00000000
00000000
,
00010000
00000000
00001000
00000000
,
00010000
00000000
00001000
00000000
,
00020000
00030000
00001000
00100000
,
00010000
00000000
01000000
00000000
,
00002000
00003000
00010000
00000010
,
00001000
00000000
00000100
00000000
,
00020000
00030000
00001000
00010000
,
00001000
00000000
00100000
00000000
,
00020000
00030000
00010000
10000000
,
02000000
03000000
00200000
00300000
,
00020000
00030000
01000000
00010000
,
01000000
00001000
00010000
00000100
,
00002000
00003000
00000010
00001000
,
00000010
00010000
00001000
00100000
,
00020000
00030000
01000000
00010000
,
00100000
01000000
10000000
00010000
,
20000000
30000000
00010000
10000000
,
20020000
00000000
00000000
30030000
,
20000000
00000000
30020000
00000000
,
01030000
00001000
00010000
00000000
,
00002000
00000000
00023000
00000000
,
00030100
00001000
00000001
00000000
,
00002000
00000000
00003020
00000000
,
00000130
00000001
00000010
00000000
,
00000020
00000000
00000230
00000000
,
00001300
00001000
00000001
00000001
,
00001000
00000100
00001000
00000000
,
00000001
00000100
00000001
00000000
,
00001000
00000010
00001000
00000000
,
00000100
00010000
00001000
00000000
,
00100000
00010000
00100000
00000000
,
01000000
10000000
01000000
00000000
,
20000000
32000000
03100000
00010000
,
01000000
01000000
00010000
10000000
,
20020000
00000000
00000000
00000000
,
00000000
00000000
00000000
00000000
,
00000000
00000000
00000000
00000000
,
00000000
00000000
00000000
00000000
,
00000000
00000000
00000000
00000000
,
00000000
00000000
00000000
00000000
,
00000000
00000000
00000000
00000000
,
00000000
00000000
00000000
00000000
,
00000000
00000000
00000000
00000000
,
00000000
00000000
00000000
00000000
,
00000000
00000000
00000000
00000000
,
00000000
00000000
00000000
00000000
,
00000000
00000000
00000000
00000000
,
00000000
00000000
30030000
00000000
,
00000000
00000000
00000000
00000000
,
00000000
20000000
30000000
10000000
,
00010000
01000000
00001000
00010000
,
00000100
00002000
00003000
00001000
,
00000001
00000010
00000100
00000010
,
00000001
00000200
00000300
00000010
,
00001000
00000100
00010000
00001000
,
01000000
00020000
00030000
00100000
,
00001000
00020000
00000000
00032000
,
00000000
00003000
00000000
00000000
;

//--------------- dance-double - OrangeRight ----------------
#NOTES:
     dance-double:
     OrangeRight:
     Medium:
     7:
     0,0,0,0,0:
00000000
00000000
00000000
00000000
,
00000000
00000000
00000000
00000000
,
00000000
00000000
00000000
00000000
,
10000000
01000000
10000000
00000000
00010000
01000000
00010000
00000000
,
10000000
00010000
10000000
00010000
10000000
00000000
10010000
00000000
,
00020000
00000000
01030000
00000000
01000000
00001000
00010000
00000000
,
00001000
00000000
00000000
00010000
00000000
00000000
00000100
00000000
00001000
00000000
00000010
00000000
00001000
00000000
00000000
00000000
,
00002000
00000000
00003010
00000000
00000010
00010000
00001000
00000000
,
00010000
00000000
00000000
00001000
00000000
00000000
00100000
00000000
00010000
00000000
01000000
00000000
00020000
00000000
00000000
00000000
,
20030000
00000000
30100000
00000000
00100000
01000000
00010000
00000000
,
00100000
00000000
00000000
00001000
00000000
00000000
00010000
00000000
00000100
00000000
00001000
00000000
00000100
00000000
00000000
00000000
,
00002000
00000000
00003010
00000000
00000010
00000100
00000001
00000000
,
00001000
00000000
00000000
00000001
00000000
00000000
00002000
00000000
00000000
00000000
00000000
00000000
00003001
00000000
00000000
00000000
,
00001002
00000000
00000103
00000000
00000001
00000100
00000010
00000000
,
00001000
00000000
00000000
00000100
00000000
00000000
00010000
00000000
00001000
00000000
00010000
00000000
00001000
00000000
00000000
00000000
,
00012000
00000000
00103000
00000000
00001000
00100000
00010000
00000000
,
01000000
00000000
00000000
00010000
00000000
00000000
00100000
00000000
01000000
00000000
10000000
00000000
00010000
00000000
00000000
00000000
,
20010000
00000000
30100000
00000000
10000000
00100000
01000000
00000000
,
00010000
00000000
00000000
00100000
00000000
00000000
00001000
00000000
00010000
00000000
00001000
00000000
00010000
00000000
00000000
00000000
,
00021000
00000000
00030100
00000000
00010000
00000100
00001000
00000010
,
00001000
00000000
00000000
00000100
00000000
00000000
00000020
00000000
00000000
00000000
00000000
00000000
00000031
00000000
00000000
00000000
,
00000002
00000100
00000000
00001003
,
00002000
00000001
00000000
00003100
,
00000200
00001000
00000000
00010300
,
00020000
00001000
00000000
00031000
,
00001000
00100000
00020000
00030000
,
00100000
00010000
02000000
03000000
,
00100000
00000000
10000000
00000000
01000000
00100000
01000000
00000000
,
10000000
00010000
10000000
00010000
,
10000000
00100000
10000000
00000000
00010000
00000000
00010000
00000000
,
00100000
00010000
00100000
00000000
00001000
00010000
00010000
00000000
,
00001000
00010000
00001000
00000000
00010000
00000000
00010000
00000000
,
00000100
00001000
00000100
00000000
00001000
00000010
00000010
00000000
,
00001000
00000100
00000010
00000000
00000001
00000000
00000001
00000000
,
00000001
00000100
00000010
00000000
00001000
00000000
00001000
00000000
,
00001001
00000000
00001001
00000000
00001000
00000010
00000100
00000001
,
00000010
00000000
00000100
00000000
00001000
00000001
00001000
00000000
,
00002002
00000000
00000000
00000000
,
00000000
00000000
00000000
00000000
,
00000000
00000000
00000000
00000000
,
00000000
00000000
00000000
00000000
,
00000000
00000000
00000000
00000000
,
00000000
00000000
00000000
00000000
,
00000000
00000000
00000000
00000000
,
00000000
00000000
00000000
00000000
,
00000000
00000000
00000000
00000000
,
00000000
00000000
00000000
00000000
,
00000000
00000000
00000000
00000000
,
00000000
00000000
00000000
00000000
,
00000000
00000000
00000000
00000000
,
00000000
00000000
00003003
00000000
,
00000000
00000000
00000000
00000000
,
00000000
00000000
00002001
00000000
00003100
00000000
00001000
00000010
,
00010000
00000000
00000000
00000000
00001000
00000000
00000000
00100000
00000000
00000000
00010000
00000000
01000000
00000000
00100000
00000000
,
10000000
00000000
12000000
00000000
03100000
00000000
00100000
00010000
,
00100000
00000000
00000000
00000000
00010000
00000000
00000000
01000000
00000000
00000000
00001000
00000000
00100000
00000000
00010000
00000000
,
10000000
00000000
10020000
00000000
00130000
00000000
00010000
01000000
,
00001000
00000000
00000000
00000000
00010000
00000000
00000000
00000010
00000000
00000000
00001000
00000000
00000100
00000000
00000010
00000000
,
00000001
00000000
00000021
00000000
00000130
00000010
00000001
00000100
,
00000010
00002000
00000000
00000002
,
00000000
00003003
00000000
00000000
;

//--------------- dance-double - OrangeRight ----------------
#NOTES:
     dance-double:
     OrangeRight:
     Hard:
     11:
     0,0,0,0,0:
00000000
00000000
00000000
00000000
,
00000000
00000000
00000000
00000000
,
00000000
00000000
00000000
00000000
,
00010000
00000000
00001000
00000000
00010000
00001000
00000000
00000000
00010000
00000000
00000100
00000000
00001000
00000010
00000000
00000000
,
00001000
00000000
00000100
00000000
00000010
00000000
00000001
00000000
00001000
00000001
00001000
00000000
00000100
00000000
00000100
00000000
,
00002100
00000000
00000000
00000000
00003001
00001000
00000000
00000001
00000000
00001000
00000010
00000000
00001000
00000000
00000100
00000000
,
00010000
00000000
00000000
00010000
00001000
00000000
00100000
00000000
00010000
00000000
01000000
00000000
01010000
00000000
00000000
00000000
,
20010000
00000000
00000000
00000000
31000000
10000000
00000000
10000000
00000000
00100000
01000000
00000000
00010000
00000000
00100000
00000000
,
00001000
00000000
00000000
00010000
00000000
00000000
00000100
00000000
00010000
00000000
00001000
00000000
02000000
00000000
03000000
00000000
,
01020000
00000000
00000000
00000000
10030000
00000000
00010000
10000000
00000000
00010000
00100000
00000000
00010000
00000000
01000000
00000000
,
00001000
00000000
00000000
00001000
00010000
00000000
00000010
00000000
00001000
00000000
00000100
00000000
00001100
00000000
00000000
00000000
,
00001002
00000000
00000000
00000000
00000103
00000001
00000000
00000001
00000000
00000010
00000100
00000000
00001000
00000000
00000001
00000000
,
00002000
00000000
00000000
00003020
00000000
00000000
00000230
00000000
00000301
00001000
00000001
00000000
00001000
00000000
00001000
00000000
,
00002100
00000000
00000000
00000000
00003010
00001000
00000000
00001000
00000000
00000100
00010000
00000000
00001000
00010000
00001000
00000000
,
00100000
00000000
00010000
01000000
00010000
00000000
10000000
00000000
00010000
00000000
00100000
00000000
01000000
00000000
00100000
00000000
,
00120000
00000000
00000000
00000000
01030000
00010000
00000000
00010000
00000000
00100000
00001000
00000000
00010000
00001000
00010000
00000000
,
00010100
00000000
00000000
00001100
00000000
00000000
00010100
00000000
00010000
00000000
00001000
00000000
01000000
00000000
00010000
00000000
,
00120000
00000000
00000000
00000000
01030000
00010000
00000000
00010000
00000000
00100000
00001000
00000000
00010000
00001000
00010000
00000000
,
00000100
00000000
00001000
00000010
00001000
00000000
00000001
00000000
00001000
00000000
00000100
00000000
00000001
00000000
00000100
00000000
,
00002100
00000000
00000000
00000000
00003010
00001000
00000000
00001000
00000000
00000100
00010000
00000000
00001000
00010000
00001000
00000000
,
00200000
00000000
00000000
00302000
00000000
00000000
00020000
00000000
00000000
00000000
00000000
00000000
00033000
00000000
00000000
00000000
,
00001000
00100000
00010000
01000000
00002000
00000000
00013000
00000000
,
00010000
00000010
00001000
00000100
00020000
00000000
00031000
00000000
,
00001000
00100000
00010000
01000000
00200000
00000000
10300000
01000000
,
00100000
01000000
10000000
00010000
02000000
00000000
03010000
00000000
,
01000000
00001000
00010000
00000100
00002000
00000000
00003010
00000000
,
00000010
00001000
00000100
00010000
00002000
00000000
00103000
00000000
,
00120000
00000000
02030000
00000000
03100000
10000000
01000000
00100000
,
00020000
00000000
02030000
00000000
23000000
00000000
31000000
00010000
,
10000000
00000000
01000000
00000000
00100000
00000000
00010000
01000000
00010000
00000000
00000000
00000000
01010000
00000000
00000000
00000000
,
00110000
00010000
00100000
00001000
00010000
00001000
00001000
00000000
,
00010000
00000000
00000100
00000000
00001000
00000000
00000010
00001000
00000010
00000000
00000000
00000000
00001000
00000000
00000001
00000000
,
00000010
00000000
00000100
00001000
00000001
00001000
00001000
00000000
,
00000001
00000000
00000100
00000000
00000010
00000000
00001000
00000100
00001000
00000000
00000000
00000000
00001100
00000000
00000000
00000000
,
00001010
00000010
00001000
00000100
00010000
00001000
00001000
00000000
,
00200000
00000000
00000000
00000000
00320000
00000000
00000000
00000000
01030000
00000000
00100000
00000000
10000000
00000000
01000000
10000000
,
02000000
00000000
00000000
00000000
03200000
00000000
00000000
00000000
00310000
10000000
00010000
00000000
01000000
00000000
00100000
00000000
,
20020000
00000000
00000000
00000000
,
00000000
00000000
00000000
00000000
,
00000000
00000000
00000000
00000000
,
00000000
00000000
00000000
00000000
,
00000000
00000000
00000000
00000000
,
00000000
00000000
00000000
00000000
,
00000000
00000000
00000000
00000000
,
00000000
00000000
00000000
00000000
,
00000000
00000000
00000000
00000000
,
00000000
00000000
00000000
00000000
,
00000000
00000000
00000000
00000000
,
00000000
00000000
00000000
00000000
,
00000000
00000000
00000000
00000000
,
00000000
00000000
30030000
00000000
,
00000000
00000000
00000000
00000000
,
00000000
00000000
00000000
00000000
20000000
00000000
01000000
00000000
31000000
10000000
00000000
00100000
00000000
01000000
00010000
00000000
,
00100000
00000000
01000000
00000000
00100000
00000000
00000000
00010000
00000000
00000000
01000000
00000000
00001000
00000000
00010000
00000000
,
00011000
00000000
00000000
00000000
00002000
00000000
00010000
00000000
00013000
00001000
00000000
00010000
00000000
00000100
00001000
00000000
,
00000010
00000000
00000100
00000000
00000001
00000000
00000000
00000010
00000000
00000000
00001000
00000000
00000010
00000000
00000001
00000000
,
00001000
00000001
00001000
00000000
00000002
00000000
00000010
00000000
00000013
00000000
00000001
00000100
00000000
00000100
00000010
00000000
,
00001000
00000000
00000100
00000000
00010000
00000000
00000000
00001000
00000000
00000000
00010000
00000000
00001000
00000000
00100000
00000000
,
00010000
00000000
10000000
00000000
00020000
00000000
01000000
00000000
01030000
00010000
00000000
00100000
00000000
10000000
00100000
00000000
,
00010000
01000000
00100000
10000000
00020000
00000000
00000000
00000000
00000000
00000000
00000000
00000000
20000000
00000000
00000000
00000000
,
00000000
30030000
00000000
00000000
;

//--------------- dance-double - OrangeRight ----------------
#NOTES:
     dance-double:
     OrangeRight:
     Challenge:
     13:
     0,0,0,0,0:
00000000
00000000
00000000
00000000
,
00000000
00000000
00000000
00000000
,
00000000
00000000
00000000
00000000
,
00100000
00000000
00001000
00000000
00010000
00001000
00000000
00000000
00010000
00000000
00000100
00000000
00001000
00000100
00000000
00000000
,
00000100
00000000
00010000
00000000
00001000
00000000
00100000
00000000
00010000
10000000
00010000
00000000
10010000
00000000
01100000
00000000
,
20100000
00000000
00000000
00000000
31000000
10000000
00000000
00010000
00000000
10000000
00100000
00000000
01000000
00010000
01000000
00000000
,
00010000
00000000
00000000
00010000
00100000
00000000
00001000
00000000
00010000
00000100
00010000
00000000
00000100
00000000
00001000
00000010
,
00002000
00000000
00000000
00000000
00003100
00001000
00000000
00000001
00000000
00001000
00000010
00000000
00000100
00000001
00000100
00000000
,
00000101
00000000
00000000
00000011
00000000
00000000
00000110
00000000
00000100
00000000
00001000
00000000
00002002
00000000
00003003
00000000
,
00000102
00000000
00000000
00000000
00000013
00000000
00000001
00000100
00000000
00000010
00001000
00000000
00000100
00001000
00000100
00000000
,
00001000
00000000
00000000
00001000
00000010
00000000
00010000
00000000
00001000
01000000
00001000
00000000
00100000
00010000
00100000
00010000
,
00200000
00000000
00000000
00000000
01300000
10000000
00000000
00010000
00000000
01000000
00100000
00000000
10000000
00010000
10000000
00010000
,
20000000
00000000
00000000
30200000
00000000
00000000
00320000
00000000
00130000
10000000
01000000
00000000
01100000
00000000
10010000
00000000
,
20000000
00000000
00100000
00000000
30100000
10000000
00010000
01000000
00010000
00100000
00001000
00000000
00010000
00000100
00010000
00000000
,
00000100
00000000
00001000
00000010
00000000
00000010
00000100
00000000
00000001
00000010
00000100
00000000
00001000
00000000
00000001
00001000
,
00000020
00000000
00001000
00000000
00001030
00000100
00001000
00000001
00001000
00000010
00000100
00000000
00000001
00000010
00000001
00000000
,
00000011
00000000
00000000
00000110
00000000
00000000
00001100
00000000
00001000
00000010
00001000
00000000
00000001
00000010
00000100
00001000
,
00000002
00000000
00000100
00000000
00000103
00000001
00001000
00000010
00001000
00000100
00010000
00000000
00001000
00100000
00001000
00000000
,
00100000
00000000
00010000
01000000
00000000
01000000
00100000
00000000
10000000
01000000
00100000
00000000
00010000
00000000
10000000
00010000
,
02000000
00000000
00010000
00000000
03010000
01000000
00010000
10000000
00010000
00100000
01000000
00000000
10000000
00100000
01000000
00010000
,
20000000
00000000
00000000
01000000
00000000
00000000
00020000
00000000
00000000
00000000
30030000
10000000
00010000
00000000
01000000
00000000
,
00010000
00000000
00100000
00000000
10000000
00000000
00100000
00020000
00000000
00000000
00000000
00000000
01030000
00000000
00000000
00000000
,
01000000
00000000
00010000
00000000
00100000
00000000
00010000
02000000
00000000
00000000
00000000
00000000
03001000
00000000
00000000
00000000
,
00010000
00000000
00001000
00000000
00010000
00000000
00000100
00002000
00000000
00000000
00000000
00000000
00003010
00000000
00000001
00000000
,
00000010
00000000
00000100
00000000
00000001
00000000
00000010
00000200
00000000
00000000
00000000
00000000
00000310
00000000
00000001
00000000
,
00001000
00000000
00000010
00000000
00000100
00000000
00000001
00000010
00000000
00000200
00000000
00000000
00001300
00000000
00000100
00000000
,
00010000
00000000
00001000
00100000
00000000
00010000
00000000
01000000
00100000
00000000
10000000
00000000
00010000
00000000
10000000
00000000
,
02000000
00000000
00000000
00000000
03020000
00000000
00000000
00000000
01030000
00000000
10000000
00000000
00100000
00000000
01000000
00010000
,
00100000
00000000
00000000
00100000
00001000
00000000
00000000
00001000
00010000
00000000
00000000
00010000
00000100
00000000
00001000
00000000
,
00000001
00000000
00000100
00000001
00000100
00000000
00000001
00000010
00000M00
00000010
00001000
00000000
00001100
00000000
00000100
00000000
,
00010100
00000000
00010000
00001000
00010000
00000000
00001000
00100000
00000000
00100000
00001000
00000000
00011000
00000000
00000000
00000000
,
00001000
00000000
00100000
00001000
00100000
00000000
00001000
00010000
00M00000
00010000
01000000
00000000
00100000
00000000
10000000
00000000
,
01000000
00000000
00100000
01000000
10000000
00000000
00010000
01000000
00000000
01000000
00100000
00000000
10100000
00000000
00000000
00000000
,
10000000
00000000
00010000
00100000
00010000
00000000
10000000
01000000
00M00000
01000000
00010000
00000000
00110000
00000000
00010000
00000000
,
01010000
00000000
01000000
00001000
00000000
00010000
00000000
00001000
00100000
00001000
00010000
00000000
00010100
00000000
00000100
00000000
,
00001000
00000000
00000000
00001000
00000010
00000000
00000000
00000010
00000001
00000000
00000010
00000000
00001000
00000000
00000100
00010000
,
00001000
00000000
00000000
00001000
00100000
00000000
00000000
00100000
00010000
01000000
00100000
00000000
10100000
00000000
01010000
00000000
,
40000000
00040000
00000000
00000000
00000000
00000000
00000000
00000000
,
00000000
00000000
00000000
00000000
,
00000000
00000000
00000000
00000000
,
00000000
00000000
00000000
00000000
,
00000000
00000000
00000000
00000000
,
00000000
00000000
00000000
00000000
,
00000000
00000000
00000000
00000000
,
00000000
00000000
00000000
00000000
,
00000000
00000000
00000000
00000000
,
00000000
00000000
00000000
00000000
,
00000000
00000000
00000000
00000000
,
00000000
00000000
00000000
00000000
,
00000000
00000000
00000000
00000000
,
00000000
00000000
30030000
00000000
,
00000000
00000000
00000000
00000000
,
00000000
00000000
00000000
00000000
01020000
00000000
10000000
00000000
00130000
00010000
00000000
01000000
00000000
00001000
00010000
00000000
,
00000100
00001000
00000100
00000000
00001100
00000000
00000000
00001001
00000000
00000000
00000011
00000000
00000010
00000001
00001000
00000000
,
00000001
00000000
00001000
00000000
00002010
00000000
00000001
00000000
00003100
00001000
00000000
00000010
00000000
00010000
00001000
00000000
,
00100000
00010000
00100000
00000000
00110000
00000000
00000000
01100000
00000000
00000000
11000000
00000000
01000000
10000000
00010000
00000000
,
10000000
01000000
10000000
00000000
12000000
00000000
00100000
00000000
13000000
00000000
10000000
00100000
0M000000
00100000
00010000
00000000
,
01000000
00001000
00010000
00000000
00010100
00000000
00000000
00001100
00000000
00000000
00001010
00000000
00001000
00000010
00000100
00000000
,
00000010
00000100
00000001
00000000
00000201
00000000
00000010
00000000
00000301
00000010
00000M00
00000010
00000000
00001000
00000100
00000000
,
00001000
00000001
00001000
00000001
00002000
00000000
00000100
00000000
00000000
00000001
00000000
00000000
00003002
00000000
00000010
00000000
,
00000000
00002000
00000000
00000000
00003003
00000000
00000000
00000000
00000000
00000000
00000000
00000000
00000000
00000000
00000000
00000000
;

//--------------- dance-double - OrangeRight ----------------
#NOTES:
     dance-double:
     OrangeRight:
     Edit:
     15:
     0.74296,0.820271,0.335823,0.3449,0.766948,573,536,37,38,9,0,0.74296,0.820271,0.335823,0.3449,0.766948,573,536,37,38,9,0:
00000000
00000000
00000000
00000000
,
00000000
00000000
00000000
00000000
,
00000000
00000000
00000000
00000000
,
00100000
00010000
01000000
00010000
00100000
00001000
00000000
00010000
00000100
00001000
00000010
00001000
00000100
00000010
00000000
00000001
,
00002000
00000000
00000010
00000000
00003002
00000000
00000100
00000000
00001003
00000001
00001000
00000000
00001001
00000000
00000110
00000000
,
00002010
00000000
00000001
00000000
00003100
00001000
00000000
00000100
00000000
00010000
00001000
00000000
00100000
00010000
00100000
00000000
,
00110000
00000000
00000000
10010000
00000000
00000000
11000000
00000000
01000000
10000000
00100000
00000000
10000000
00000000
00010000
00000000
,
01020000
00000000
10000000
00000000
00130000
00010000
00000000
00100000
00000000
00001000
00010000
00000000
00000100
00001000
00000100
00000000
,
00001100
00000000
00000000
00000110
00000000
00000000
00000011
00000000
00000010
00000001
00000100
00000000
00000202
00000000
00000303
00000000
,
00000021
00000000
00000100
00000000
00000031
00000000
00000001
00000100
00000000
00000010
00001000
00000000
00000100
00010000
00001000
00000000
,
00101000
00000000
00000000
00110000
00000000
00000000
01010000
00000000
00010000
01000000
00100000
00000000
01000000
00100000
10000000
00000000
,
10200000
00000000
01000000
00000000
10300000
00100000
00000000
01000000
00000000
00010000
00100000
00000000
00010000
01000000
00100000
10000000
,
00020000
00000000
00000000
00230000
00000000
00000000
20300000
00000000
30100000
00010000
01000000
00000000
01100000
00000000
10010000
00000000
,
10000000
01000000
10000000
00100000
01000000
00100000
10000000
00010000
00100000
00010000
10000000
00010000
01000000
00100000
01000000
00010000
,
00200000
00000000
00301000
00020000
00000000
00030100
00002000
00000000
00003010
00000100
00000001
00000100
00000010
00001000
00000100
00000010
,
00000001
00000100
00000001
00000010
00000100
00000010
00000001
00001000
00000010
00001000
00000001
00001000
00000100
00000010
00000100
00001000
,
00000020
00000000
00010030
00002000
00000000
01003000
00020000
00000000
00130000
01000000
10000000
00010000
10000000
00100000
01000000
00010000
,
00100000
00010000
01000000
00001000
00010000
00000100
00001000
00000001
00001000
00000010
00000100
00000001
00000010
00000100
00001000
00000010
,
00000200
00000000
00000301
00002000
00000000
00003001
00000020
00000000
00000031
00000100
00000010
00000100
00000001
00000010
00000100
00001000
,
00000010
00001000
00000100
00010000
00001000
01000000
00010000
10000000
00010000
00100000
10000000
00100000
00010000
01000000
00100000
10000000
,
00200000
00000000
00000000
02300000
00000000
00000000
03020000
00000000
00000000
00000000
00030000
10000000
00010000
00000000
10000000
00000000
,
00100000
00000000
10000000
00000000
01000000
00000000
00010000
01000000
10000000
00000000
00100000
00000000
01000000
00000000
00010000
00000000
,
00100000
00000000
00001000
00000000
00010000
00000000
00100000
00010000
00001000
00000000
00010000
00000000
00000100
00000000
00000100
00000000
,
00001000
00000000
00000010
00000000
00000100
00000000
00000001
00000010
00001000
00000000
00000010
00000000
00000001
00000000
00000100
00000000
,
00000010
00000000
00000100
00000000
00001000
00000000
00000100
00000010
00001000
00000000
00000100
00000000
00010000
00000000
00010000
00000000
,
00001000
00000000
00100000
00000000
00010000
00000000
01000000
00100000
00000000
01000000
00010000
00000000
00100000
00000000
00001000
00000000
,
00010000
00000000
00000010
00001000
00000000
00000100
00000000
00000010
00000001
00000000
00001000
00000000
00000001
00000000
00000100
00000000
,
00000202
00000000
00000303
00000000
00002200
00000000
00003300
00000000
00001010
00000000
00000011
00000000
00000101
00000000
00000100
00000010
,
00002000
00000000
00000100
00000000
00003002
00000000
00000010
00000000
00001003
00000000
00000001
00001000
00000100
00000000
00010000
00000000
,
00011000
00000000
00001000
00100000
00001000
00000000
00010000
00001000
000000M0
00001000
00000100
00000000
00001100
00000000
00000010
00000000
,
00000101
00000000
00000001
00000000
00000010
00000000
00000100
00001000
000000M0
00001000
00010000
00000000
00011000
00000000
00001000
00000000
,
00011000
00000000
00010000
00000010
00010000
00000000
00001000
00010000
00M00000
00010000
01000000
00000000
00010000
00000000
00100000
00000000
,
10000000
00000000
00100000
00000000
01000000
00000000
10000000
00100000
0M000000
00100000
00010000
00000000
10010000
00000000
10000000
00000000
,
10010000
00000000
00010000
00100000
00010000
00000000
01000000
00010000
00M00000
00010000
00001000
00000000
00101000
00000000
00010000
00000000
,
00001100
00000000
00001000
00000010
00000100
00000000
00000001
00000010
00000M00
00000010
00001000
00000000
00001001
00000000
00000001
00000000
,
00000101
00000000
00000001
00000100
00000010
00000000
00001000
00000100
00000010
00000000
00000001
00000000
00000100
00000000
00000010
00001000
,
00000002
00000000
00000010
00000000
00002003
00000000
00000100
00000000
00003001
00001000
00000001
00000000
00001001
00000000
00000110
00000000
,
00001001
00001000
00000001
00001000
00000001
00001000
00000001
00001000
,
00000100
00001000
00000100
00001000
00000100
00001000
00000100
00001000
,
00000100
00010000
00000100
00010000
00000100
00010000
00000100
00010000
,
00001000
00010000
00001000
00010000
00001000
00010000
00001000
00010000
,
00001000
00100000
00001000
00100000
00010000
00100000
00010000
00100000
,
00010000
01000000
00010000
01000000
00001000
01000000
00001000
01000000
,
00001000
00010000
00001000
00010000
00000100
00010000
00000100
00010000
,
00000100
00001000
00000010
00010000
00001000
00100000
00010000
01000000
,
00001000
00010000
00004000
00040000
00000000
00000000
00000000
00000000
,
00000000
00000000
00000000
00000000
,
00000000
00000000
00000000
00000000
,
00000000
00000000
00000000
00000000
,
00000000
00000000
00000000
00000000
,
00033000
00000000
00020000
00000000
,
00000000
00030200
00000000
00002300
,
00000000
00000000
00000020
00003030
00001000
00000100
00000010
00000100
00001000
00000010
00000100
00000001
00000100
00001000
00000100
00000010
,
00001000
00000100
00010000
00001000
00100000
00000000
00010000
01000000
00M00000
01000000
10000000
00000000
00100000
10000000
01000000
00010000
,
01000000
10000000
00100000
01000000
00010000
00100000
01000000
00100000
00010000
01000000
00100000
10000000
00100000
00010000
00100000
01000000
,
00010000
00100000
00001000
00010000
00000100
00000000
00001000
00000010
00000M00
00000010
00000001
00000000
00000100
00000010
00001000
00000100
,
00000001
00000100
00001000
00000001
00000100
00000001
00001000
00000001
00000010
00000100
00001000
00000010
00000100
00000010
00000001
00000010
,
00001000
00000100
00010000
00001000
00100000
00000000
00001000
00010000
00M00000
00010000
01000000
00000000
00010000
00100000
10000000
00100000
,
00010000
01000000
00100000
10000000
01000000
10000000
00010000
10000000
00100000
01000000
00010000
00100000
10000000
00100000
00010000
01000000
,
00100000
10000000
01000000
00010000
02000000
00000000
10000000
00000000
00000000
10000000
00000000
00000000
23000000
00000000
00010000
00000000
,
00000000
00020000
00000000
00000000
30030000
00000000
00000000
00000000
00000000
00000000
00000000
00000000
00000000
00000000
00000000
00000000
;
