#TITLE:One For All;
#SUBTITLE:;
#ARTIST:RoughSketch;
#TITLETRANSLIT:;
#SUBTITLETRANSLIT:;
#ARTISTTRANSLIT:;
#GENRE:EUPHORIC FRENCHCORE;
#CREDIT:;
#MUSIC:one for all.ogg;
#BANNER:bn.png;
#BACKGROUND:bg.png;
#CDTITLE:cd-title.png;
#SAMPLESTART:33.027;
#SAMPLELENGTH:14.769;
#SELECTABLE:YES;
#OFFSET:-1.033;
#BPMS:0.000=97.500
,14.000=195.000
,84.000=97.500
,86.000=195.000
,157.000=97.500
,157.250=195.000
,157.500=390.000
,158.000=195.000
,190.000=97.500
,196.000=195.000
,271.000=97.500
,271.250=195.000
,271.500=390.000
,272.000=195.000
,280.000=97.500
,286.000=195.000
,328.000=97.500
,329.000=195.000
,334.500=97.500
,335.000=195.000
;
#STOPS:82.000=0.154
,82.500=0.077
,82.750=0.077
,83.000=0.077
,83.250=0.077
,83.500=0.077
,83.750=0.077
,333.000=0.154
,333.500=0.154
,334.000=0.154
;
#DISPLAYBPM:97.000:191.000;
#BGCHANGES:;
#FGCHANGES:;

//--------------- dance-single - Frondal ----------------
#NOTES:
     dance-single:
     Frondal:
     Beginner:
     1:
     0,0,0,0,0:
0000
0000
0000
0000
,
0000
0000
0000
0000
,
0000
0000
0000
0000
,
0000
0000
0000
0000
,
0000
0000
0002
0000
,
0000
0000
0003
0000
,
0000
0000
2000
0000
,
0000
0000
3000
0000
,
0000
0000
0020
0000
,
0000
0000
0030
0000
,
0000
0000
0200
0000
,
0000
0000
0300
0000
,
0000
0000
1001
0000
,
0000
0000
0000
0000
,
0000
0000
0110
0000
,
0000
0000
0000
0000
,
0000
0000
0001
0000
,
0000
0000
0001
0000
,
0000
0000
1000
0000
,
1000
0000
2000
0000
,
0000
0000
3100
0000
,
0000
0000
0010
0000
,
0000
0000
0010
0000
,
0000
0000
0001
0000
,
0000
0000
0001
0000
,
0000
0000
1000
0000
,
0000
0000
1000
0000
,
0000
0000
0010
0000
,
0000
0000
0010
0000
,
0000
0000
0100
0000
,
0000
0000
0001
0000
,
0000
0000
1000
0000
,
0000
0000
0010
0000
,
0000
0000
1000
0000
,
0000
0000
0001
0000
,
0000
0000
0020
0000
,
0000
0000
0030
0000
,
0000
0000
0110
0000
,
0000
0000
0000
0000
,
0000
0000
1000
0000
,
1000
0000
0001
0000
,
0001
0000
0200
0000
,
0320
0000
0030
0000
,
0000
0000
1001
0000
,
0000
0000
0000
0000
,
0000
0000
0000
0100
0000
0000
0000
0000
,
0000
0000
0000
0000
,
1001
0000
0000
0000
0000
0001
0000
0000
,
0000
1000
0000
0000
0000
0010
0000
0000
,
1001
0000
0000
0000
,
1000
0000
1000
0000
,
0001
0000
0001
0000
,
0100
0000
0100
0000
,
0110
0000
0000
0000
,
0002
0000
0000
0000
,
0023
0000
0000
0000
,
0230
0000
2300
0000
,
3010
0000
0000
0000
,
0000
0000
0000
0000
,
0000
0000
0000
0000
,
0000
0000
0000
0000
,
0000
0000
0000
0000
,
0000
0000
0000
0000
,
0000
0000
0000
0000
,
0000
0000
0000
0000
,
0000
0000
0000
0000
,
1001
0000
0000
0000
,
0000
0000
0000
0000
,
0001
0000
0001
0000
,
1000
0000
1000
0000
,
0110
0000
0000
0000
,
0000
0000
0000
0000
,
0000
0000
0001
0000
,
0001
0000
1000
0000
,
0000
0000
1000
0000
,
1000
0000
0001
0000
,
0000
0000
0100
0000
,
0100
0000
0010
0000
,
0000
0000
0010
0000
,
0010
0000
0100
0000
,
0000
0000
0001
0000
,
1000
0000
0001
0000
,
0000
1000
0000
0001
,
0000
2000
0000
3100
,
0000
0100
0000
0010
,
0000
0010
0000
1001
,
0000
0000
0000
1001
,
0000
0000
0000
0010
,
0000
0000
0000
0000
,
0000
0000
0000
0000
0000
0000
0000
0000
0000
0000
0000
0110
0000
0000
0000
0000
;

//--------------- dance-single - Frondal ----------------
#NOTES:
     dance-single:
     Frondal:
     Easy:
     9:
     0,0,0,0,0:
0000
0000
0000
0000
,
1001
0000
0000
0000
,
0110
0000
0000
0000
,
0002
0000
1003
0000
,
0000
0000
2000
3000
,
0000
0000
0200
0300
,
0000
0000
0000
0000
0020
0000
0000
0032
,
0000
0023
0230
0000
,
1300
0000
0002
0003
,
0000
0000
0200
0300
,
0000
0000
0000
0000
0020
0000
0000
2030
,
0000
3020
0230
0000
,
0302
0000
0023
0000
,
0030
0100
0000
0100
2000
0000
0000
0000
,
3000
0010
0000
0010
0200
0000
0000
2300
,
0000
3002
0023
0000
,
2030
3002
0013
0010
,
0100
0100
1000
1000
,
0001
0001
0200
0000
,
0320
0000
0000
0000
1030
0001
1000
0001
,
1000
0001
0010
0000
0110
0000
0000
0000
,
2000
0000
0000
3001
1001
0000
1000
0000
,
0010
1000
0100
0010
,
0001
0000
0100
0010
0100
0000
0001
0000
,
0010
0100
0010
0000
0001
1000
0001
0000
,
0100
0010
1000
0000
1001
0000
0001
0000
,
0010
0001
1000
0010
,
1000
0000
0001
0100
1000
0000
0100
0000
,
0001
0000
1000
0000
0100
0010
0100
0010
,
0000
0110
0000
0000
0001
0000
0100
0000
,
1000
0100
0001
0010
,
1000
0010
0001
0110
,
1000
0000
0110
0000
0001
1000
0001
0000
,
0010
0100
0010
0000
0002
0000
0000
0000
,
0103
0010
2000
0000
,
3100
0010
0001
0001
,
1000
1000
0020
0000
,
0000
0000
0130
0000
,
0100
0001
0100
0000
0010
0000
0000
0000
,
0010
1000
0200
0000
0310
0000
0001
0000
,
0010
0000
0100
0000
1000
0001
1000
0001
,
1000
0001
0100
0000
0002
0000
0003
0000
,
2000
3000
0110
0000
,
0000
0000
0001
2000
0100
0000
0001
0000
,
0100
0001
0100
0001
,
3100
0000
1000
0002
0100
0000
1000
0000
,
0100
1000
0100
0103
,
0001
0000
0010
0000
0001
0000
0000
0000
0000
0000
0011
0000
0010
0100
1000
0000
,
0000
0000
1010
0000
0010
0100
0001
0000
0010
0000
0010
0000
0100
1000
0100
0000
,
1001
0000
0000
0000
,
1000
0010
0001
1000
,
0001
0010
1000
0000
1000
0000
0000
0000
,
0001
0010
1000
0001
,
1000
0010
0001
0001
0000
0000
0000
0000
,
0200
0000
0310
1000
,
0200
0000
0310
0001
,
0200
0000
0000
0320
0000
0000
0230
0000
0302
0000
0000
0000
2003
0000
0000
0000
,
3100
0000
0000
0000
,
0020
0000
0000
0000
,
0032
0000
0000
0000
,
2003
0000
0000
0000
,
3020
0000
0000
0000
,
0230
0000
0000
0000
,
0302
0000
0000
0000
,
2003
0000
0000
0000
,
3200
0000
0000
0000
,
0310
0001
0010
0001
,
1000
0010
1000
0100
,
2002
0000
0000
0000
,
0000
0000
0000
0000
,
3003
0001
0001
1000
0100
0001
0001
0100
,
1000
0010
1000
0100
0110
0000
0000
0000
,
0000
0000
0000
0000
0001
0100
0001
0000
,
0010
0001
1000
0100
,
1000
0010
1000
0000
0001
0000
0100
0000
,
0001
1000
0001
0000
0110
0000
0110
0000
,
1001
0000
1000
0100
,
0010
0000
1000
0010
0001
0000
0100
0000
,
0010
0000
0001
0010
1000
0000
0001
0100
,
0001
0000
1000
0010
2000
0000
3002
0000
,
0003
0110
0000
0000
1000
0000
1000
0000
,
0001
0000
0001
1000
0100
0000
0010
0000
,
0000
0001
0001
1000
,
1000
0001
0200
0000
0320
0000
1030
0001
,
1000
0000
0100
0000
0010
0000
0001
1000
,
0001
0010
0100
2000
,
0000
3002
0003
0101
,
0000
1010
0000
0020
,
0000
0000
0000
0000
,
0000
0000
0000
0000
0000
0000
0000
0000
0000
0000
0000
0002
0003
0000
0000
0000
,
0030
0000
0000
0000
;

//--------------- dance-single - Frondal ----------------
#NOTES:
     dance-single:
     Frondal:
     Medium:
     12:
     0,0,0,0,0:
0000
0000
0000
0000
,
0002
0000
0000
0000
,
2003
0000
0000
0000
,
3020
0000
0030
0000
,
0000
0000
0100
0100
0002
0000
0000
0000
,
0003
1000
0100
1000
0200
0000
0000
0000
,
0300
0010
0001
0010
0002
0003
0000
2000
,
3000
0000
0002
0003
0200
0000
0000
0000
,
0320
0030
2000
0000
,
3000
0001
0100
0001
0200
0000
0000
0000
,
0300
0010
1000
0010
2000
3000
0000
0200
,
0300
0000
0020
0030
0002
0000
0000
0000
,
2003
0000
3010
0010
,
0100
0100
0001
0001
,
1000
1000
0100
0100
,
0010
0010
0001
0001
,
1000
1000
1010
0010
,
0110
0100
0101
0001
,
0011
0000
0000
0000
0010
0000
0010
0000
0100
0000
1001
0000
0000
1000
0000
0000
,
0010
0000
0000
1001
0000
0000
1000
0000
0010
0000
0001
0000
0010
0000
1000
0000
,
0100
0000
0001
0000
0100
0000
1000
0000
1001
0000
0001
0010
0001
0100
0001
0010
,
0200
0000
0000
0000
0000
0000
1300
1000
0001
0000
0000
0000
1100
0000
0000
0000
,
1000
0010
0100
0001
1000
0000
0101
0000
,
0001
0010
0100
1000
0010
0000
1000
0100
,
0001
0100
1000
0000
0001
0010
1000
0010
,
0001
0001
1000
0010
1000
0000
0011
0000
,
0001
1000
0100
1000
0001
0000
1100
0000
,
1000
0001
0010
0001
0100
0000
1000
0100
,
0001
0010
1000
0000
0010
0001
0100
1000
,
0000
0100
0001
1000
0100
0000
1100
0000
,
1000
0010
0001
0000
0010
0000
0110
0000
,
0100
0001
0010
0000
0001
0000
1001
0000
,
1000
0100
0001
0000
0100
1000
1000
0000
,
0010
0001
0001
0000
0010
0000
0100
0000
,
0001
1000
0001
0000
0010
0000
0010
0000
,
0100
0000
1000
0000
0100
0000
1000
0000
0001
0000
0000
0011
0000
0000
1000
0000
,
0001
0000
0000
0101
0000
0000
1000
0000
0200
0000
0000
0000
0320
0000
0000
0000
,
0032
2003
3020
0000
,
0030
0100
0100
0001
0020
0000
0000
0000
,
1030
0010
0002
0000
1003
0000
0001
0100
,
0010
0000
0010
1000
0100
0001
0100
1000
,
0001
0100
0010
1000
1001
0000
0000
0000
,
1001
0000
0110
0002
,
2003
0000
0100
3001
0010
0000
0010
0000
,
0010
0010
0010
0010
,
0010
0000
0010
2000
3020
0001
0031
0100
,
0020
1000
1030
0100
1100
0000
0110
0000
,
0010
0000
0001
0000
0200
0000
0000
0000
0301
0000
1000
0100
0001
0100
1000
0000
,
0001
0000
0000
0000
0000
0000
1000
0000
0000
0010
0000
0000
0001
0000
0000
0010
0000
0000
1000
0000
0000
0000
0000
0000
0100
0000
0000
0001
0000
0000
0100
0000
0000
1000
0000
0000
0100
0000
0010
0000
0000
0000
0010
0000
0100
0000
0000
0000
,
1001
0001
1000
0001
,
1000
0010
0001
0010
1000
0000
1001
0000
,
0002
0000
2003
0000
3010
0001
0010
1000
,
0001
0010
1000
0010
0001
0000
1001
0000
,
1000
1000
0001
0001
0020
0000
0000
0000
,
0031
0000
0001
0000
1000
0010
0100
0001
,
1000
0000
1000
0100
0010
0000
0010
0001
,
0100
0000
0000
0100
0000
0000
0100
0000
0110
0000
0000
0000
1010
0000
0000
0000
,
1001
0000
0000
0000
,
0002
0000
0203
0000
,
1300
0100
0001
0001
,
2000
0000
3200
0000
,
0301
0100
1000
1000
,
0020
0000
0230
0000
,
0302
0000
1003
1000
,
0002
0023
0031
0001
,
0200
0000
0000
0300
,
1001
1000
0001
0001
,
0010
0010
0100
2000
,
3010
0100
0010
0100
0001
1000
0001
1000
,
0200
0000
0000
0000
,
1300
0000
0001
0100
1000
0000
0100
0001
1000
0001
0100
0000
1000
0100
0001
1000
,
0001
0010
0001
0010
0100
1000
0100
1000
1010
0000
0000
0000
0000
0000
0000
0000
,
0020
0000
0000
0000
0130
0000
0001
0010
,
1000
0000
0001
0100
1000
0010
1000
0100
,
1000
0010
0110
0000
0001
0000
1000
0100
,
0001
0000
1000
0010
0001
0100
0010
0100
,
0001
0001
1000
1000
0001
0000
0010
0100
,
0001
0000
0100
0010
0001
1000
0001
1000
,
0010
0000
0100
0001
0010
0000
0100
1000
,
0010
0000
0100
1000
0100
0010
1000
0100
,
0010
1000
0010
0001
0100
0000
0101
0000
,
0001
1001
2000
3002
,
0013
0100
1100
1000
,
1001
0000
0002
0203
2300
3020
0031
0100
,
0001
0010
0001
0000
0100
0001
1000
0100
,
1000
0010
1000
0000
1001
0000
0001
0010
,
0100
1000
0010
0010
0100
0100
1001
0000
,
0000
0110
0000
2002
,
0000
0000
0000
3003
,
0000
0000
0000
0000
0000
0000
0000
0000
0000
0000
0000
1001
0000
0000
0000
0000
;

//--------------- dance-single - Frondal ----------------
#NOTES:
     dance-single:
     Frondal:
     Hard:
     15:
     0,0,0,0,0:
0000
0000
2000
3200
,
0320
0000
0000
0000
0030
0001
1000
0001
0200
0000
0000
0000
0320
0000
0000
0000
,
2030
0000
0000
0000
3000
0001
0010
0001
1000
0000
2000
0000
0000
0000
0000
0000
,
3020
0000
0030
0000
,
0000
0000
0100
0001
0011
0000
0000
0000
,
0000
0010
0100
1000
0010
0000
0000
0000
,
0000
1000
0100
0010
0002
0000
0003
0200
,
0000
0000
0300
0000
0020
0000
0000
0000
2030
0000
0000
0000
0000
0000
3001
1000
,
0100
0000
0010
0000
,
0000
0010
0100
1000
0010
0000
0000
0000
,
0000
0001
0010
1000
0002
0000
0003
0200
,
0000
0000
0300
0000
0020
0000
0000
0000
2030
0000
0000
0000
3000
0000
0100
0010
,
0200
0000
0300
0000
1000
0010
1000
0010
,
0100
0001
0010
0001
1000
0100
1000
0100
,
0010
0001
0100
0001
0010
0100
1000
0001
,
1000
0000
0100
0000
0010
0000
0100
0000
1000
0000
0001
0000
0100
0000
0001
1000
,
0001
0010
0100
1000
1010
0000
0010
0000
,
0110
0000
0100
0001
0011
0000
0010
0000
,
0110
0000
0000
0000
1000
0000
1000
0000
0001
0000
0100
0010
0000
0000
0010
0000
,
1000
0000
0100
0010
0000
0000
0010
0000
0200
0000
1300
0010
0200
0000
0301
0100
,
0020
0000
0000
0000
1030
0000
0100
0000
0020
0000
0000
0000
1030
0000
0000
0000
0020
0030
0000
0000
0002
0003
0200
0300
0002
0003
0020
0030
0200
0300
2000
3000
,
0020
0000
0230
0000
0302
0010
1003
1000
0001
0000
0001
0000
0001
0000
0010
0000
,
0100
1000
0010
0000
1000
0100
0010
0100
,
1000
0010
1000
1000
1001
0000
0001
0010
,
1000
0000
0010
0000
0001
0000
1000
0010
1000
0000
0001
0000
1001
0000
0000
0000
,
1000
0000
0010
0100
0010
0000
1000
0000
1001
0000
0001
0000
0010
0000
0001
0000
,
0100
0010
1000
1000
0001
0010
0100
0010
,
0001
0000
1000
0010
0100
0000
0100
0000
1000
0000
0000
0000
0100
0000
0001
0000
,
1000
0000
1000
0000
0001
0000
0000
0010
0001
0000
0001
0000
1000
0000
1000
0000
,
0000
0020
0100
1030
0001
0001
1001
0000
,
1000
0010
0001
0010
1000
0000
1100
0000
,
0100
0000
0010
0000
0001
0000
1000
0010
1000
0000
0000
0000
0100
0000
0010
0000
,
0100
0000
1000
0000
0010
0000
0100
0001
0100
0000
0010
0000
1000
0000
0001
0010
,
0100
0000
1000
0010
1000
0000
0200
0300
1000
0000
1000
0000
0010
0000
0000
0000
,
0100
0000
1000
0000
0100
0000
0001
0000
1001
0000
0000
0000
1000
0000
0001
0010
,
0100
0000
0100
0000
1000
0000
0010
0100
0002
0000
0000
0023
0000
0000
2030
0000
,
3010
0000
0001
1000
0000
1000
0001
0000
0010
0000
0200
0000
1300
0000
0020
0000
,
0130
0001
0100
0010
0110
0000
0100
0000
,
0001
0010
0001
0100
0010
0000
0010
0000
,
1000
0100
0002
0000
0103
1000
0100
1000
,
0010
0100
0010
0100
0001
0001
0010
0010
,
0001
0100
0001
0000
1000
0010
1000
0000
1001
0000
0001
0010
0000
0000
0100
0000
,
1100
0000
1000
0010
0000
0000
0002
0000
0013
0000
0100
0001
0100
0000
0010
1000
,
0010
0000
0100
0001
0020
0000
0130
0000
1001
0000
0000
0000
1001
0000
0000
0000
,
1001
1001
1001
1001
,
1001
0000
1002
0013
1001
1000
0010
1000
,
1001
0000
0001
0000
0010
0000
0001
0000
1000
0100
1000
0000
1000
0010
1000
0000
,
0002
0000
0023
0000
0230
0000
2300
0000
3001
0100
1000
0100
0001
0010
0100
0001
,
0000
0000
0000
0000
0000
0000
0100
0000
0000
0000
0000
0000
1000
0000
0000
0000
0000
0000
0100
0000
0000
0000
0000
0000
0001
0000
0000
0000
0000
0000
0100
0000
0000
0000
0000
0000
1000
0000
0000
0000
0000
0000
1000
0000
0000
0000
0000
0000
0001
0000
0000
0000
0000
0000
0100
0000
0000
0010
0000
0000
0100
0000
0000
0000
0001
0000
0000
0000
0010
0000
0000
0000
0100
0000
0000
0000
0010
0000
0000
0000
0001
0000
0000
0000
1000
0000
0000
0000
0000
0000
0001
0000
0000
0000
0000
0000
,
1002
0000
0000
0000
0013
0000
0000
0000
0010
0000
0000
0000
0100
0000
1000
0001
,
1000
0000
1100
0100
1000
0000
1010
0010
,
0001
0000
0010
0000
1000
0000
0010
0000
0100
0000
0100
0000
0001
0000
0010
0100
,
0010
0000
0011
0001
0100
1000
0100
0000
,
0001
0110
1000
0001
0020
0000
1000
0000
,
0031
0000
0001
0000
1000
0010
1000
0100
,
0010
0000
0000
0000
0100
0000
1000
0010
1000
0000
0100
0000
0010
0000
0001
1000
,
0002
0000
0000
0203
0000
0000
0302
0000
0013
0000
0100
1000
0100
0000
0010
0001
,
0020
0000
0000
0031
,
2000
0000
3020
0000
,
0130
0100
0001
0010
,
0002
0000
0203
0000
,
0301
0001
0010
0001
,
2000
3020
0230
0320
,
1030
0001
0010
0010
,
0002
0203
0320
0230
,
0301
0010
0100
1000
,
1001
0011
1001
1100
,
1001
0101
2001
3020
,
0130
0001
0100
0001
1000
0100
1000
0100
,
0010
0001
1000
0000
0010
1000
0001
0000
0100
0001
1000
0000
0100
1000
0001
0000
,
0200
0000
1300
0100
0001
1000
0010
0100
0001
0010
1000
0010
0001
1000
0010
0000
,
1000
0000
1000
0000
0001
0000
0001
0000
0010
0100
0010
0000
0100
0010
0100
0010
0001
0000
0000
0000
0000
0000
0000
0000
0000
0000
0000
0000
0000
0000
0000
0000
,
0200
0000
0000
0000
0000
0000
0000
0000
0010
0000
0310
0000
1000
0000
0001
0010
,
0001
0000
0000
0000
0100
0000
0001
0010
0001
0000
0100
0000
1000
0000
0100
0000
,
0001
0000
0001
0000
1000
0000
1000
0000
0100
0000
1000
0000
0010
0000
1000
0100
,
1000
0000
0001
0000
1000
0000
0001
0010
0100
0000
0100
0000
1000
0000
0000
0000
,
0010
0000
0001
0000
0010
0000
0001
0000
0010
0000
0000
0000
1000
0000
0001
0010
,
0001
0000
0000
0000
1000
0000
0001
0100
0001
0000
0010
0000
1000
0000
0010
0000
,
0001
0000
1001
0000
1000
0000
0010
0000
0100
0000
0100
0000
0001
0000
1000
0010
,
1000
0000
0100
0100
0001
0100
1000
0010
,
0000
0000
0110
0000
0100
0000
0001
1000
0001
0000
0000
0000
0011
0000
0010
0100
,
1000
0000
0000
0000
1010
0000
0010
0100
0001
0000
0000
0000
1001
0000
0000
0000
,
2000
3200
0302
0203
1300
0000
0000
0000
1100
0000
0100
0010
0001
0000
0000
0000
,
0101
0000
0100
0010
2000
0000
3200
0000
2300
0000
3020
0000
0130
0000
0001
0000
,
0100
0000
0001
0010
0001
0000
0100
0000
0001
0000
1000
0001
1000
0000
0010
0000
,
1000
0000
0100
0010
0100
0000
1000
0000
0010
0000
1000
0001
1000
0000
1000
0000
,
0001
0000
0001
0000
0010
0100
1000
0000
0010
0100
0001
0000
0011
0000
0000
0000
,
0000
1010
0000
0002
,
0000
0000
0000
0000
0000
0000
0000
0000
0000
0000
0000
0003
1000
0010
0100
0000
,
0001
0010
0100
0000
1000
0001
1000
0001
1000
0000
0000
0110
0000
0000
0000
0000
;

//--------------- dance-single - Frondal ----------------
#NOTES:
     dance-single:
     Frondal:
     Challenge:
     17:
     0,0,0,0,0:
0000
0000
0002
0023
,
0230
0000
0000
0000
0000
1300
0001
1000
0002
0000
0000
0000
0203
0000
0310
0000
,
2000
0000
0000
0000
0000
3001
0100
0001
2000
0000
0000
0000
0000
0000
0000
0000
,
0000
0000
0000
3000
0000
0000
0000
0000
,
0000
0000
1000
1000
0200
0000
0000
0000
,
0300
0010
0001
0010
2000
0000
0000
0000
,
3000
0010
0001
1000
0002
0000
0003
2000
,
0000
0000
3000
0000
2000
0000
0000
0000
3200
0000
0000
0000
0000
0000
1300
0010
,
0200
0300
0002
0000
,
0003
0100
0001
0100
2000
0000
0000
0000
,
3000
0100
0001
1000
0200
0000
0300
2000
,
0000
0000
3000
0000
0020
0000
0000
0000
0230
0000
0000
0000
0000
0000
0301
1000
,
0001
0000
1001
1000
,
0100
0010
0100
1000
0010
0000
0010
0000
,
0100
0001
0010
0001
1001
0000
1000
0010
,
0100
0000
0001
0000
0010
0000
0000
0000
0100
0000
0000
0000
0100
0000
1000
0001
,
1000
0000
0010
1000
0001
0010
0100
0010
,
0001
1000
0100
1000
0001
0100
0001
1000
,
0010
0000
0100
0000
0010
0000
1000
0000
0001
0000
0010
0100
0000
0000
1100
0000
,
1000
0000
0010
0100
0000
0000
0101
0000
0001
0000
0010
0100
1000
0000
0100
0010
,
0001
0000
0000
0000
0100
0000
0010
0000
1000
0000
0000
0000
0010
0000
0100
0000
0002
0000
0000
0000
0023
0030
2000
3000
0020
0030
0002
0003
2000
3000
0020
0030
,
1000
0000
0001
0100
0001
0000
1000
0010
2000
0000
0100
0000
3001
0000
1000
0000
0010
0000
0000
0000
0010
0000
0000
0000
0010
0000
0000
0000
1000
0000
0000
0000
,
0100
0010
1000
0010
0001
1000
0010
1000
,
0001
0000
0100
0000
0010
0000
0010
0100
0010
0000
1000
0000
0100
0000
1000
0000
,
0001
0000
0001
0000
0010
0000
0100
1000
0010
0000
1000
0000
1000
0000
0100
0000
,
0010
0000
0001
2000
0001
0000
3010
0000
0110
0000
0100
0000
0001
0000
0010
0000
,
0001
0100
0010
0010
1000
0001
1000
0100
,
0001
0000
0100
0010
0100
0000
1000
0000
1001
0000
0000
0000
0001
0000
0010
0000
,
0010
0100
1000
0000
1001
1001
1001
1001
,
0000
0000
0001
0000
0100
0000
1000
0100
0001
0000
1000
0000
1010
0000
0000
0000
,
0010
0100
0101
0001
1000
0001
0011
0000
,
0001
1000
1100
0200
1300
0010
0010
0001
,
0010
0000
1000
0000
1001
0000
0001
0010
0001
0000
0100
0000
0110
0000
0010
0000
,
1000
0000
0001
0020
0001
0000
0130
0000
1100
0000
1000
0000
1010
0000
0000
0000
,
0010
0000
0001
0000
0010
0000
1000
0000
1001
0000
0000
0000
0011
0000
0010
0100
,
1000
0000
1001
0000
0001
0000
0010
0100
1000
0000
0001
0100
0000
0010
1000
0000
,
0001
1000
0100
1000
0001
0010
0001
0100
0020
0000
0000
0000
0230
0000
0000
0000
,
0302
2003
3100
0100
,
1000
0001
1000
0000
0010
0000
0010
0000
,
1000
0001
0020
0000
0130
0100
1000
0010
,
0100
0100
0010
1000
0100
0001
0100
1000
,
0001
0100
0001
0100
0010
1000
0010
1000
0100
0000
0020
0032
0013
0000
0020
0000
,
0130
0000
1000
0020
0200
0300
2030
3000
1001
0000
0000
0001
1000
0000
0000
1000
,
0001
0000
0000
0002
0100
0000
1003
0000
MMMM
0000
0000
0000
MMMM
0000
0000
0000
,
MMMM
MMMM
MMMM
MMMM
,
MMMM
0000
MMMM
MMMM
MMMM
0000
MMMM
0000
,
MMMM
0000
0000
0000
MMMM
0000
0000
0000
MMMM
MMMM
MMMM
0000
MMMM
MMMM
MMMM
0000
,
MMMM
0000
0000
0000
0001
0000
0000
0000
0010
0000
0000
0000
0100
0000
0000
0000
1000
0000
0001
0000
0100
0000
0001
0010
1000
0000
0010
0100
0010
0001
0000
0000
,
0001
0000
0000
0000
0000
0000
1000
0000
0000
0010
0000
0000
1000
0000
0000
0000
0000
0000
0000
0000
0000
0000
0000
0000
0001
0000
0000
0010
0000
0000
0000
0000
0000
0010
0000
0000
0001
0000
0000
0000
0000
0000
0100
0000
0000
0000
0000
0000
0010
0000
0000
0000
0000
0000
1000
0000
0000
1000
0000
0000
0001
0000
0000
0000
0200
0000
0300
0000
0200
0000
0300
0000
1000
0000
0000
0000
0020
0000
0030
0000
0020
0000
0030
0000
0001
0000
0000
0000
0000
0000
1000
0000
0000
0100
0000
0000
,
1000
0000
0000
0000
1000
0000
0000
0000
1000
0000
0000
0000
0010
0000
1000
0001
,
1000
1000
0010
0100
1000
1000
0100
0001
,
0010
0000
0001
0100
0001
0000
1000
0010
1000
0000
1001
0000
1000
0000
0001
0100
,
0001
0000
0001
0000
0010
0000
0200
0000
0002
0003
0320
0030
0100
0000
0010
0000
,
0001
1001
0001
0100
0020
0000
2030
0000
,
3001
0000
0001
0000
0010
0100
1000
0010
,
1000
0000
0000
0000
1000
0000
0100
0010
0001
0000
0001
0000
0100
0000
0200
0300
,
0101
0000
0000
0011
0000
0000
0101
0000
0100
0000
0001
0010
0200
0300
0010
0100
,
2000
0000
0000
0000
,
3002
0003
0000
0000
0100
0000
0010
2000
3010
0000
0000
0000
1000
0000
0100
0020
,
0130
0000
0000
0000
0200
0300
0000
0000
2000
3000
0000
0000
0020
0030
0000
0000
,
2000
3000
0000
0000
0100
0000
0010
0002
0013
0000
0000
0000
0001
0000
0100
0020
,
0130
0000
0000
0000
0200
0300
0000
0000
0002
0003
0000
0000
0020
0030
0000
0000
,
0002
0003
0100
0000
0020
0030
0100
0002
0103
0000
0010
0000
2000
3000
0100
0020
,
0130
0000
1000
0000
0002
0003
0010
0000
2000
3000
0010
0000
0002
0003
1000
0000
,
2000
3000
0010
0000
0200
0300
0001
0020
0031
0000
0100
0000
2000
3000
0100
0000
,
0002
0003
0010
0000
0200
0300
0010
0000
0002
0003
0010
0000
0200
0300
0010
0000
,
0011
1001
1100
1001
,
0101
0000
0000
0000
1001
0000
0000
0000
1020
0000
0000
0000
0002
0003
0000
0000
,
1030
1000
0100
0100
0010
0010
0001
0001
,
1000
0010
1000
0010
0100
0001
0100
0001
0010
0100
0010
0100
1000
0001
1000
0001
,
0010
0000
0000
0000
1000
0000
0010
0000
0001
0000
1000
0010
1000
0000
0200
0000
0301
0000
0100
0010
0100
0000
1000
0000
0001
0000
0100
0010
0100
0000
0001
0000
,
1000
0000
1000
0000
0001
0000
0001
0000
0010
0100
1000
0010
0100
0001
0020
0000
0200
0030
0300
0000
0000
0000
0000
0000
0000
0000
0000
0000
0000
0000
0000
0000
,
0020
0000
0000
0000
0100
0000
0000
0000
1030
0000
0010
0000
0001
0000
0100
0010
,
0100
0000
0001
0000
1000
0000
0100
0010
0100
0000
0001
0000
0100
0000
1000
0000
,
1100
0000
0100
0000
0110
0000
0010
0000
0011
0000
0001
0000
1000
0000
0010
0100
,
0010
0000
0010
0000
0001
0000
0010
0100
0010
0000
1000
0000
0001
0000
0100
0000
,
0001
0000
1001
0000
1000
0000
1001
0000
0001
0000
0010
0000
0100
0000
0010
0001
,
1000
0000
0010
0000
0100
0000
0001
0010
0001
0000
0100
0000
1000
0000
0100
0001
,
1000
0000
1001
0000
0001
0000
0010
0000
1000
0000
0010
0000
0100
0000
1000
0001
,
1000
0000
0010
0000
0100
0000
0001
0010
0001
0000
0001
0000
1000
0000
1000
0000
,
0000
0000
0020
0000
0130
0000
0100
0001
1000
0000
0001
0000
0011
0000
0010
0001
,
1000
0000
0010
0000
1010
0000
1000
0001
0100
0000
1000
0000
0100
0000
0001
0000
,
0020
0032
0203
0320
1030
0000
0100
0000
1100
0000
1000
0010
0100
0000
0001
0000
,
0011
0000
0010
0001
2000
0000
3020
0000
2030
0000
3200
0000
0310
0000
1000
0000
,
0010
0000
0001
1000
0001
0000
0100
0000
0001
0000
0010
0100
0010
0000
0001
0000
,
0100
0000
0001
0010
0001
0000
1001
0000
1000
0000
0001
1000
0010
0000
0010
0000
,
0100
0000
0100
0000
0001
0100
0001
0010
0100
1000
0010
1000
0001
0000
0000
0000
,
0000
1001
0000
2000
,
0000
0000
0000
0000
0000
0000
0000
0000
0000
0000
0000
0000
3001
0100
0001
0100
,
0010
1000
0010
1000
0001
0010
0001
0010
0200
0000
0000
0002
0000
0000
0303
0000
;

//--------------- dance-double - Frondal ----------------
#NOTES:
     dance-double:
     Frondal:
     Hard:
     16:
     0,0,0,0,0:
00000000
00000000
00000000
00000000
,
00002000
00000000
00000000
00000000
00000000
00013000
00001000
00100000
00020000
00000000
00000000
00000000
02030000
00000000
00000000
03200000
,
00320000
00000000
00000000
00000000
00000000
00031000
00000100
00000010
00002000
00000000
00000000
00000000
00000000
00000000
00000000
00000000
,
00003002
00000000
00000000
00000003
00000000
00000000
00000000
00000000
,
00000000
00000000
00000010
00000001
00000200
00000000
00000000
00000000
,
00000300
00000010
00001000
00000010
00020000
00000000
00000000
00000000
,
00030000
00001000
00010000
00001000
00200000
00000000
00300000
02000000
,
00000000
00000000
03000000
00000000
20000000
00000000
00000000
00000000
30200000
00000000
00000000
00000000
00000000
00000000
01300000
00001000
,
00010000
00000000
02000000
00000000
,
03000000
00100000
00010000
00100000
00002000
00000000
00000000
00000000
,
00003000
00010000
00001000
00010000
00000020
00000000
00000030
00000200
,
00000000
00000000
00000300
00000000
00000002
00000000
00000000
00000000
00000023
00000000
00000000
00000000
00000000
00000000
00000230
00020300
,
00032000
00000000
00013000
00010000
,
00001000
01000000
00100000
01000000
00001000
00000000
00001000
00000000
,
00010000
00000001
00000100
00000001
00000010
00000000
00000100
00001000
,
00000010
00001000
00000100
00000000
01000000
00000000
00010000
00100000
,
00001000
00010000
01000000
10000000
10010000
00000000
00010000
00000000
,
01010000
01000000
00100000
00010000
00011000
00000000
00001000
00000100
,
00000101
00000000
00000000
00000000
00000001
00000000
00000010
00000000
00000001
00000000
00000100
00000010
00000000
00000000
00000010
00000000
,
00001000
00000000
00000100
00010000
00000000
00000000
00010000
00000000
00001000
00000000
00100000
01000000
00100000
00000000
00010000
10000000
,
00010000
00000000
00000000
00000000
01000000
00000000
00100000
00000000
01000000
00000000
00000000
00000000
00010000
00000000
00000000
00000000
20020000
30030000
00000000
00000000
20000000
30000000
02000000
03000000
00200000
00300000
00002000
00003000
02000000
03000000
00020000
00030000
,
00001000
00000000
00000000
00001000
00000010
00000000
00000000
00000010
00000100
00000000
00000001
00000000
00001001
00000000
00000000
00000000
00001000
00000000
00000000
00000000
01000000
00000000
00000000
00000000
00010000
00000000
00000000
00000000
00001000
00000000
00000000
00000000
,
00100000
00010000
01010000
00000000
01000000
10000000
01000000
00010000
,
00100000
00001000
00010000
00010000
00000020
00000130
00000010
00002000
,
00003100
00000000
00000020
00000000
00000130
00000000
00001000
00000001
00001000
00000000
00000010
00000000
00000110
00000000
00000000
00000000
,
00000100
00000000
00000001
00001000
00000100
00000000
00200000
00300000
00010000
00000000
00000010
00000000
00001000
00000000
00010000
00000000
,
00000100
00001000
00001010
00000010
00000100
00001000
00000100
00000001
,
00000010
00000000
00000100
00001000
00000100
00000000
00010000
00000000
00011000
00000000
00000000
00000000
00002000
00000000
00203000
00000000
,
10300000
00200000
00302000
10003000
10100000
00100000
01000000
01001000
,
00000000
00000000
00001000
00000000
00010000
00000000
00100000
00010000
00001000
00000000
00001000
00000000
00011000
00000000
00000000
00000000
,
00010000
00000100
00000001
00000100
00010000
00000000
00011000
00000000
,
00001000
00000000
01000000
00000000
10000000
00000000
01000000
00001000
01000000
00000000
00010000
00000000
00001000
00000000
00100000
00000000
,
01000000
00000000
01000000
00000000
00001000
00000000
00010000
00000100
00010000
00000000
00000010
00000000
00000110
00000000
00000000
00000000
,
00000100
00000000
00001000
00010000
00001000
00000000
01000000
00000000
00001000
00000000
00001000
00000000
00011000
00000000
00000000
00000000
,
00010000
00000000
00000010
00000000
00000001
00000000
00000010
00000000
00010000
00000000
00000000
00000000
00011000
00000000
00001000
00100000
,
00001000
00000000
10000000
00000000
00100000
00000000
10000000
01000000
00100000
00000000
00100000
00001000
00000000
00001000
00010000
00000000
,
00000100
00000000
00000010
00000001
00000010
00000000
00000100
00000000
00020000
00000000
00000000
00000000
02030000
00000000
00000000
00000000
,
23000000
00000000
30200000
00000000
00310000
00001000
00010000
00001000
,
00000010
00000001
00000010
00000100
00010000
00001000
00010000
00001000
,
01000000
10000000
02000000
00000000
03100000
00100000
10000000
01000000
,
00100000
00000000
00100000
00000000
00001000
00000000
00010000
00000000
00000010
00000100
00000010
00000000
00001000
00000001
00001000
00000000
,
00100000
00000000
00010000
00000000
00001000
00000000
00000010
00000000
00001000
00000000
00001000
01000000
00000000
00000000
01002000
00000000
,
00013000
00000000
00010000
00000100
00000000
00000000
00000002
00000000
00000103
00000000
00000000
00000100
00010000
00000000
00000000
00010000
,
00001000
00000000
00000000
00001000
01000000
00000000
00100000
00000000
00020000
00000000
00000000
00000000
00230000
00000000
00000000
00000000
,
00320000
00230000
00320000
00230000
,
00320000
00000000
00031000
00200000
00310000
00010000
00000010
00000001
,
00000100
00000000
00000100
00000000
00010000
00001000
00000000
00000010
00010000
00001000
00010000
00000000
00001000
00010000
00001000
00000000
,
00100000
00000000
00010000
00000000
02000000
00000000
00000000
00000000
03100000
10000000
01000000
00100000
00010000
01000000
00100000
00001000
,
00000000
00000000
00000000
00000010
00000000
00000000
00001000
00000000
00000000
00000001
00000000
00000000
00000010
00000000
00000000
00001000
00000000
00000000
00000010
00000000
00000000
00000000
00000000
00000000
00000010
00000000
00000000
00000100
00000000
00000000
00010000
00000000
00001000
00000000
00000000
00000000
00001000
00000000
01000000
00000000
00100000
00000000
01000000
00000000
00000000
00001000
00000000
00000000
,
00011000
00000000
00000000
00000000
00010000
00000000
00000000
00000000
00001000
00000000
00000000
00000000
00010000
00000000
00010000
00001000
,
00010000
00000100
00000001
00000100
00010000
00000100
00000101
00000000
,
00000001
00000000
00000100
00000000
00000010
00000000
00000001
00000000
00001000
00000000
00001000
00000000
00000100
00000000
00000100
00010000
,
00001000
01000000
10000000
01000000
00001000
01000000
11000000
00000000
,
10000000
01000000
00010000
00100000
00002000
00000000
00000010
00000000
,
00013000
00000100
00010000
00000100
00000010
00000001
00000100
00000010
,
00010000
00000000
00001000
00000000
00010000
00000000
00100000
00000000
10000000
00000000
00010000
00000000
10000000
00000000
01000000
00100000
,
00010000
00000000
00000000
01010000
00000000
00000000
01000100
00000000
00001100
00000000
00001000
00000001
00001000
00000000
00000010
00000000
,
00000200
00000000
00000000
00000000
,
00000302
00000013
00000002
00000203
00000320
00001030
00000200
00000310
,
00000200
00002300
00023000
00030000
,
20000000
30100000
20000000
32000000
03200000
00310000
02000000
03200000
,
00302000
00203000
02300000
03002000
,
00013000
00001000
00010000
00001000
00100000
00010000
10000000
00100000
,
00010000
00001000
00010000
00001000
00000010
00000001
00000010
00001000
,
00010000
00000010
00010000
00001000
01000000
00100000
00010000
00001000
,
00010000
00010000
00010000
00010000
,
00011000
00001000
00000010
00000001
,
00001001
00000000
00001000
00000000
00000010
00000000
00200000
00300000
,
01100000
01000000
10000000
00010000
10010000
10000000
00100000
01000000
,
00001000
00010000
00001000
00000000
01000000
00100000
01000000
00000000
00001000
00010000
00001000
00000000
00000010
00000100
00000010
00000000
,
00000001
00000000
00000100
00001000
00000100
00000001
00001000
00000100
00000000
00010000
00001000
00100000
10000000
00100000
00010000
00000000
,
10000000
01000000
00100000
00010000
00001000
00000100
00000010
00000001
00000200
00000000
00000000
00000000
00000000
00000000
00000000
00000000
,
00000300
00000000
00002000
00000000
00103000
00010000
00000010
00000100
,
00001000
00000010
00001000
00000100
00000110
00000000
00000011
00000000
,
00010001
00010000
00011000
00001000
01000000
10000000
01000000
00010000
,
10000000
01000000
00100000
00010000
10010000
00000000
11000000
00000000
,
01001000
00001000
00001100
00000100
00010000
00001000
00100000
00010000
,
01000000
00000000
00100000
00000000
10000000
00000000
10000000
00100000
00010000
00000000
00000010
00000000
00001000
00000000
00000001
00000000
,
00000100
00001000
00000100
00000001
00001001
00000000
00001000
00000010
,
00100010
00000000
00100000
00010000
10000000
01000000
00010000
01000000
,
00000000
00000000
01100000
00000000
00000000
00000000
00100000
00001000
00010000
00000000
01000000
00000000
10000000
00000000
01000000
00000000
,
00010000
00001000
01000000
00100000
00010000
00000010
00000001
00000010
,
00002000
00000000
00003001
00000010
00001000
00000010
00000001
00000100
,
00001000
00010000
01000000
01000000
10000000
10001000
00001000
00100000
,
00001000
00000000
00010000
00000010
00010000
00000000
00001000
00000000
00000100
00000000
00000001
00000010
00000001
00000000
00000100
00000000
,
00001000
00000000
00010000
00000000
00001000
00000000
00100000
00000000
01000000
00000000
10000000
00010000
10000000
00000000
10000000
00000000
,
00001000
00000000
00001000
00000000
00010000
00000010
00010000
00000000
00001000
00100000
00001000
00000000
00011000
00000000
00000000
00000000
,
00000000
02000100
03020000
00030020
,
00000000
00000000
00000000
00000000
,
00000000
00000000
00000000
00000000
00000031
00001000
00000001
00001000
00000010
00000000
00000000
00100010
00000000
00000000
00000000
00000000
;

//--------------- dance-double - Frondal ----------------
#NOTES:
     dance-double:
     Frondal:
     Challenge:
     17:
     0,0,0,0,0:
00000000
00000000
00000000
00000000
,
00002000
00000000
00000000
00000000
,
00023000
00000000
00000000
00000000
,
00030000
00000000
00000000
00000000
,
00000000
00000000
00001000
00100000
00020000
00000000
00000000
00000000
,
00030000
10000000
01000000
10000000
00020000
00000000
00000000
00000000
,
00030000
01000000
00100000
00010000
00002000
00000000
00003000
00020000
,
00000000
00000000
00030000
00000000
00002000
00000000
00000000
00000000
00203000
00000000
00000000
00000000
00300000
00000000
00001000
00010000
,
00002000
00003000
00020000
00000000
,
00030000
00000001
00000100
00000001
00002000
00000000
00000000
00000000
,
00003000
00000100
00000010
00001000
00020000
00000000
00030000
00002000
,
00000000
00000000
00003000
00000000
00020000
00000000
00000000
00000000
00030020
00000000
00000000
00000000
00000030
00000000
00010000
00000100
,
00020000
00030000
00001000
00100000
,
00010000
00000000
10000000
01000000
10000000
00000000
00100000
00000000
,
01000000
00000000
00010000
00100000
00001000
00000000
00010000
00000000
,
00000010
00000000
00000100
00000001
00000100
00000000
00000010
00000000
,
00001000
00000000
00000100
00010000
00001000
00000000
00102000
00000000
,
00013000
00020010
00031000
01002000
,
00013000
00000000
00000000
00000000
00020100
00000000
00000000
00000000
00031000
00000000
00010000
00100000
00000000
10000000
01000000
00000000
,
00010000
00000000
00001000
00000010
00000000
00000001
00000100
00000000
00001000
00000000
00100000
00010000
00100000
00000000
00000100
00001000
,
00000100
00000000
00000000
00000000
01000000
00000000
00010000
00000000
01000000
00000000
00000000
00000000
00000010
00000000
00010000
00000000
00000020
00000030
00000000
00000000
00000200
00000300
00002000
00003000
00020000
00030000
02000000
03000000
00200000
00300000
00020000
00030000
,
10000000
00000000
00000000
01000000
00100000
00000000
00000000
01000000
10000000
00000000
00100000
00000000
00001000
00000000
00000010
00000000
00000100
00000000
00000000
00000000
00000100
00000000
00000000
00000000
00000001
00000000
00000000
00000000
00000010
00000000
00000000
00000000
,
00000001
00000100
00001000
00010000
00000100
00000010
00001000
00010000
,
00000100
00000000
00000010
00000000
00000001
00000000
00001000
00000100
00010000
00000000
00001000
00000000
10000000
00000000
00010000
00000000
,
00100000
00000000
00100000
00000000
01000000
00000000
10000000
00010000
10000000
00000000
10000000
00000000
00100000
00000000
01000000
00000000
,
00010000
00000000
00100000
00001000
00100000
00000000
00010000
00000000
00000010
00000000
00000100
00000000
00001000
00000000
00000100
00000000
,
00000010
00000001
00001000
00001000
00000100
00010000
01000000
00010000
,
00000100
00000000
00100000
00001000
00100000
00000000
00010000
00000000
10000000
00000000
00100000
00000000
01000000
00000000
00001000
00000000
,
00010000
00000000
00010000
00000000
01000000
00000000
00100000
00010000
10000000
00000000
10000000
00000000
00001000
00000000
00001000
00000000
,
01000000
00000000
00010000
00000000
00000100
00000000
00000001
00001000
00000001
00000000
00000010
00000000
00000011
00000000
00000000
00000000
,
00000001
00000100
00000010
00010000
00001000
01000000
01010000
00000000
,
00010000
00000000
10000000
00000000
01000000
00000000
00100000
00001000
00010000
00000000
00000100
00000000
00000010
00000000
00001000
00000000
,
00010000
00000000
00010000
00000000
00100000
00000000
00010000
00001000
00100000
00000000
00100000
00000000
00010000
00000000
00000010
00000000
,
00000100
00000000
00001000
00000001
00001000
00000000
00000010
00000000
00001010
00000000
00001000
00000000
00001100
00000000
00000000
00000000
,
00000100
00000000
00001000
00000000
00000100
00000000
00010000
00000000
00001000
00000000
00000000
00000000
00100000
00000000
00010000
10000000
,
00010000
00000000
00010000
00000000
01000000
00000000
00100000
10000000
00100000
00000000
01000000
00001000
00000000
00010000
00000100
00000000
,
00000010
00000000
00000001
00001000
00000001
00000000
00000010
00000000
00001000
00000000
00100000
00010000
00100000
00000000
00000100
00001000
,
00000100
00000000
01000000
00010000
01000000
00000000
00000010
00001000
00000010
00000000
00000000
00000000
00000010
00000000
00000000
00000000
,
00000100
00001000
00010000
01000000
00100000
00000000
00100000
00000000
,
01000000
00010000
00000200
00000000
00000310
00000001
00001000
00000010
,
01000000
00010000
10000000
01000000
00100000
10000000
00100000
00001000
,
00010000
00000010
00010000
00000010
00001000
00000001
00001000
00000001
00000010
00000000
00000100
00001000
01000000
00000000
10000000
00000000
,
00100000
00000000
01000000
00010000
00000100
00000000
00000010
00000000
00010010
00000000
00010000
00000010
00001000
00000000
00000100
00010000
,
00001000
00000000
00100000
00010000
00002000
00003000
00000200
00000300
MM0000MM
00000000
00000000
00000000
MM0000MM
00000000
00000000
00000000
,
MM0000MM
MM0000MM
MM0000MM
MM0000MM
,
MM0000MM
00000000
MM0000MM
00MMMM00
MM0000MM
00000000
MM0000MM
00000000
,
MM0000MM
00000000
00000000
00000000
MM0000MM
00000000
00000000
00000000
M000000M
0M0000M0
M000000M
00000000
0M0000M0
M000000M
0M0000M0
00000000
,
00020000
00000000
00000000
00000000
00032000
00000000
00000000
00000000
00203000
00000000
00000000
00000000
00320000
00000000
00000000
00000000
10030000
00000000
01000000
00000000
00100000
00000000
00010000
01000000
00010000
00000000
10000000
00100000
10000000
01000000
00100000
00000000
,
00010000
00000000
00000000
00000000
00000000
00000000
01000000
00000000
00000000
00001000
00000000
00000000
01000000
00000000
00000000
00000000
00000000
00000000
00000000
00000000
00000000
00000000
00000000
00000000
00010000
00000000
00000000
00100000
00000000
00000000
00001000
00000000
00000000
00100000
00000000
00000000
00001000
00000000
00000000
00000000
00000000
00000000
00010000
00000000
00000000
00000000
00000000
00000000
00000100
00000000
00000000
00000000
00000000
00000000
00001000
00000000
00000000
00000010
00000000
00000000
00001000
00000000
00000000
00000000
00000001
00000000
00000000
00000000
00000010
00000000
00000000
00000000
00000100
00000000
00000000
00000000
00001000
00000000
00000000
00000000
00010000
00000000
00000000
00000000
00100000
00000000
00000000
00000000
01000000
00000000
00000000
00000000
10000000
00000000
00000000
00000000
,
00010000
00000000
00000000
00000000
00100000
00000000
00000000
00000000
00100000
00000000
00000000
00000000
00001000
00000000
00001000
00010000
,
00001000
00000100
00000001
00000100
00001000
00010000
00100000
10000000
,
00100000
00000000
01000000
00010000
00100000
00000000
01000000
10000000
00100000
00000000
01000000
00000000
00010000
00000000
00100000
00001000
,
00010000
01000000
10000000
01000000
00010000
00001000
00000010
00000001
,
00001000
00001010
00000010
00010020
00002030
00000000
00100000
00000000
,
00003010
00001000
00000100
00010000
00001000
00100000
00010000
10000000
,
01000000
00000000
00100000
00000000
00010000
00000000
01000000
00001000
01000000
00000000
00010000
00000000
00100000
00000000
00001000
00010000
,
00001000
00000000
00000000
00001010
00000000
00000000
00000011
00000000
00000001
00000000
00000100
00001000
00000100
00000000
00010000
00000000
,
02000000
00000000
00000000
00000000
,
03010000
00000000
00000000
00000000
00200000
00300000
00001000
00000000
00010000
00000000
00000000
00000000
00002000
00003000
00100000
00000000
,
00010000
00000000
01000000
00000000
00100000
00000000
10000000
00000000
00001000
00000000
00000000
00000000
00020000
00032000
00023000
00032000
,
00203000
00300000
00001000
00000000
00020000
00030000
00000100
00000000
00001000
00000000
00000000
00000000
00000200
00000300
00010000
00000000
,
00001000
00000000
00000010
00000000
00001000
00000000
00010000
00000000
00002000
02003000
03002000
02003000
03010000
00000000
00000000
00000000
,
10000000
01000000
10000000
02000000
03100000
00001000
00100000
00002000
,
00013000
00000000
00000100
00000000
00010000
00000000
00000200
00000000
00000310
00000000
00000001
00000000
00000200
00000300
00000001
00000000
,
00000010
00000100
00000010
00002000
00013000
00001000
02000000
03100000
,
00010000
00001000
00010000
00000100
00010000
00001000
01000000
00001000
,
00011000
00101000
00011000
00010100
,
00011000
01001000
00021000
00030020
,
00000130
00000001
00000010
00000001
00000100
00000010
00001000
00000100
,
00010000
00001000
00010000
00001000
01000000
00010000
01000000
00010000
10000000
01000000
00100000
00010000
02000000
00000000
00000000
00000000
,
03001000
00000000
00000000
00000000
00010000
00000000
00000010
00000100
00000010
00000000
00001000
00000100
00001000
00000000
01000000
00000000
00010000
00000000
00001000
00100000
00001000
00000000
01000000
00000000
00010000
00000000
00001000
00000010
00001000
00000000
00000001
00000000
,
00000010
00000000
00000010
00000000
00000100
00000000
00000100
00000000
00001000
00000010
00001000
00000010
00100000
00001000
00100000
00001000
00020000
00000000
00000000
00000000
00000000
00000000
00000000
00000000
00000000
00000000
00000000
00000000
00000000
00000000
00000000
00000000
,
00032000
00000000
00000000
00000000
00000000
00000000
00000000
00000000
00003010
00000000
00001000
00000000
00100000
00000000
01000000
10000000
,
01000000
00000000
00100000
00000000
00001000
00000000
01000000
00100000
01000000
00000000
00010000
00000000
00100000
00000000
00001000
00000000
,
00010000
00000000
00010000
00000000
00000100
00000000
00000100
00001000
00000010
00000000
00000100
00000000
00001000
00000000
00000100
00000010
,
00000100
00000000
00000001
00000000
00000001
00000000
00000010
00000100
00010000
00000000
00001000
00000000
00100000
00000000
00001000
00000000
,
01000000
00000000
10000000
00000000
01000000
00000000
00001000
00000000
00011000
00000000
00010000
00000000
01000000
00000000
10000000
00100000
,
10000000
00000000
01000000
00000000
00100000
00000000
00100000
00010000
01000000
00000000
00100000
00000000
00010000
00000000
00100000
00000000
,
01000000
00000000
00001000
00000000
00000100
00000000
00000010
00000000
00001000
00000000
00000001
00000000
00000001
00000000
00001000
00000100
,
00010000
00000000
00001000
00000000
00001000
00000000
01000000
00100000
10000000
00000000
01000000
00000000
00010000
00000000
00000100
00000000
,
00000000
00000000
01000100
00000000
00000000
00000000
00000000
00000000
01000000
00000000
00100000
00000000
00010000
00000000
00001000
00100000
,
00001000
00000000
00010000
00000000
00000100
00000000
00000010
00000001
00000010
00000000
00000100
00000000
00010000
00000000
00001000
00000000
,
02000000
03200000
02300000
03020000
10030000
00000000
00100000
00000000
01000000
00000000
00001000
00010000
00001000
00000000
00000010
00000000
,
00000001
00000000
00000100
00000001
00000020
00000030
00002000
00003000
00020000
00030000
00200000
00300000
10000000
00000000
01000000
00000000
,
10000000
00000000
00010000
00100000
00010000
00000000
01000000
00000000
00001000
00000000
00000010
00000100
00010000
00000000
00000010
00000000
,
00001000
00000000
00000001
00000100
00000001
00000000
00000010
00000000
00000100
00000000
00010000
00001000
00010000
00000000
00100000
00000000
,
10000000
00000000
00010000
00000000
10000000
01000000
00100000
00001000
10000000
00100000
01000000
00001000
00020000
00000000
00000000
00000000
,
00000000
00032000
00003000
00011000
,
00000000
00000000
00000000
00000000
00000000
00000000
00000000
00000000
00000000
00000000
00000000
00000000
00010000
00000100
00010000
00000100
,
01000000
00001000
01000000
00001000
00100000
00001000
00010000
00000010
00000100
00001000
00010000
02000000
03000000
00000000
00000000
00000000
;
