#TITLE:On My Wings;
#SUBTITLE:(HardstyleIIDX);
#ARTIST:kors k;
#TITLETRANSLIT:;
#SUBTITLETRANSLIT:;
#ARTISTTRANSLIT:;
#GENRE:HARDSTYLE;
#CREDIT:;
#MUSIC:On My Wings.ogg;
#BANNER:bn.png;
#BACKGROUND:bg.png;
#CDTITLE:cd-title.png;
#SAMPLESTART:90.668;
#SAMPLELENGTH:16.000;
#SELECTABLE:YES;
#OFFSET:0.532;
#BPMS:0.000=150.000
,3.000=75.000
,3.250=150.000
,3.500=300.000
,4.000=150.000
,35.000=75.000
,35.250=150.000
,35.500=300.000
,36.000=150.000
,132.000=75.000
,132.250=150.000
,132.500=300.000
,133.000=150.000
,163.000=75.000
,163.250=150.000
,163.500=300.000
,164.000=150.000
,195.000=75.000
,195.250=150.000
,195.500=300.000
,196.000=150.000
,227.000=75.000
,227.250=150.000
,227.500=300.000
,228.000=150.000
,283.000=75.000
,283.250=150.000
,283.500=300.000
,284.000=150.000
;
#STOPS:;
#DISPLAYBPM:150.000;
#BGCHANGES:;
#FGCHANGES:;

//--------------- dance-single - Frondal ----------------
#NOTES:
     dance-single:
     Frondal:
     Beginner:
     5:
     0,0,0,0,0:
0000
0000
0000
0000
,
1001
0000
0000
0000
,
0000
0000
0000
0000
,
0000
0000
0000
0000
,
0000
0000
0000
0000
,
0002
0000
0000
0000
,
0000
0000
0000
0000
,
0023
0000
0000
0000
,
0230
0000
0000
0000
,
1300
0000
1000
0000
,
0001
0000
0001
0000
,
0100
0000
0100
0000
,
0010
0000
0010
0000
,
1010
0000
1100
0000
,
0011
0000
0101
0000
,
0100
0010
1000
0001
,
0020
0000
0000
0000
,
0031
0001
0001
0000
,
1000
0010
1000
0000
,
1000
1000
1000
0000
,
0001
0020
1000
0000
,
0031
0001
0001
0000
,
1000
0100
0100
0000
,
1000
1000
1000
0001
,
0110
0000
0000
0000
,
0001
0010
0100
0000
,
0100
1000
0010
0000
,
1000
0010
0100
0000
,
0100
0001
0020
0000
,
1030
0010
0001
0000
,
1000
0010
0100
0000
,
1000
0100
0001
0000
,
2001
0000
3002
0000
,
0003
1000
0100
0010
,
0000
0010
0001
0100
,
0000
0001
0100
0010
,
0000
0010
1000
0100
,
0110
0000
0000
0000
,
0011
0000
0000
0000
,
2010
3002
0023
0230
,
1300
0000
0000
0000
,
0002
0000
0000
0000
,
0000
0000
0000
0000
,
0203
0000
0000
0000
,
0320
0000
0000
0000
,
2030
0000
0000
0000
,
0000
0000
0000
0000
,
3200
0000
0000
0000
,
0320
0000
0000
0000
,
0031
0000
0001
0000
,
1000
0000
1000
0000
,
0010
0000
0010
0000
,
0100
0000
0100
0000
,
0002
0000
0000
0023
0000
0000
0230
0000
,
0000
2300
0000
0000
3020
0000
0000
0230
,
0000
0000
0000
0301
,
1001
0000
0000
0000
,
1000
0100
0001
0000
,
0001
0100
1000
0000
,
0001
0100
1000
0000
,
1000
0100
0010
1000
,
0001
0010
1000
0000
,
1000
0010
0001
0000
,
1001
0000
0000
0000
,
0200
0010
0310
0000
,
1001
0000
0000
0000
,
0002
0023
2030
3200
,
0301
0100
0010
0010
,
1000
0100
0001
1000
,
0012
0000
0000
0000
,
0000
0000
0000
0000
,
1003
1000
0010
0220
,
0330
1000
0100
0001
,
0110
0000
0000
0000
;

//--------------- dance-single - Frondal ----------------
#NOTES:
     dance-single:
     Frondal:
     Easy:
     10:
     0,0,0,0,0:
0000
0000
0000
0000
,
2001
0000
0000
0000
0000
0000
0000
3002
,
0000
0000
0000
0000
,
0023
0000
0000
0000
0000
0000
0000
0230
,
0000
0000
0000
0000
,
2300
0000
0000
0000
0000
0000
0000
3020
,
0000
0000
0000
0000
,
0230
0000
0000
0000
0000
0000
0000
0302
,
0000
0000
0000
0003
,
1001
0000
0000
1000
0100
0010
0000
0000
,
0000
0000
0000
0010
0001
0100
0000
0000
,
0000
0000
0000
0001
0100
0010
0000
0000
,
0000
0000
0000
0010
1000
0100
1000
0010
,
0110
0000
0101
0000
,
0011
0000
0110
0000
,
1200
2300
3020
0230
,
0302
0000
0000
0000
0000
0000
0013
0100
0010
0100
0000
0000
,
1000
0000
0010
0000
1000
0000
0000
0100
0000
0001
0000
0000
0002
0000
0000
0000
,
1003
0010
0001
0000
1000
0000
1000
0000
,
0001
0000
0100
0000
0001
0000
0000
0010
0000
1000
0000
0000
2000
0000
0000
0000
,
3001
0100
1000
0010
0200
0000
0000
0000
,
0301
0000
0010
0000
0001
0000
0000
0100
0000
1000
0000
0000
2000
0000
0000
0000
,
3001
0010
1000
0000
0001
0000
0001
0000
,
1000
0000
0100
0000
1000
0000
0000
0010
0000
0001
0000
0000
0002
0000
0000
0000
,
1003
0100
0000
0001
0100
0001
0010
0000
,
0011
1001
1200
0310
,
0001
0100
0001
1000
0100
0001
0000
0100
,
1100
1001
0201
0310
,
1000
0100
1000
0001
0200
0000
0300
0100
,
0101
1001
1020
0130
,
0001
0010
0001
1000
0010
0001
0000
0010
,
1010
1001
0021
0130
,
0002
0000
0000
0000
0103
0000
2000
0000
0000
0000
0010
0000
0000
3000
0010
0000
,
0000
0000
2000
3000
0100
0002
0003
0100
,
2000
3010
0002
0003
1000
0100
0001
0000
,
2000
3100
0002
0003
0100
2000
3000
0010
,
1000
0000
0001
0000
0020
0000
0130
0000
1000
0000
0000
1000
0000
0000
0001
0000
,
0101
0101
0000
0000
0000
0000
0000
1100
,
1100
0000
0000
0000
0000
0000
0000
0001
,
2001
3002
0023
0000
,
0130
0000
0000
0000
,
2000
0000
0000
0000
,
0000
0000
0000
0000
,
3020
0000
0000
0000
,
0230
0000
0000
0000
,
0302
0000
0000
0000
,
0000
0000
0000
0000
,
0023
0000
0000
0000
,
0230
0000
0000
0300
,
1100
1000
0100
1000
,
0001
0010
0001
1000
,
0001
0100
0001
0100
,
0010
1000
0010
1000
,
0001
0000
0000
0001
0000
0000
0010
0000
0000
0010
0000
0000
0100
0000
0000
0100
,
0000
0000
1000
0000
0000
1000
0000
0000
0010
0000
0000
0010
0000
0000
0100
0000
,
0001
0010
0001
0100
0010
1000
0100
0020
,
0001
0000
0000
0030
,
0011
0001
0101
0001
,
0011
0001
0201
0310
,
1010
1000
1100
1000
,
1010
0010
0001
0200
,
1300
0000
1000
0010
0000
0000
0000
0000
0110
0000
0000
0000
0100
0000
0000
0000
,
0001
0000
0001
0010
0000
0000
0000
0000
0110
0000
0000
0000
0100
0000
0000
0000
,
1100
0000
0000
1010
0000
0101
0000
0002
,
0000
0013
0200
0000
2300
0000
0010
0000
,
3001
0000
0000
0000
,
0000
0000
0000
0000
0000
0000
1000
1000
,
0001
0010
0001
0100
0010
0000
0010
2000
,
0000
3002
0000
0013
0100
0000
1000
0001
,
0011
0010
0100
1000
0001
0010
0001
0100
,
0000
0010
1000
0001
0200
0000
2300
0000
,
3100
0002
0013
0100
1000
0010
0100
0110
,
0000
0001
0010
1000
0020
0000
0032
0000
,
0103
0000
0000
0000
;

//--------------- dance-single - Frondal ----------------
#NOTES:
     dance-single:
     Frondal:
     Medium:
     13:
     0,0,0,0,0:
0000
0000
0000
0000
,
1001
0000
0000
0001
0001
0010
0000
0000
,
0000
0000
0000
0001
0100
0001
0000
0000
,
0000
0000
0000
1000
1000
0010
0000
0000
,
0000
0000
0000
1000
0100
1000
0010
1000
,
0000
0000
0000
0001
0001
0100
0000
0000
,
0000
0000
0000
0001
0010
0001
0000
0000
,
0000
0000
0000
1000
1000
0100
0000
0000
,
0000
0000
0000
1000
0010
1000
0100
0000
,
0110
0000
0010
0001
1000
0001
0000
0000
,
0000
0000
0001
0100
0001
1000
0000
0000
,
0000
0000
1000
0100
0010
0001
0000
0000
,
0000
0000
0001
0100
0010
1000
0100
0010
,
0110
0000
1100
0000
,
0011
0000
0101
0000
,
2010
3002
0023
0230
,
1300
0001
1000
0010
0100
0010
1000
0000
1000
0200
0000
0000
,
0310
0000
0010
0000
0100
0000
0000
1000
0000
0100
0000
0000
0002
0000
0000
0000
,
0103
1000
0010
1000
0100
0010
0001
1000
,
0100
0000
0100
0000
0010
0000
0000
0001
0000
0010
0000
0000
2000
0000
0000
0000
,
3020
0000
0130
1000
0010
0001
1000
0100
,
0001
0000
0001
0000
0010
0000
0000
0001
0000
0100
0000
0000
2000
0000
0000
0000
,
3100
0001
0010
0001
0100
0010
1000
0001
,
1000
0000
1000
0000
0100
0000
0000
1000
0000
0010
0000
0000
0110
0000
0000
0100
,
0002
0003
0000
0001
0010
0100
1000
0000
,
0001
0000
0010
0000
0100
0000
0010
0001
0000
1000
0000
0000
0020
0000
0000
0000
,
0130
1000
0100
0001
1000
1010
0000
0010
,
1000
0000
0100
0000
0010
0000
0100
1000
0000
0001
0000
0000
0200
0000
0000
0000
,
0320
0000
0000
0000
0130
0000
0001
0000
1000
0010
1000
0000
0100
0000
0010
0000
,
0001
0000
0100
0000
0010
0000
0100
0001
0000
1000
0000
0000
0200
0000
0000
0000
,
0310
1000
0010
0001
1000
1100
0000
0100
,
1000
0000
0010
0000
0100
0000
0010
1000
0000
0001
0000
0000
1000
0000
0010
0000
,
0001
0000
0000
0000
1000
0000
0100
0000
0000
0000
0001
1000
0000
0001
1000
0000
,
0000
0000
0000
0000
0001
0000
1000
0100
1000
0000
0001
0000
0100
0000
0100
0000
,
0001
0010
0001
0000
1000
0000
0001
0100
0001
0000
0010
0000
0010
0000
0001
0000
,
1000
0100
1000
0000
0001
0000
1000
0010
1000
0000
0100
0000
0100
0000
1000
0000
,
0001
0010
0001
0000
1000
0000
0001
0100
0001
0000
0000
0011
0000
0000
1100
0000
,
1000
0010
0000
0002
0000
1003
0100
0001
,
1001
0000
0000
2000
3200
0320
0032
1003
,
1001
0000
0000
0000
0002
0000
0000
0000
0203
0000
0000
0320
0000
0000
2030
0000
,
3100
0000
0000
0000
,
0200
0000
0000
0000
0000
0000
0000
0320
,
0000
0000
0000
0000
,
0032
0000
0000
0000
0000
0000
0000
0203
,
0000
0000
0000
0000
,
0320
0000
0000
0000
0000
0000
0000
2030
,
0000
0000
0000
0000
,
3200
0000
0000
0000
0000
0000
0000
0320
,
0000
0000
1000
0031
,
1001
1000
0010
1000
,
0001
0000
0100
0000
0001
0000
0010
0010
,
0100
1000
0010
1000
,
0100
0000
0010
0000
0001
0000
0100
0100
,
0101
0000
0000
0001
0000
0000
0010
0000
0000
1000
0000
0000
0010
0000
0000
0001
,
0000
0000
0100
0000
0000
1000
0000
0000
0100
0000
0000
0001
0000
0000
0010
0000
,
0100
0000
0100
0000
1000
0000
1000
0000
0001
0000
0010
0000
0001
0100
0001
1000
,
0010
0000
0000
0000
,
1000
0000
0000
0100
0000
0100
0010
0000
0001
0000
0000
0010
0000
0010
0100
0000
,
1000
0000
0000
0010
0000
0010
0100
0000
0001
0000
0010
0100
0000
0000
0100
0000
,
1000
0000
0000
0010
0000
0010
0100
0000
0001
0000
0000
0100
0000
0100
0010
0000
,
1000
0000
0000
0100
0000
0100
0010
0000
0001
0000
0100
0000
0110
0000
0010
0000
,
1000
0001
1000
0100
0000
0100
0000
0000
1000
0000
0000
0010
0000
0010
0100
0000
,
0001
0010
0001
1000
0000
1000
0000
0000
0001
0000
0000
0100
0000
0100
0010
0000
,
1010
0000
0000
1100
0000
0011
0000
0101
,
0000
1010
2000
0000
3002
0000
0010
0000
,
1003
0100
1000
0010
1000
0100
0010
0002
,
0000
0103
0010
0100
0001
0000
1001
0000
,
1000
0100
0001
0100
1100
0000
1000
0020
,
0130
0000
0001
0010
0001
0000
0001
0000
0101
0000
0000
0000
0100
0000
0010
1000
,
0100
1000
1000
0010
0100
0010
0001
0020
,
0000
0130
0001
0001
0020
1000
0031
0000
,
1000
0000
1001
0000
0001
1000
0001
1000
0100
0000
0001
0000
0100
0000
1000
0000
,
0000
0020
0230
0320
0031
0000
1000
0000
,
1001
0000
0000
0000
;

//--------------- dance-single - Frondal ----------------
#NOTES:
     dance-single:
     Frondal:
     Hard:
     16:
     0,0,0,0,0:
0000
0000
0000
0000
,
1002
0000
0000
0000
0000
0000
0000
0023
,
0000
0000
0000
0000
,
0230
0000
0000
0000
0000
0000
0000
2300
,
0000
0000
0000
0000
,
3002
0000
0000
0100
0000
0103
0000
0020
,
0000
0000
0000
1000
1030
0001
0000
0000
,
2000
0000
0000
0100
0000
3100
0000
0020
,
0000
0000
0000
0001
0031
0100
0010
0000
,
0110
0100
0001
0010
,
0001
0100
0010
1000
,
0001
0010
0100
1000
,
0010
1000
0100
0010
,
0011
0001
0100
0000
0101
0001
1000
0000
,
1100
1000
0010
0000
1010
1000
0001
0000
,
0010
0100
0010
0100
1000
0010
1000
0010
0100
0001
0100
0001
0010
0100
0010
0100
,
2000
0000
0000
3010
0001
0010
0100
0001
1000
0100
0000
0000
,
1100
0000
1000
0000
0010
0000
0000
0100
0001
0100
0000
0000
2000
0000
0000
0000
,
3100
0000
0010
1000
0010
0000
0010
0200
0001
0000
0310
0000
1000
0000
0001
0000
,
0011
0000
0001
0000
0100
0000
0000
0010
1000
0010
0000
0000
0002
0000
0000
0000
,
0013
0100
1000
0100
0101
0001
1000
0010
,
1010
0000
1000
0000
0100
0000
0000
0010
0001
0010
0000
0000
2000
0000
0000
0000
,
3010
0000
0100
1000
0100
0000
0100
0020
0001
0000
0130
0000
1000
0000
0001
0000
,
0101
0000
0001
0000
0010
0000
0000
0100
1000
0100
0001
0000
0100
0000
1000
0001
,
1000
0000
0000
0000
0000
0000
0000
0000
0000
0000
0200
0010
0000
0000
0310
0000
,
0011
0000
0001
0000
0100
0000
0010
1000
0000
0010
0100
0000
2000
0000
0000
0000
,
3100
0000
0001
0010
0100
0000
0100
1000
0010
0000
0001
0000
0010
0000
1000
0000
,
1010
0000
0010
0000
0100
0000
0001
1000
0000
0100
0010
0000
2000
0000
0000
0000
,
3010
0000
0001
0000
1000
0000
1000
0000
0001
0010
0001
0000
1001
0000
0000
0000
,
1100
0000
1000
0000
0010
0000
0100
0001
0000
1000
0100
0000
0002
0000
0000
0000
,
0103
0000
1000
0001
0010
0000
0010
0001
0100
0000
1000
0000
0100
0000
0001
0000
,
0011
0000
0010
0000
0001
0000
1000
0100
0000
1000
0020
0000
0001
0000
0130
0000
,
0101
0000
0000
0000
0010
0000
1010
0000
0000
0000
1000
0010
0000
1000
0100
1000
,
0000
0000
0000
0000
1001
0000
0001
0100
0010
0100
0010
0000
1000
0100
1000
0001
,
0010
0100
0010
0001
1000
0000
0001
0100
0010
0100
2000
0000
3200
0000
0320
0000
,
1030
0100
1000
0001
0100
0000
0001
0010
0100
0010
0100
0000
1000
0010
1000
0001
,
0100
0010
0100
0001
1000
0000
0100
1000
0001
0000
0100
1000
0000
0100
0010
0000
,
1010
0101
0000
0002
0000
2003
3001
0011
,
1100
0000
0000
2000
3200
0302
0203
1300
,
1001
0000
0000
0000
0001
0000
0000
0000
0100
0000
0000
1000
0000
0000
0010
0000
,
0002
0000
0000
0003
,
0011
0010
0001
0100
0001
0010
0100
0002
,
0000
0003
0100
0000
0010
0000
0001
0000
0200
0000
0000
0000
0320
0000
0000
0000
,
0030
1000
1000
0100
0010
1000
0010
0200
,
0000
1300
0010
0200
1000
0000
0310
0000
,
0000
0100
0001
0010
0100
0001
0100
0020
,
0000
0031
0100
0020
0001
0000
0130
0000
,
0000
0010
0010
0100
1000
0100
0010
2000
,
0000
3100
0010
1000
0020
0000
0130
0000
,
0110
0000
0000
0000
0010
0000
0000
0000
0001
0000
0000
1000
0010
0000
1000
0001
,
0010
0000
0000
0000
0100
0000
0000
0000
0010
0000
0001
0100
0001
1000
0100
1000
,
0010
0000
0000
0000
0100
0000
0000
0000
0010
0000
0000
1000
0001
0000
1000
0000
,
0100
0000
0000
0000
0010
0000
0000
0000
0001
0000
1000
0010
1000
0001
0010
0000
,
0110
0000
0100
1000
0000
0100
0010
0000
0001
0100
0000
0001
0010
0000
0100
1000
,
0000
0010
0100
0000
1000
0100
0000
0010
1000
0000
0100
0001
0000
0100
0010
0000
,
0001
0010
0001
0010
0100
1000
0100
1000
0001
0100
0010
1000
0100
0001
0100
1000
,
0020
0100
0000
0100
0000
0130
0000
0000
,
0101
0000
0000
0001
0010
0001
1000
0000
1010
0000
0000
1000
0100
1000
0001
0000
,
0011
0000
0000
0001
0100
0001
1000
0000
1010
0000
0010
0100
0000
0010
1000
0000
,
1100
0000
0000
1000
0010
1000
0001
0000
0011
0000
0000
0001
0100
0001
1000
0000
,
1010
0000
0000
1000
0100
1000
0001
0000
0011
0000
0010
0100
1000
0000
0001
0000
,
0100
1000
0100
0010
0000
0100
0010
0000
1010
0000
1000
0010
0000
1000
0100
0000
,
0010
0100
0001
0100
0000
0010
0001
0000
0011
0000
0010
0100
0000
0010
0001
0000
,
1001
0000
0000
1010
0000
0101
0000
2002
,
0003
0010
3002
0000
0023
0000
1000
0000
,
0031
0000
0000
0000
0000
2000
0000
3002
,
0000
0000
1003
0000
0100
0010
0100
0000
2000
0000
0000
0000
3001
0000
0001
0000
,
0101
0100
1000
0100
0210
0301
0010
0020
,
0031
0000
0000
0000
0000
0000
0001
0000
0010
0000
0001
0000
1000
0000
0000
0000
0000
0000
1010
0000
0000
0000
0000
0000
1100
0000
0000
0000
0000
0000
0000
0000
0000
0000
0000
0000
0011
0000
0000
0000
0000
0000
0001
0000
0000
0100
0000
0000
,
1000
0100
0100
0010
1000
0100
0010
2000
,
0000
3010
0001
0001
0100
0010
0110
0000
,
1001
0000
0000
0000
0000
0000
1000
0000
0100
0000
1000
0000
0001
0000
0000
0010
0000
0000
1000
0000
0000
0010
0000
0000
0001
0000
0000
0000
0000
0000
0101
0000
0000
0000
0000
0000
0110
0000
0000
0000
0000
0000
1010
0000
0000
0000
0000
0000
,
0000
2000
3002
2003
3100
0001
1000
0010
,
0011
0000
0000
0000
;
