#TITLE:踊;
#SUBTITLE:;
#ARTIST:Ado;
#TITLETRANSLIT:Odo;
#SUBTITLETRANSLIT:;
#ARTISTTRANSLIT:;
#GENRE:;
#CREDIT:;
#MUSIC:Odo.ogg;
#BANNER:BR2024-bn.png;
#BACKGROUND:BR2024-bg.png;
#CDTITLE:;
#SAMPLESTART:73.125;
#SAMPLELENGTH:15.000;
#SELECTABLE:YES;
#OFFSET:0.000;
#BPMS:0.000=128.000;
#STOPS:;
#JACKET:Odo-jacket.png;
#BGCHANGES:;
#FGCHANGES:;

//--------------- dance-single - Maractus (X-Scale) (DS) ----------------
#NOTES:
     dance-single:
     Maractus (X-Scale) (DS):
     Hard:
     12:
     0,0,0,0,0:
0000
0000
0000
0000
,
0000
0000
0000
0000
,
0000
0000
0000
0000
,
0000
0000
0000
0000
,
0000
0000
0000
0000
,
1100
0000
1000
0001
1001
0000
0001
0100
,
0101
0000
0001
1000
1001
0000
0001
0010
,
0200
2300
3002
0203
,
0310
1000
0010
0100
0001
0010
0100
1000
,
0002
0003
2000
3000
0002
0003
2000
3000
,
0001
0000
1000
0000
0400
0000
0000
0000
1300
0000
0001
0100
0001
0000
1000
0000
,
0001
0010
0100
1000
0001
2000
0000
3010
,
0100
0001
1000
0100
0010
0002
0000
1003
,
0001
0100
0001
0100
0010
2000
0000
3001
,
1000
0100
1000
0100
0010
0002
0000
1003
,
0001
0100
0010
1000
0001
2000
0000
3100
,
0010
0001
1000
0010
0100
0002
0000
1003
,
0000
0002
0100
1003
0000
2000
0100
3001
,
0000
4000
0000
3000
0001
0001
0100
0020
,
1030
0000
0001
0020
0000
0000
0031
0000
1000
0000
0000
0000
0001
0000
0001
0000
,
1000
0000
0001
0200
0000
0000
0301
0000
1000
0000
0000
0000
0001
0000
0001
0000
,
0100
0000
0010
2000
0000
0000
3001
0000
0010
0000
0100
2000
0000
0000
3001
0000
,
1000
0100
1000
0001
1000
0100
0010
0001
,
2000
0010
3001
1000
0002
0010
1003
0001
,
2000
0100
3001
1000
0002
0100
2003
0000
,
3001
0000
0000
0000
1000
0000
0001
0000
0100
0000
0000
0001
1000
0000
0010
0000
,
1000
0100
0020
0000
0031
0100
0010
1000
,
0002
0000
0200
0000
0000
0303
0000
0001
,
0100
0001
0100
0010
1000
0100
0010
0001
,
2000
0200
0000
3300
,
1000
0100
0010
0001
1000
0002
0000
1003
,
1010
0000
1000
0001
1001
0000
0001
0010
,
0011
0000
0001
1000
1001
0000
1000
0010
,
0200
0302
2003
3200
,
0310
0001
0010
0100
1000
0010
0100
0001
,
2000
3000
0002
0003
2000
3000
0002
0003
,
0200
0300
0020
0030
0200
0300
0020
0030
,
1000
0100
0010
0001
0100
0010
1000
0100
,
0010
0000
0001
0000
1000
0000
0010
0000
0000
0100
0000
0000
0001
0000
0000
1000
0000
0000
0100
0000
0000
0010
0000
0000
,
0001
0000
1000
0100
1000
0000
0001
0100
0002
0000
1000
0000
0000
0000
0010
0000
,
0003
0000
1000
0010
1000
0000
0001
0010
0002
0000
0000
0000
0100
0000
0000
0000
,
1003
0100
0010
0002
0003
0000
1000
0010
0100
0002
0003
0000
,
1000
0010
0100
0010
1000
0001
0010
0100
,
1000
0000
0001
0100
0001
0000
1000
0100
2000
0000
0001
0000
0000
0000
0010
0000
,
3000
0000
0001
0010
0001
0000
1000
0010
2000
0000
0000
0000
0100
0000
0000
0000
,
3001
0100
0010
2000
3000
0000
0001
0010
0100
2000
3000
0000
,
0001
0010
0100
0010
0001
2000
0010
3001
,
1001
0000
0002
0100
1003
0100
0020
0001
,
0130
1000
0002
0010
1003
0010
0200
0000
,
0304
0000
4003
0000
3010
0100
0001
0001
,
0040
0000
0000
0000
0130
0000
4000
0000
3001
0000
1000
0000
0010
0000
0100
0001
,
2000
0000
3000
0000
0002
0000
0010
0000
1003
0000
0020
0000
0130
0002
0000
1003
,
0200
0000
1300
0000
0002
0000
0100
0000
1003
0000
0200
0000
0310
0002
0000
1003
,
0040
0000
0430
0000
0301
0010
0100
0100
,
4000
0000
3001
4000
3010
0100
0001
0001
,
0002
0000
0003
0000
;

//--------------- dance-single - Maractus (X-Scale) (DS+ BU FS HS) ----------------
#NOTES:
     dance-single:
     Maractus (X-Scale) (DS+ BU FS HS):
     Challenge:
     15:
     0,0,0,0,0:
0000
0000
0000
0000
,
0000
0000
0000
0000
,
0000
0000
0000
0000
,
0000
0000
0000
0000
,
0000
0000
0000
0000
0000
0000
0000
0001
,
1100
0001
0010
0100
1100
1000
0001
1000
,
0101
1000
0001
0100
0101
0000
0001
0010
,
2000
3002
0203
2300
,
3001
0001
0100
0100
0010
0010
1000
1000
,
0002
0003
0002
0003
0002
0003
0002
0003
,
1000
0000
0000
0100
0000
0000
0400
0000
0000
0000
0000
0000
0310
0000
0000
0001
1000
0001
0100
0000
0000
0010
0000
0000
,
1000
0000
0001
1000
0100
0000
1000
0001
0100
0000
0002
0000
0010
0000
1003
0000
,
0001
0000
1000
0100
0010
0000
0001
0000
1000
0000
0010
0100
0000
0100
0010
0000
,
2000
0100
3002
0100
1003
0002
0100
1003
,
0002
0000
0010
0000
2003
0000
0010
0000
3001
0010
0100
1000
0001
0000
1000
0000
,
0001
0000
0100
0010
1000
0000
0100
0010
0001
0000
2000
0000
0010
0000
3001
0000
,
1000
0000
0001
0100
0010
0000
1000
0000
0001
0000
0010
0100
0000
0100
0010
0000
,
0001
2000
0100
3001
1000
0002
0100
1003
,
0001
0000
4000
0000
0000
0000
3010
0000
1000
0100
1000
0100
0020
0000
0032
0000
,
1003
0000
0002
0010
0000
1003
0010
0000
0100
0000
0000
0001
0100
0001
0100
0010
,
1000
0000
0002
0010
0000
1003
0010
0000
0100
0000
0000
0001
0010
0001
0010
0000
,
0100
0000
2000
0100
0000
3001
0100
0000
0010
0000
2000
0100
0000
3001
0010
0000
,
0001
0000
0100
0001
1000
0000
0010
0000
1000
0000
0001
1000
0100
0000
0010
0000
,
0001
0000
0001
0000
1000
0010
0100
0010
1000
0000
1000
0000
0001
0100
0010
0100
,
0001
0001
1000
0001
0010
0100
2000
0010
,
3100
0000
0000
0000
1000
0000
0001
0000
0100
0000
0000
0010
1000
0000
0001
0000
,
1000
0000
0000
0000
0001
0000
1000
0000
0000
0000
0000
0000
0002
0000
0000
0000
0000
0000
0100
0000
0000
0000
0000
0000
0013
0000
0000
0000
0000
0000
0001
0000
0000
0010
0000
0000
0100
0000
0000
0000
0000
0000
1000
0000
0000
0000
0000
0000
,
2001
0000
0200
0000
0000
3300
0000
1000
,
0100
1000
0100
0010
0001
0100
0010
1000
,
1002
0200
0000
0303
,
0001
0100
0010
1000
0001
2000
0000
3001
,
1010
0001
0100
0010
1010
1000
0001
1000
,
0011
1000
0001
0010
0011
0000
0001
0100
,
2000
3002
0023
2030
,
3001
0001
0010
0010
0100
0100
1000
1000
,
0002
0003
0002
0003
0002
0003
0002
0003
,
2000
3000
2000
3000
2000
3000
2000
3000
,
1000
1000
0010
0010
0100
0100
0001
0001
,
1000
0000
0100
0000
0010
0000
0001
0000
0000
1000
0001
1000
0040
0000
0000
0000
0000
0000
0130
0000
0000
0001
0000
0000
,
1001
0000
1000
0001
0100
0000
0001
1000
0200
0000
1000
0001
0000
0000
0001
1000
,
0300
0000
0010
0001
0100
0000
0010
1000
0200
0000
0010
0001
0000
0000
0010
1300
,
0001
0000
0100
00M0
0200
0000
1000
0000
0000
0000
0310
0000
0001
0000
0010
0M00
0020
0000
1000
0000
0000
0130
0000
0000
,
1000
0010
1000
0000
0001
0000
1000
0100
1000
0000
0010
0100
0001
0000
1000
0000
,
1001
0000
0001
1000
0100
0000
1000
0001
0200
0000
0001
1000
0000
0000
1000
0001
,
0300
0000
0010
1000
0100
0000
0010
0001
0200
0000
0010
1000
0000
0000
0010
0301
,
1000
0000
0100
00M0
0200
0000
0001
0000
0000
0000
0310
0000
1000
0000
0010
0M00
0020
0000
0001
0000
0000
0130
0000
0000
,
0001
0000
0000
0010
0000
0000
0001
0000
0000
0010
0000
0000
0100
0000
0000
0000
0000
0000
0100
0000
0000
0000
0000
0000
1000
0000
0000
0000
0000
0000
0010
0000
0100
0000
0001
0000
1000
0000
0000
0000
0000
0000
1000
0000
0000
0000
0000
0000
,
1001
0000
0000
0000
1000
0010
0000
0010
0100
0002
1000
0000
0013
0001
1000
0000
,
0001
0010
0000
0010
0100
2000
0001
0000
3010
1000
0001
0000
1000
0000
0100
0000
,
4000
0100
0000
3001
4000
0100
0000
3001
0010
0100
1000
0000
0010
0M00
0010
0000
,
0004
0100
0000
1003
0100
0010
0004
0100
0000
1003
0001
0100
0001
1000
0100
0010
,
0002
0000
0000
1003
0001
0100
0000
0100
0010
2000
0001
0000
3100
1000
0000
1000
,
0001
0100
0000
0100
0010
2000
0001
0000
3100
1000
0001
0000
0001
1000
0000
1000
,
0004
0100
0000
1003
0004
0100
0000
1003
0010
0100
0001
0000
0010
0M00
0010
0000
,
4000
0100
0000
3001
0100
0010
4000
0100
0000
3001
1000
0100
1000
0000
1000
0000
,
2000
0000
3000
0000
;
