#TITLE:Northern Wind;
#SUBTITLE:;
#ARTIST:Nhato;
#TITLETRANSLIT:;
#SUBTITLETRANSLIT:;
#ARTISTTRANSLIT:;
#GENRE:SPEEDTRANCE;
#CREDIT:;
#MUSIC:Northern Wind.ogg;
#BANNER:bn.png;
#BACKGROUND:bg.png;
#CDTITLE:cd-title.png;
#SAMPLESTART:40.088;
#SAMPLELENGTH:19.200;
#SELECTABLE:YES;
#OFFSET:-0.088;
#BPMS:0.000=150.000
,148.000=75.000
,154.000=150.000
,286.000=75.000
;
#STOPS:;
#DISPLAYBPM:75.000:150.000;
#BGCHANGES:;
#FGCHANGES:;

//--------------- dance-single - Frondal ----------------
#NOTES:
     dance-single:
     Frondal:
     Easy:
     7:
     0,0,0,0,0:
0000
0000
0000
0000
,
2000
0000
0000
0000
,
0000
0000
3020
0000
,
0230
0000
0000
0000
,
0000
0000
0302
0000
,
0023
0000
0230
0000
,
2300
0000
3020
0000
,
0230
0000
0000
0000
,
0000
0000
0000
0000
,
0301
1000
0001
0000
,
0010
0100
0010
0100
,
1000
0001
1000
0000
,
0010
0100
0010
0100
,
0001
0001
0010
0010
,
0100
0100
1000
1000
,
0020
0000
0000
0000
,
0230
0000
0000
1000
,
0301
0010
0001
0100
,
0010
1000
0100
0000
,
1000
0010
1000
0100
,
0010
0001
0100
0100
,
0001
0010
0001
0100
,
0010
1000
0100
0000
,
1000
0010
0001
0010
,
2000
0000
3000
0000
,
0001
0010
0010
0100
,
1000
0000
0100
0001
0100
0000
1000
0000
,
1000
0010
0010
0100
,
0001
0000
0010
1000
0010
0000
0001
1000
,
0001
0100
0100
0010
,
1000
0000
0010
0001
0010
0000
1000
0000
,
1000
0100
0100
0010
,
0001
0000
0100
1000
0200
0000
0000
0000
,
0302
0000
0000
0000
,
0023
0000
0000
0000
,
0230
0000
0000
0000
,
2300
0000
0000
0000
,
3010
0100
0001
1000
,
0100
0000
0020
0000
,
0032
0000
0000
0000
1003
0000
1000
0100
,
0000
1000
0010
0000
0100
0000
0001
0010
,
0000
0001
0100
0000
0010
0000
1000
0100
,
0000
1000
0001
0000
0100
0100
0001
0010
,
0000
0001
1000
0001
0020
0000
0000
0000
,
0230
0000
2300
0000
,
3002
0000
0000
0000
0103
0000
0001
0010
,
0000
0001
0001
0000
1000
0000
0100
0010
,
0000
0100
1000
1000
0010
0000
0010
0000
,
0010
0010
0010
0010
,
0100
0000
0100
0001
0010
0000
0010
0000
,
0010
0010
0010
0010
,
0100
0000
0100
1000
0001
0000
0001
0000
,
1000
1000
0010
0010
,
0100
0000
0100
0000
0001
1000
0001
1000
,
0001
1000
0001
1000
0001
0001
1000
1000
,
0200
0000
0310
0001
,
0010
0000
0100
1000
0100
0000
0010
0000
,
0001
1000
0001
0100
,
0010
0000
1000
0001
1000
0000
0100
0000
,
0010
0010
0001
0100
,
1000
0100
0001
0100
,
1000
0100
0001
0011
,
1000
1100
0002
2003
,
3010
0100
0010
1000
,
0010
0000
0100
0001
0100
0000
0010
0000
,
1000
0001
1000
0100
,
0010
0000
0001
1000
0001
0000
0100
0000
,
0010
0001
0010
1000
0002
0000
0000
0000
,
0003
0010
0100
2000
0000
3010
0100
0002
,
0000
0013
1000
0020
0000
0000
0000
0000
,
0000
0000
0031
0100
,
1000
0000
0010
0000
0200
0300
0000
0000
;

//--------------- dance-single - Frondal ----------------
#NOTES:
     dance-single:
     Frondal:
     Medium:
     12:
     0,0,0,0,0:
0000
0000
0000
0000
,
0002
0000
0000
0000
0000
0023
0230
2300
,
0000
0000
0000
0000
0000
3020
0230
0302
,
0000
0000
0000
0000
0000
0000
0000
0000
0000
0000
0000
0000
0013
0100
0020
0000
,
0000
0000
0000
0000
0030
0002
0000
0000
,
2003
0000
0000
0000
0000
3020
0230
0320
,
2030
0000
3200
0000
0320
0000
0032
0000
0000
0000
0103
0000
0001
1000
0002
0000
,
0000
0000
0000
0000
,
0000
0000
0000
0000
0000
0003
0000
0000
,
0001
0010
0001
0100
,
0001
0010
0100
1000
,
0100
1000
0010
1000
,
0100
0010
0001
1000
,
0001
0000
1000
0010
0000
0000
0000
0000
1000
0000
0001
0010
0000
0000
0000
0000
,
0001
0000
1000
0100
0000
0000
0000
0000
1000
0000
0001
0100
0000
0000
0000
0000
,
0001
0000
0001
0000
1000
0000
1000
0000
0100
0010
0100
0010
0000
0001
1000
0001
,
2000
0000
0000
3010
,
1000
0100
0001
0000
0001
0100
0010
0001
,
0001
0100
0000
0000
0110
0000
0000
0000
1000
0000
0010
0000
0200
0000
0000
0000
,
0301
0010
1000
0000
1000
0010
0100
1000
,
1000
0010
0000
0000
0110
0000
0000
0000
0001
0000
0010
0000
0001
0000
0001
0000
,
1000
0010
0001
0000
0001
0010
1000
0001
,
0001
0010
0000
0000
0001
0000
0010
0100
0000
0000
0100
0000
2000
0000
0000
0000
,
3001
0100
1000
0000
1000
0100
0001
0010
,
0001
1000
0200
0000
0301
0000
0100
1000
,
0001
0100
0001
0010
0010
0001
0100
0000
,
0010
1000
1000
0200
0000
0310
0100
1000
,
0010
1000
0100
0100
1000
0010
0100
0000
,
1000
0100
0001
0010
0100
0000
1001
0000
,
1000
0100
1000
0010
0010
1000
0100
0000
,
0010
0001
0001
0200
0000
0310
0100
0001
,
0010
0001
0100
0100
0001
0010
0100
0000
,
0001
0000
0100
0000
1000
0000
0010
0000
0100
0000
0000
0100
0000
0000
0100
0000
,
0002
0000
0000
0000
,
0023
0000
0000
0000
,
0230
0000
0000
0000
,
2300
0000
0000
0000
,
3001
0000
0000
0000
0000
1000
0010
0001
0010
0000
1000
0100
0000
1000
0010
0100
,
0000
0000
0000
0000
,
0000
0000
1002
0000
,
0000
0000
0023
0000
,
0230
0000
2300
0000
,
0000
0000
3020
0000
,
0230
0000
0302
0000
,
0023
0000
0032
0000
,
0203
0000
0320
0000
,
0000
0000
0000
0000
,
1030
0000
0001
0001
,
0010
0001
0001
0100
,
0001
0001
1000
1000
,
0010
1000
1000
0100
,
1000
0010
1000
0100
,
0010
0001
1000
0010
,
0100
0001
1000
0001
,
1000
0001
0200
0000
,
1000
0000
0301
0000
1000
0100
0010
0100
,
1000
0010
0100
0001
0010
0001
0100
0010
,
1000
0100
0001
0001
0100
1000
0001
1000
,
0100
0010
0001
1000
0010
0100
0001
0010
,
0001
0200
0000
0000
1300
0100
0010
1000
,
0001
0010
0100
0001
1000
0010
0100
1000
,
0001
0100
0010
0002
0000
0013
0100
0001
,
0100
0010
1000
0000
0001
1000
0001
0000
,
0110
0000
0000
0110
0000
0000
0000
0000
1000
0000
0100
0000
0010
0000
0100
0000
,
1000
0010
0100
1000
0100
0010
1000
0100
,
0010
0001
0100
0000
0001
0010
0100
0010
,
0001
0100
0010
0001
0010
0100
0001
0010
,
0100
1000
0010
0010
1000
0100
0001
0100
,
1000
0010
0100
0001
1000
0100
0010
0001
,
0001
0000
0100
0000
0001
2000
0002
0000
0000
0000
0000
0000
0000
0000
0000
0000
,
0000
0000
0000
0000
0003
0000
0000
0000
3100
0000
0001
0000
0100
0000
0000
0100
,
1000
0010
0200
0000
1300
0000
0000
0000
;

//--------------- dance-single - Frondal ----------------
#NOTES:
     dance-single:
     Frondal:
     Hard:
     16:
     0,0,0,0,0:
0000
0000
0000
0000
,
2000
0000
0000
0000
,
0001
0000
0000
0100
0000
0000
0001
0000
3100
0000
0000
0000
1000
0000
1000
0000
,
0002
0000
0000
0000
,
1000
0000
0000
0010
0000
0000
1000
0000
0013
0000
0200
0000
0000
0000
0000
0000
,
2300
0000
0000
0000
3002
0100
0103
0001
,
0020
0000
0000
0230
0000
0000
0310
0000
0001
0000
0100
0000
0010
1000
0020
0000
,
0100
0000
0000
0000
,
0000
0000
0000
0000
0000
0030
0000
0000
,
1000
0000
0000
0001
0000
0000
0010
0000
0010
0000
0000
0001
0000
0000
0100
0000
,
0010
1000
0000
0000
1000
0000
0000
0100
0000
0000
0100
0000
0010
0000
0000
0000
,
0001
0000
0000
1000
0000
0000
0010
0000
0010
0000
0000
1000
0000
0000
0100
0000
,
0010
0001
0000
0000
0001
0000
0000
0100
0000
0000
0001
0000
0010
0000
0000
0000
,
0001
0100
0001
0100
0010
1000
0010
1000
,
0100
0010
0100
0010
0001
1000
0001
1000
,
0001
0010
0001
0010
0100
1000
0100
1000
0001
0100
0001
0100
0010
1000
0010
1000
,
0001
0100
0001
0010
0100
1000
0010
1000
0001
0010
0001
0100
0020
0000
0000
0000
,
1030
0000
0001
0100
0000
0010
1000
0000
0001
0000
0010
0100
0000
1000
0010
0000
,
2000
0100
0000
3001
0010
0000
0020
0001
0000
0130
1000
0000
1001
0000
0000
0000
,
0001
0000
1000
0100
0000
0010
0001
0000
1000
0000
0010
0100
0000
0001
0010
0000
,
0002
0100
0000
1003
0010
0000
0020
1000
0000
0130
0001
0000
1000
0100
1000
0010
,
1000
0000
0100
0000
0001
0100
0001
0000
0100
0000
1000
0000
0001
1000
0010
0000
,
2000
0100
0000
3010
1000
0000
0002
0010
0000
0103
0001
0000
1001
0000
0000
0000
,
0001
0000
0100
0000
1000
0100
1000
0000
0100
0000
0001
0000
1000
0001
0010
0000
,
0010
0000
2000
0000
3010
0100
1000
0001
0000
1000
0010
0001
0020
0000
0100
0000
,
1030
0001
1000
0010
0100
0000
0001
0000
0010
0000
0001
0100
0000
0001
1000
0000
,
0100
0001
0100
0010
0001
0000
0100
1000
0000
0000
0100
0010
1000
0000
0001
0000
,
1000
0001
1000
0100
0010
0000
0001
0000
0100
0000
0001
0010
0000
0001
1000
0000
,
0010
0100
0010
1000
0001
0000
0000
0001
0100
0000
1000
0100
0010
1000
0010
0100
,
0001
1000
0001
0010
0001
0000
1000
0000
0100
0000
1000
0010
0000
1000
0001
0000
,
0010
1000
0010
0100
1000
0000
0010
0001
0000
0000
0010
0100
0001
0000
1000
0000
,
0001
1000
0001
0010
0100
0000
1000
0000
0010
0000
1000
0100
0000
1000
0001
0000
,
0010
0100
0010
0000
0001
0000
0100
0010
0100
0000
1000
0100
0000
0001
0100
0010
,
2000
0000
0000
0000
,
3002
0000
0000
0000
0000
0003
0000
0000
,
0002
0000
0000
0000
,
2003
0000
0000
0000
0000
3000
0000
0000
,
2000
3000
0000
0000
0000
0000
0000
0000
0002
0003
0020
0030
0002
0003
0200
0300
0020
0030
0000
0000
0020
0030
2000
3000
0000
0000
2000
3000
0200
0320
0230
0300
,
0000
0000
2000
0000
,
3002
0000
0000
0000
0000
0000
0000
0000
1003
0000
0000
0000
0001
0000
0020
0100
,
0000
0031
0010
0000
1000
0000
0000
0010
0001
0000
0000
0000
1000
0000
0020
0100
,
0000
1030
0010
0000
0001
0000
0000
0010
1000
0000
0000
0000
0001
0000
0200
0010
,
0000
0001
0310
0000
0100
0000
0100
1000
0001
0000
0001
0000
1000
0000
0200
0010
,
0000
1000
0310
0000
0100
0001
0100
0001
1000
0000
0000
0000
0010
0000
0010
0100
,
0001
0000
0000
0000
0010
0000
0010
0100
1000
0000
0001
0000
1000
0000
0010
0100
,
0000
0010
1000
0000
0100
0000
0010
0001
2000
0000
0000
0000
0000
0000
0000
0000
,
0000
0002
0003
0000
0001
0001
0000
0000
,
3002
0000
1000
0000
0103
0001
0100
0001
0010
0000
0000
0000
0010
0000
0100
0000
,
1000
0000
0001
0100
0001
0000
0000
0000
1000
0000
0100
0000
1000
0000
0010
0100
,
0010
0000
1000
0000
1000
0000
0001
1000
0010
0000
0000
0000
0010
0000
0100
0000
,
0001
0000
1000
0100
1000
0000
0000
0000
0001
0000
0100
0000
0001
0000
0010
0100
,
0010
0000
0001
0000
0001
0000
1000
0001
0010
0100
0010
0000
0001
0000
1000
0000
,
0010
0100
0010
0000
0001
0000
0010
0000
1000
0001
1000
0000
0100
0000
0010
0000
,
0001
1000
0001
0000
0100
0000
0010
0000
1000
0001
1000
0001
0100
0010
0100
0010
,
1000
0100
1000
0100
0010
0001
0010
0001
0100
0010
0002
0000
0013
0100
0001
0010
,
0000
1000
0010
0100
2000
0000
0000
0000
3001
0100
0010
1000
0001
1000
0010
0100
,
0001
1000
0100
0010
0100
0010
0001
1000
0001
0010
0100
0010
0001
0100
0010
1000
,
0001
1000
0010
0100
0001
0010
0001
0010
0100
1000
0001
0100
0010
0100
0001
1000
,
0100
1000
0010
0100
0001
1000
0001
1000
0010
0100
0001
0100
0010
1000
0100
0010
,
0001
1000
0100
0000
0001
0000
0100
0000
1000
0001
0010
0001
1000
0001
0100
0001
,
0010
0100
1000
0100
0010
0001
1000
0010
1000
0100
0010
0001
0100
0001
0010
0100
,
0010
0001
1000
0010
1000
0100
0020
0000
0000
0000
0031
0000
0100
0000
0001
0000
,
0010
0000
0100
1000
0000
0100
0010
0000
0001
1000
0010
0000
0002
0000
0013
0100
,
0010
0000
1000
0001
0000
0001
0010
0001
1000
0100
0010
0001
0100
0001
0010
0100
,
1000
0001
0100
0001
0010
0001
1000
0100
1000
0010
0100
0010
1000
0100
0010
0001
,
0010
0100
1000
0001
1000
0100
1000
0010
0100
0001
0010
0100
0010
0001
1000
0100
,
0010
0100
1000
0010
0100
0001
0010
0001
1000
0010
1000
0100
0010
0001
0100
0001
,
0010
0000
0010
0000
0001
0100
1000
0100
0001
1000
0010
1000
0001
1000
0100
1000
,
0010
0100
0001
1000
0001
1000
0100
0010
0100
1000
0010
0000
0010
1000
0100
0000
,
0010
0001
0100
0000
0100
0001
0010
0000
0001
0100
0001
0100
0010
1000
0010
1000
,
0001
0010
0001
0010
0100
1000
0100
1000
0001
0000
0100
0000
1000
0000
0000
1000
,
0100
0010
0001
0010
1000
0000
0001
0000
0020
0030
0000
0000
0000
0000
0000
0000
;

//--------------- dance-double - D-Frondal ----------------
#NOTES:
     dance-double:
     D-Frondal:
     Hard:
     16:
     0,0,0,0,0:
00000000
00000000
00000000
00000000
,
00021000
00000000
00000000
00000000
,
00001000
00000000
00000000
00000100
00000000
00000000
00000010
00000000
00031000
00000000
00000000
00000000
00000000
00000000
00000000
00000000
,
00012000
00000000
00000000
00000000
,
00010000
00000000
00000000
01000000
00000000
00000000
00100000
00000000
00013000
00000000
00000000
00000000
00000000
00000000
00000000
00000000
,
00012000
00000000
00000000
00003000
00201000
00000000
00000000
00300000
,
02100000
00000000
00000000
10000000
00000000
00000000
13000000
00000000
00100000
00000000
01000000
00000000
00010000
00100000
00002000
00000000
,
00000000
00000000
00000000
00000000
,
00000000
00000000
00000000
00000000
00000000
00000000
00000000
00000000
00000000
00000000
00013000
00001000
00010000
00000000
00000000
00000000
,
00001000
00000100
00000001
00000010
,
00000001
00000100
00000000
00000000
00000010
00000000
00000000
00001000
00000000
00000000
00001000
00000000
00000100
00000000
00000000
00000000
,
00010000
01000000
10000000
00100000
,
10000000
01000000
00000000
00000000
00100000
00000000
00000000
00010000
00000000
00000000
00020000
00000000
00000000
00000000
00000000
00000000
,
00031000
00000100
00001000
00000100
00000010
00000001
00000010
00000100
,
00010000
00001000
00010000
00001000
01000000
00100000
01000000
00010000
,
10000000
00100000
10000000
00100000
01000000
00010000
01000000
00010000
00100000
00001000
00100000
00001000
00010000
00000100
00010000
00000100
,
00001000
00000010
00001000
00000100
00000010
00000001
00000100
00000001
00001000
00000010
00000100
00001000
00010000
00000000
00000000
00000000
,
00011000
00000000
00001000
00100000
00001000
00000000
01000000
00000000
00010000
00000000
10000000
01000000
10000000
00000000
00100000
00000000
,
00010000
00100000
00000000
01000000
00010000
00000000
00100000
01000000
00000000
00100000
00010000
00000000
00002000
00000000
00000000
00000000
,
00003100
00000000
00010000
00001000
00010000
00000000
00100000
00000000
01000000
00000000
00010000
00100000
00010000
00000000
01000000
00000000
,
00100000
00010000
00000000
00001000
01000000
00000000
00010000
10000000
00000000
00100000
10000000
00000000
01000000
00000000
00010000
00000000
,
00011000
00000000
00010000
00000010
00010000
00000000
00000100
00000000
00001000
00000000
00000001
00000100
00000001
00000000
00000010
00000000
,
00001000
00000010
00000000
00000100
00010000
00000000
00001000
00010000
00000000
00000100
00001000
00000000
00020000
00000000
00000000
00000000
,
01030000
00000000
00001000
00010000
00001000
00000000
00000010
00000000
00000100
00000000
00001000
00000010
00001000
00000000
00000100
00000000
,
00000010
00000000
00002000
00000000
00013000
00000100
00001000
00000001
00000100
00001000
00000100
00000010
00001000
00000100
00001000
00000100
,
00010000
00000000
00001000
00000000
01000000
00000000
00100000
00000000
01000000
00000000
00010000
10000000
00000000
00100000
00010000
00000000
,
00001000
00100000
00001000
01000000
00010000
00000000
10000000
02000000
00000000
00000000
03010000
00000000
01000000
00000000
00100000
00000000
,
00001000
00000000
00010000
00000000
00000100
00000000
00000010
00000000
00000100
00000000
00001000
00000001
00000000
00000010
00001000
00000000
,
00010000
00000010
00010000
00000100
00001000
00000000
00001000
00000000
00000100
00000000
00000010
00000001
00000000
00000010
00000100
00010000
,
00001000
00000000
10000000
00000000
00100000
00000000
01000000
00000000
01000000
00000000
00010000
00100000
00000000
01000000
00010000
00000000
,
00001000
01000000
00001000
00100000
00010000
00000000
10000000
00200000
00000000
00000000
00310000
00100000
01000000
00000000
00001000
00000000
,
00010000
00000000
00000100
00000000
00000010
00000000
00000100
00000000
00000100
00000000
00001000
00000001
00000000
00000100
00001000
00000000
,
00010000
00000100
00010000
00000010
00001000
00000000
00000001
00000000
00000010
00000000
00000100
00000001
00000000
00000100
00001000
00000010
,
00020000
00000000
00000000
00032000
00000000
00000000
00023000
00000000
00032000
00000000
00000000
00023000
00000000
00000000
00032000
00000000
,
00000000
00023000
00000000
00000000
00030020
00000000
00000000
00001000
00000000
00000000
00000130
00000000
00000000
00000000
00000000
00000000
,
00002000
00000000
00000000
00023000
00000000
00000000
00032000
00000000
00023000
00000000
00000000
00032000
00000000
00000000
00023000
00000000
,
00000000
00032000
00000000
00000000
00203000
00000000
00000000
00010000
00000000
00000000
01300000
00000000
00000000
00000000
00000000
00000000
,
10000000
00000000
00000000
00000000
00000000
00000000
00000000
00000000
01000000
00000000
00100000
00000000
00010000
00000000
01000000
00000000
00100000
00000000
00010000
00000000
00001000
00000000
00000100
00000000
00000010
00000000
00001000
00000000
00000100
00000010
00000002
00000000
,
00000000
00000000
00000203
00000000
,
00002300
00000000
00000000
00000000
00000000
00000000
00000000
00000000
00013000
00000000
00000000
00000000
00001000
00000000
00000000
00100000
,
00000000
00100000
01000000
00000000
00100000
00000000
00000000
00001000
00010000
00000000
00000100
00000000
00010000
00000000
00000000
00000010
,
00000000
00000010
00000100
00000000
00000010
00000000
00000000
00010000
00001000
00000000
00000000
00000000
01000000
00000000
00000000
00100000
,
00000000
00010000
00001000
00000000
00100000
00000000
01000000
00000000
00010000
00000000
00010000
00000000
00000100
00000000
00000000
00000010
,
00000000
00001000
00010000
00000000
00000010
00000100
00000010
00000100
00001000
00000000
00000000
00000000
00010000
00000000
01000000
00000000
,
10000000
00000000
00100000
00010000
00001000
00000000
00010000
00000100
,
00000001
00000000
00000100
00010000
00002000
00000000
00000000
00000000
,
00000000
00000000
00023000
00000000
,
02030000
00000000
00000000
00000000
00000000
00000000
00000000
00000000
13000000
00000000
00100000
00000000
01000000
00000000
00010000
10000000
,
00010000
00000000
00100000
00000000
00100000
00000000
00000000
00000000
00001000
01000000
00010000
00000000
00100000
00000000
00001000
00000000
,
00010000
00000100
00001000
00000000
00000010
00000000
00000100
00000000
00000001
00000000
00000010
00000000
00000100
00000000
00001000
00000001
,
00001000
00000000
00000010
00000000
00000010
00000000
00000000
00000000
00010000
00000000
00001000
00000000
00000100
00000000
00000010
00001000
,
00000010
00000000
00010000
00000000
00001000
00000000
00100000
01000000
10000000
00010000
01000000
00000000
01000000
00000000
00010000
00100000
,
00010000
01000000
00001000
00000000
00001000
00000000
00010000
00000100
00010000
00000010
00001000
00000000
00001000
00000000
00000001
00000010
,
00000001
00000100
00000010
00000000
00000010
00000000
00000100
00000001
00001000
00000100
00000010
00000100
00001000
00000010
00000100
00001000
,
00010000
00000100
00001000
00010000
00100000
00010000
01000000
00002000
00000000
00000000
00000000
00000000
00000000
00000000
00000000
00000000
,
00000000
00103000
10000000
00100000
00010000
01000000
00100000
00010000
00001000
00100000
00010000
00100000
00001000
00000000
01000000
00000000
,
00100000
00000000
00100000
01000000
00000000
01000000
00010000
00000000
00100000
01000000
10000000
01000000
00100000
00000000
00001000
02000000
,
00000000
00000000
03001000
00010000
00100000
00000000
00010000
00001000
00010000
00000010
00001000
00000010
00010000
00000000
00000100
00000000
,
00000010
00000000
00000010
00000100
00000000
00000100
00001000
00000000
00000010
00000100
00000001
00000100
00000010
00000000
00010000
00000100
,
00001000
00000000
00010000
00001000
00000010
00000000
00000010
00000000
00000100
00000001
00001000
00000000
00000100
00000000
00000100
00000000
,
00010000
00000010
00001000
00000000
00000100
00000000
00000100
00010000
00001000
00100000
00010000
00000000
01000000
00000000
01000000
00000000
,
00100000
10000000
01000000
00000000
00100000
00010000
20000000
00000000
00000000
00000000
00000000
00000000
00000000
00000000
00000000
00000000
,
00000000
00000000
00000000
00000000
00000000
00000000
00000000
00000000
30100000
00010000
00100000
01000000
00001000
00000000
00010000
00000100
,
00000010
00000000
00000000
00000011
00000000
00000001
00000100
00000001
00001000
00000100
00001000
00000010
00001000
00000100
00000010
00000001
,
00001000
00000010
00000100
00001000
00000100
00000010
00001000
00000100
00010000
00001000
00100000
00010000
00100000
00001000
00010000
00001000
,
01000000
00100000
01000000
00010000
00100000
01000000
00100000
01000000
10000000
00100000
01000000
00100000
10000000
01000000
00100000
00010000
,
01000000
00100000
01000000
00010000
00100000
00001000
00010000
00100000
00010000
00001000
00010000
00000100
00001000
00000010
00001000
00000100
,
00000010
00000001
00001000
00000000
00001000
00100000
00010000
00001000
01000000
00010000
00100000
01000000
10000000
01000000
00100000
00010000
,
01000000
00001000
00010000
01000000
00010000
01000000
00100000
00010000
01000000
00001000
00010000
00001000
00000100
00001000
00000100
00000010
,
00001000
00000001
00000010
00000001
00000100
00001000
00020000
00000000
00000000
00000000
00000000
00000000
00000000
00000000
00000000
00000000
,
00000000
00000000
00000000
00000000
00000000
00000000
00000000
00000000
00031000
00000100
00000001
00000000
00000010
00000000
00001000
00010000
,
00001000
00100000
01000000
00010000
10000000
00100000
01000000
00100000
00002000
00003000
00000000
00000000
00000000
00000000
00000000
00000000
;
