#TITLE:Night Night Burn!;
#SUBTITLE:;
#ARTIST:BABYMETAL;
#TITLETRANSLIT:;
#SUBTITLETRANSLIT:;
#ARTISTTRANSLIT:;
#GENRE:;
#CREDIT:;
#BANNER:;
#BACKGROUND:;
#LYRICSPATH:;
#CDTITLE:;
#MUSIC:Night Night Burn.ogg;
#OFFSET:-0.516000;
#SAMPLESTART:56.099998;
#SAMPLELENGTH:13.913040;
#SELECTABLE:YES;
#BPMS:0.000000=138.000000
;
#STOPS:
;
#BGCHANGES:;
#KEYSOUNDS:;
#ATTACKS:;

//---------------dance-single - FS SS----------------
#NOTES:
     dance-single:
     :
     Challenge:
     16:
     0.788071,0.793504,0.324934,0.657253,1.170502,747.000000,703.000000,44.000000,89.000000,49.000000,0.000000,0.788071,0.793504,0.324934,0.657253,1.170502,747.000000,703.000000,44.000000,89.000000,49.000000,0.000000:
0000
0000
0000
0000
,
0000
0000
0000
0000
,
0000
0000
0000
0000
,
0000
0000
0000
0000
,
2000
0000
0000
3001
0100
0000
0001
0000
0020
0000
0000
0130
0010
0000
0001
1000
,
0020
0000
0000
0130
0001
0000
1000
0000
0200
0000
0000
0310
0100
1000
0001
0000
,
1000
0010
0100
0001
0000
0000
0001
0010
0100
1000
0000
0000
,
1000
0000
0000
0000
0010
0000
0000
0000
0100
0000
0000
0000
0001
0000
0000
0000
0010
0000
0000
0000
0100
0000
0000
0000
1000
0000
0000
0000
0010
0000
0000
0000
0100
0000
0000
0000
0010
0000
0000
0000
0000
0000
0010
0000
0000
1000
0000
0000
,
0002
0000
1003
0100
00M0
0100
0000
0001
2000
0000
3001
0100
00M0
0100
0000
1000
,
0002
0000
1003
0100
00M0
0100
0000
0001
2000
0000
3001
0010
0M00
0010
0000
1000
,
0020
0000
1030
0100
00M0
0100
0000
0001
0020
0000
0031
0100
00M0
0100
0000
1000
,
0020
0000
1030
0100
00M0
0100
0000
0001
1000
0100
1000
0100
0010
0001
0010
0001
,
2000
0000
3010
0100
000M
0100
0000
1000
0002
0000
0013
0100
M000
0100
0000
0001
,
2000
0000
3010
0100
000M
0100
0000
1000
0002
0000
0103
0010
M000
0010
0000
0001
,
2000
0000
3100
0001
00M0
0001
0000
0010
0002
0000
0103
1000
0M00
1000
0000
0010
,
2000
0000
0000
0000
0000
0000
3100
0000
0000
0001
0000
0000
00M0
0000
0000
0001
0000
0000
0000
0000
0000
0010
0000
0000
0001
0000
0000
0000
1000
0000
0000
0000
0020
0000
0000
0000
0100
0000
0000
0000
0000
0000
0000
0000
0000
0000
0000
0000
,
2030
0000
3001
0100
0000
0001
0010
0000
0001
0100
0000
0010
1000
0000
0001
1000
,
0002
0000
1003
0100
0000
1000
0010
0000
1000
0100
0010
0100
1000
0001
1000
0001
,
2000
0000
3001
0010
0000
0001
0100
0000
0001
0010
0000
0100
1000
0000
0001
0000
,
1000
0000
0001
0100
00M0
0100
1000
0000
1000
0010
0M00
0010
0001
0000
1001
0000
,
0002
0000
1003
0010
0000
0100
0010
0000
1000
0100
0000
1000
0001
0000
0010
0100
,
0020
0000
0031
0100
0000
0010
0100
0000
0001
0010
0100
0010
0001
1000
0001
0100
,
0020
0000
1030
0100
0000
0010
0100
0000
1000
0010
0000
1000
0001
0000
1000
0001
,
1000
0100
00M0
0100
0001
0010
0M00
0010
1000
0000
0001
0000
1001
0000
0000
0000
,
2000
0000
0000
3001
0010
0M00
0010
0000
2000
0000
0000
3001
0100
00M0
0100
0000
,
1000
0000
0000
0001
0100
0000
0010
0000
1000
0000
1001
0000
1001
0000
0000
0000
,
2000
0000
0000
3100
0010
0000
0001
0000
0200
0000
0000
0310
1000
0000
0001
0000
,
1000
0100
1000
0000
0010
1000
0010
0000
0100
0001
0100
0000
0001
0010
0100
0010
,
0002
0000
0000
1003
0010
0M00
0010
0000
0002
0000
0000
1003
0100
00M0
0100
0000
,
0001
0000
0000
1000
0100
0000
0010
0000
0001
0000
1001
0000
1001
0000
0000
0000
,
1000
0000
0001
0100
0010
0000
1000
0100
0010
0001
0010
0001
1000
0010
1000
0010
,
1000
0100
00M0
0100
0001
0010
0M00
0010
1000
0100
00M0
0100
0001
1000
0001
1000
,
0020
0000
0130
0001
2000
0100
3000
1000
0002
0000
0000
0000
1003
0000
0100
0010
,
0002
0000
0000
0000
1003
0000
0010
0100
0002
0000
0000
0013
0000
0000
0100
0000
,
0020
0000
0130
1000
0002
0100
0003
0001
2000
0000
0000
0000
3001
0000
0010
0100
,
2000
0000
0000
0000
3001
0000
0100
0010
2000
0000
0000
3100
0000
0000
0010
0001
,
0020
0000
0130
1000
0002
0100
0003
0001
2000
0000
0000
0000
3010
0000
0100
0010
,
2000
0000
0000
0000
3100
0000
0010
0100
2000
0000
0000
3010
0000
0000
0100
0000
,
0002
0000
0013
0100
0010
0001
0000
0001
2000
0000
3010
0100
0010
1000
0000
1000
,
0001
0100
0010
0000
1000
0100
0010
0000
0011
0000
0000
0000
0110
0000
0000
0000
,
2001
0000
0000
0010
0000
0000
0001
0000
0000
0000
0100
0000
3100
0000
0000
0000
,
1002
0000
0000
0010
0000
0000
1000
0000
0000
0000
0100
0000
0103
0000
0001
0010
,
0200
0000
0000
1000
0000
0000
0001
0000
0000
0000
0010
0000
0310
0000
0000
0000
,
0001
0010
0100
1000
0010
0100
2000
0000
0000
3100
0000
0000
,
0120
0000
0000
1030
0001
0000
0010
0000
0200
0000
1000
0000
1300
0000
0000
0000
,
2010
0000
0000
3001
0100
0000
0010
0000
2000
0000
0001
0000
3001
0000
0000
0000
,
1200
0000
0000
0310
0001
0000
1000
0000
0020
0000
0100
0000
0130
0000
0000
0000
,
0210
0000
0000
0301
1000
0000
0100
0000
0010
0000
0001
0100
0010
0000
1000
0100
,
0010
0001
1000
0001
0010
0M00
0010
1000
0000
0001
1000
0001
0010
0M00
0010
1000
,
0000
0001
1000
0001
0010
0M00
1010
0000
0110
0000
0000
0001
0000
0000
1000
0000
,
2100
0000
0000
3001
0010
0000
1000
0000
0010
0000
0011
0000
0011
0000
0000
0000
,
2010
0000
0000
3001
0100
0000
1000
0000
0100
0000
0010
0100
0000
0001
1000
0000
,
0010
1000
0001
1000
0010
0M00
0010
0001
1000
0001
0010
0M00
0010
1000
0001
1000
,
0010
0M00
0010
0001
1000
0001
0010
0M00
1010
0000
0000
0110
0000
0000
0101
0000
,
1000
0000
0010
0000
0110
0000
1000
0001
0000
0001
0010
0000
0110
0000
0001
0000
,
0010
0100
0010
0100
1000
0100
1000
0100
1000
0001
1000
0001
0100
0000
0010
0000
,
1000
0100
0000
0000
0001
0100
0000
0000
1000
0010
0000
0000
0001
0010
0000
0000
,
1000
0100
00M0
0100
0001
0010
0M00
0010
1000
0100
00M0
0100
0002
0000
0000
0000
,
1003
0100
0010
0100
1000
0001
0100
0001
2000
0000
0000
0000
3001
0100
0010
1000
,
0002
0000
0000
0000
1003
0100
0010
0001
2000
0000
0000
3010
0000
0000
0100
0000
,
0001
0010
0100
0010
0001
1000
0010
1000
0002
0000
0000
0000
1003
0100
0010
0001
,
2000
0000
0000
0000
3001
0100
0010
1000
0002
0000
0000
0013
0000
0000
0100
0010
,
0100
1000
0001
1000
0010
0100
0001
0100
0020
0000
0000
0000
1030
0100
0010
0001
,
0200
0000
0000
0000
0301
0100
0010
1000
0200
0000
0000
0310
0000
0000
0001
0000
,
1000
0010
0100
0001
0010
0000
0100
0000
0010
0001
0100
0010
1000
0000
0001
0000
,
1000
0100
0010
0100
1000
0010
0100
0010
1000
0000
0000
0000
1001
0000
0000
0000
,
0220
0000
0000
0330
,
2000
0000
3001
0100
00M0
1100
0000
1000
0002
0000
1003
0100
00M0
0101
0000
0001
,
2000
0000
3001
0100
00M0
1100
0000
1000
0002
0000
1003
0010
0M00
0011
0000
0001
,
0020
0000
0031
0100
00M0
1100
0000
1000
0020
0000
1030
0100
00M0
0101
0000
0001
,
0020
0000
0031
0100
00M0
1100
0000
1000
0001
0100
0001
0100
0010
1000
0010
1000
,
0002
0000
0013
0100
M000
0101
0000
0001
2000
0000
3010
0100
000M
1100
0000
1000
,
0002
0000
0013
0100
M000
0101
0000
0001
2000
0000
3100
0010
000M
1010
0000
1000
,
0002
0000
0103
1000
000M
1010
0000
0010
2000
0000
3100
0001
M000
0011
0000
0010
,
0002
0000
0103
1000
000M
1010
0000
0010
0100
0001
1000
0001
0010
0100
1000
0001
,
1000
0010
0100
0101
0000
0000
0001
0010
0100
1100
0000
0000
,
1000
0010
0100
0001
0010
0100
2002
0000
0000
3003
0000
0000
;

//---------------dance-single - ----------------
#NOTES:
     dance-single:
     :
     Hard:
     13:
     0.584460,0.651807,0.206776,0.864030,0.749564,554.000000,526.000000,28.000000,117.000000,0.000000,0.000000,0.584460,0.651807,0.206776,0.864030,0.749564,554.000000,526.000000,28.000000,117.000000,0.000000,0.000000:
0000
0000
0000
0000
,
0000
0000
0000
0000
,
0000
0000
0000
0000
,
0000
0000
0000
0000
,
0002
0000
0000
0013
0100
0000
0010
0000
0002
0000
0000
0103
0010
0000
1000
0000
,
0200
0000
0000
0310
0100
0000
1000
0000
0020
0000
0000
0130
0001
0000
0010
0000
,
0001
0100
0001
0100
0000
0000
0010
1000
0010
1000
0000
0000
,
0001
0100
0001
1000
0100
1000
0001
0010
0001
0200
0000
0000
,
0320
0000
0000
1000
0000
1030
0000
0001
0020
0000
0000
0100
0000
0031
0000
1000
,
0020
0000
0000
0100
0000
0130
0000
0001
2000
0000
0000
0100
0000
3100
0000
0010
,
0002
0000
0000
1000
0000
1003
0000
0010
0200
0000
0000
0010
0000
0301
0000
0010
,
0200
0000
0000
0010
0000
0310
0000
0001
0100
0001
0100
0000
0010
1000
0010
0000
,
0200
0000
0000
0010
0000
0310
0000
1000
0002
0000
0000
0010
0000
1003
0000
0010
,
0200
0000
0000
0001
0000
0301
0000
1000
0200
0000
0000
0010
0000
0310
0000
0001
,
2000
0000
0000
0010
0000
3010
0000
0100
0002
0000
0000
0010
0000
1003
0000
0100
,
0020
0000
0000
0000
0000
0000
0031
1000
0010
0200
0000
0000
,
0301
0000
0010
0000
0110
0000
0000
1000
0000
1000
0000
0001
0100
0000
0010
0000
,
1000
0000
0100
0000
0110
0000
0000
0001
0000
0001
0000
1000
0010
0000
0100
0000
,
0001
0000
0010
0000
0110
0000
0000
1000
0000
1000
0000
0001
0100
0000
0010
0000
,
1000
0000
0100
0010
0000
0100
1000
0000
0010
0100
0000
0001
1000
0000
1001
0000
,
0001
0000
1000
0000
1200
0000
0000
0310
0000
0010
0000
0001
1000
0000
0010
0000
,
1000
0000
0001
0000
0201
0000
0000
0310
0000
0010
0000
1000
0001
0000
0010
0000
,
0001
0000
1000
0000
1020
0000
0000
0130
0000
0100
0000
0001
0010
0000
0100
0000
,
0010
0001
0000
1000
0010
0100
0000
0010
1000
0000
0001
0000
1001
0000
0000
0000
,
2000
0000
0000
3002
0000
0000
0023
0000
2030
0000
0000
3002
0000
0000
0203
0000
,
0310
0000
0000
0011
0000
0000
2001
0000
0000
0000
0010
0000
3010
0000
0000
0000
,
2000
0000
0000
3002
0000
0000
0203
0000
0320
0000
0000
2030
0000
0000
3001
0000
,
0020
2030
3020
0032
,
2003
0000
0000
3002
0000
0000
0203
0000
2300
0000
0000
3002
0000
0000
0023
0000
,
0130
0000
0000
0101
0000
0000
1002
0000
0000
0000
0010
0000
0013
0000
0000
0000
,
0100
0000
0010
0001
0010
0000
0001
1000
0002
0000
0000
0000
0203
0000
0000
0000
,
0310
1000
0000
0100
1000
0001
0000
0010
0001
1000
0000
0010
0200
0000
0000
0000
,
0302
0013
2000
3010
0002
0000
1003
0010
,
0200
0000
0000
0000
0301
0000
0010
0000
0200
0000
0000
0310
0000
0000
0001
0000
,
2000
3010
0002
0013
2000
0000
3001
0010
,
0200
0000
0000
0000
1300
0000
0010
0000
0200
0000
0000
0301
0000
0000
0010
0001
,
2000
3100
0002
0103
2000
0000
3001
0100
,
0020
0000
0000
0000
1030
0000
0100
0000
0020
0000
0000
0130
0000
0000
1000
0000
,
0002
0000
0103
0010
0100
0000
0020
0000
2030
0000
3100
0010
0100
0000
0010
0000
,
0001
0100
1000
0100
0001
0000
0110
0000
,
2002
0000
0000
0000
,
3003
0000
0000
0000
,
0001
0000
0000
0010
0000
0000
0110
0000
0000
0000
1000
0000
0001
0000
0000
0000
,
0200
0000
0000
0310
,
1000
0000
0000
0001
0000
0000
0020
0000
0000
0000
0100
0000
0130
0000
0000
0000
,
0001
0000
0000
1000
0000
0000
0020
0000
0000
0000
0100
0000
0130
0000
0000
0000
,
1000
0000
0000
0100
0000
0000
0020
0000
0000
0000
0001
0000
0031
0000
0000
0000
,
0001
0000
0000
1000
0000
0000
0010
0000
0100
0000
0010
1000
0010
0000
1000
0001
,
1000
0000
0100
0000
0020
0000
0130
1000
0000
0001
0100
0000
0020
0000
0130
0001
,
0000
1000
0100
0000
0020
0000
0130
0000
0020
0000
0000
0100
0000
0000
0031
0000
,
1000
0000
0000
1010
0000
0000
1001
0000
0000
0000
0110
0000
0110
0000
0000
0000
,
0001
0000
0000
0011
0000
0000
1001
0000
1002
0000
0000
0103
0000
0000
0010
0000
,
1000
0100
1000
0000
0020
0000
0130
0001
0100
0000
0020
0000
1030
0100
1000
0000
,
0020
0000
0130
0001
0100
0000
0020
0000
0100
0000
0000
0100
0000
0000
1030
0000
,
0001
0000
0010
0000
1000
0000
0010
0002
0000
0000
1003
0000
0010
0000
0001
0000
,
0020
2030
3200
0320
,
0031
0100
0000
0000
0001
1000
0000
0000
1000
0100
0000
0000
1000
0001
0000
0000
,
0001
0010
0000
0100
1000
0001
0000
0100
0001
1000
0000
0100
0020
0000
0000
0000
,
0031
0100
0001
0000
1000
0100
1000
0000
0002
0000
0000
0000
1003
0000
0100
0000
,
0002
0000
0000
0000
1003
0000
0010
0000
0002
0000
0000
1003
0000
0000
0001
0000
,
1000
0010
1000
0000
0001
0010
0001
0000
2000
0000
0000
0000
3001
0000
0100
0000
,
2000
0000
0000
0000
3001
0000
0010
0000
2000
0000
0000
3100
0000
0000
0010
0001
,
1000
0100
1000
0000
0001
0100
0001
0000
0020
0000
0000
0000
1030
0000
0010
0000
,
0002
0000
0000
0000
1003
0000
0010
0000
0002
0000
0000
0013
0000
0000
0100
0000
,
0002
0000
0013
0001
0010
0000
0100
1000
0002
0000
0103
0001
1000
0000
0100
0000
,
1100
0100
0110
0010
0011
0000
1001
0000
,
0220
0000
0000
0330
,
0002
0000
0000
1000
0000
1003
0000
0010
0200
0000
0000
0010
0000
0301
0000
0010
,
0200
0000
0000
0010
0000
0310
0000
0001
2000
0000
0000
0010
0000
3010
0000
0100
,
0002
0000
0000
0010
0000
0013
0000
0100
2000
0000
0000
0010
0000
3001
0000
0100
,
0020
0000
0000
1000
0000
1030
0000
0001
0010
0100
1000
0000
0001
0100
0010
0000
,
0200
0000
0000
1000
0000
1300
0000
0100
0020
0000
0000
0100
0000
1030
0000
0001
,
0020
0000
0000
0100
0000
0130
0000
1000
0200
0000
0000
0001
0000
0301
0000
0100
,
0020
0000
0000
0001
0000
0031
0000
0100
0020
0000
0000
0100
0000
1030
0000
0001
,
0020
0000
0000
1000
0000
1030
0000
0010
0001
1000
0100
0000
0010
0001
1000
0000
,
0010
1000
0100
0010
0000
0000
0010
0001
0100
0010
0000
0000
,
0010
1000
0100
0010
0001
0100
0220
0000
0000
0330
0000
0000
;

//---------------dance-double - FS----------------
#NOTES:
     dance-double:
     :
     Challenge:
     16:
     0.773301,0.765165,0.251086,0.664638,1.148347,733.000000,699.000000,34.000000,90.000000,49.000000,0.000000,0.773301,0.765165,0.251086,0.664638,1.148347,733.000000,699.000000,34.000000,90.000000,49.000000,0.000000:
// measure 0
00000000
00000000
00000000
00000000
,  // measure 1
00000000
00000000
00000000
00000000
,  // measure 2
00000000
00000000
00000000
00000000
,  // measure 3
00000000
00000000
00000000
00000000
,  // measure 4
20000000
00000000
00000000
31000000
00100000
00000000
00010000
00000000
20000000
00000000
00000000
30100000
01000000
00000000
00010000
00100000
,  // measure 5
00002000
00000000
00000000
00013000
00000100
00000000
00000010
00000000
00000002
00000000
00000000
00001003
00000010
00000100
00000001
00000000
,  // measure 6
00001000
00000100
00010000
00001000
00000000
00000000
01000000
00010000
10000000
01000000
00000000
00000000
,  // measure 7
00100000
00000000
00000000
00000000
00001000
00000000
00000000
00000000
00010000
00000000
00000000
00000000
00000100
00000000
00000000
00000000
00001000
00000000
00000000
00000000
00000010
00000000
00000000
00000000
00000100
00000000
00000000
00000000
00000001
00000000
00000000
00000000
00000010
00000000
00000000
00000000
00001000
00000000
00000000
00000000
00000000
00000000
00001000
00000000
00000000
00010000
00000000
00000000
,  // measure 8
00000200
00000000
00010300
00001000
000000M0
00001000
00000000
00000100
00020000
00000000
00030100
00001000
000000M0
00011000
00000000
00010000
,  // measure 9
00000020
00000000
00010030
00001000
00000M00
00001000
00000000
00000010
00020000
00000000
00031000
00010000
00M00000
00010000
00000000
00100000
,  // measure 10
00002000
00000000
01003000
00010000
00M00000
00010000
00000000
00001000
02000000
00000000
03001000
00010000
0M000000
00110000
00000000
00100000
,  // measure 11
00002000
00000000
01003000
00010000
00M00000
00010000
00000000
00001000
00010000
00000100
00001000
00000100
00010000
00001000
01000000
00001000
,  // measure 12
00020000
00000000
00031000
00010000
00M00000
00010000
00000000
01000000
00200000
00000000
10300000
01000000
00M00000
01010000
00000000
00010000
,  // measure 13
00200000
00000000
00310000
01000000
00M00000
01000000
00000000
10000000
00200000
00000000
01300000
00010000
00M00000
00010000
00000000
00001000
,  // measure 14
00020000
00000000
00030010
00000100
0000M000
00000100
00000000
00001000
00000002
00000000
00000013
00000100
0000M000
00000101
00000000
00000001
,  // measure 15
00002000
00000000
00000000
00000000
00000000
00000000
00003010
00000000
00000000
00000100
00000000
00000000
0000M000
00000000
00000000
00000100
00000000
00000000
00000000
00000000
00000000
00001000
00000000
00000000
00000001
00000000
00000000
00000000
00000010
00000000
00000000
00000000
00001000
00000000
00000000
00000000
00020000
00000000
00000000
00000000
00000000
00000000
00000000
00000000
00000000
00000000
00000000
00000000
,  // measure 16
00032000
00000000
01003000
00010000
00000000
01000000
00100000
00000000
01000000
10000000
00000000
01000000
00100000
00000000
10000000
00010000
,  // measure 17
00200000
00000000
01300000
10000000
00000000
01000000
00100000
00000000
01000000
00100000
00010000
00100000
00001000
00010000
00001000
00010000
,  // measure 18
00002000
00000000
00003100
00000010
00000000
00000100
00000001
00000000
00000100
00000010
00000000
00000100
00001000
00000000
00000100
00000001
,  // measure 19
00001000
00000000
00000100
00001000
000M0000
00001000
00010000
00000000
00000100
00001000
000M0000
00001000
00010000
00000000
00011000
00000000
,  // measure 20
00020000
00000000
00030100
00001000
00000000
00000100
00000010
00000000
00000100
00000001
00000000
00000100
00000010
00000000
00000001
00001000
,  // measure 21
00000020
00000000
00000130
00000001
00000000
00000100
00000010
00000000
00000100
00000010
00001000
00000010
00010000
00001000
00010000
00001000
,  // measure 22
00020000
00000000
01030000
00100000
00000000
01000000
10000000
00000000
01000000
00100000
00000000
01000000
00010000
00000000
01000000
00100000
,  // measure 23
00001000
00010000
00M00000
00010000
01000000
00010000
00M00000
00010000
00001000
00000000
00010000
00000000
00011000
00000000
00000000
00000000
,  // measure 24
00020000
00000000
00000000
00030010
00001000
00000M00
00001000
00000000
00020000
00000000
00000000
00030100
00001000
000000M0
00001000
00000000
,  // measure 25
00020000
00000000
00000000
00030010
00001000
00000000
00000100
00000000
00010000
00000000
00011000
00000000
00011000
00000000
00000000
00000000
,  // measure 26
00020000
00000000
00000000
00030100
00000010
00000000
00000001
00000000
00000200
00000000
00000000
00000310
00001000
00000000
00000001
00000000
,  // measure 27
00000010
00000100
00001000
00000000
00000100
00010000
00001000
00000000
00010000
00001000
01000000
00000000
00010000
01000000
00001000
00010000
,  // measure 28
00002000
00000000
00000000
01003000
00010000
00M00000
00010000
00000000
00002000
00000000
00000000
00103000
00010000
0M000000
00010000
00000000
,  // measure 29
00002000
00000000
00000000
01003000
00010000
00000000
00100000
00000000
00001000
00000000
00011000
00000000
00011000
00000000
00000000
00000000
,  // measure 30
00001000
00000000
00010000
00001000
01000000
00000000
00010000
01000000
00100000
10000000
00100000
10000000
00010000
00100000
00001000
00000000
,  // measure 31
00010000
00001000
00000M00
00001000
00000100
00001000
000M0000
00001000
00010000
00001000
00000M00
00001000
00000010
00000100
00000010
00000100
,  // measure 32
00000001
00000000
00000010
00000100
00002000
00000000
00003010
00000100
00002000
00000000
00000000
00000000
00013000
00000000
00001000
01000000
,  // measure 33
00020000
00000000
00000000
00000000
00130000
00000000
00010000
01000000
00200000
00000000
00000000
10300000
00000000
00000000
00010000
00000000
,  // measure 34
10000000
00000000
00100000
01000000
00020000
00000000
00130000
01000000
00020000
00000000
00000000
00000000
00031000
00000000
00010000
00000100
,  // measure 35
00002000
00000000
00000000
00000000
00003010
00000000
00001000
00000100
00000020
00000000
00000000
00000031
00000000
00000000
00000001
00001000
,  // measure 36
00000001
00000000
00000100
00000010
00002000
00000000
00003100
00000010
00002000
00000000
00000000
00000000
00013000
00000000
00001000
00100000
,  // measure 37
00020000
00000000
00000000
00000000
01030000
00000000
00010000
00100000
02000000
00000000
00000000
13000000
00000000
00000000
00010000
00000000
,  // measure 38
20000000
00000000
31000000
00100000
00010000
00100000
00000000
00001000
00020000
00000000
00030100
00001000
00000100
00000010
00000000
00000001
,  // measure 39
00001000
00000000
00000001
00000100
00001000
00000000
00000100
00001000
00010000
00000000
00000000
00000000
00011000
00000000
00000000
00000000
,  // measure 40
00020010
00000000
00000000
00001000
00000000
00000000
00000100
00000000
00000000
00000000
00001000
00000000
00031000
00000000
00000000
00000000
,  // measure 41
00102000
00000000
00000000
00010000
00000000
00000000
01000000
00000000
00000000
00000000
00010000
00000000
00013000
00000000
00001000
00010000
,  // measure 42
00000200
00000000
00000000
00000010
00000000
00000000
00001000
00000000
00000000
00000000
00010000
00000000
00010300
00000000
00000000
00000000
,  // measure 43
00000010
00000100
00001000
00010000
00100000
01000000
20000000
00000000
00000000
31000000
00000000
00000000
,  // measure 44
01020000
00000000
00000000
10030000
01000000
00000000
00100000
00000000
00002000
00000000
00010000
00000000
00013000
00000000
00000000
00000000
,  // measure 45
00010200
00000000
00000000
00000310
00000001
00000000
00001000
00000000
00000020
00000000
00000100
00000000
00000130
00000000
00000000
00000000
,  // measure 46
00000201
00000000
00000000
00000310
00001000
00000000
00000100
00000000
00020000
00000000
00001000
00000000
00031000
00000000
00000000
00000000
,  // measure 47
00201000
00000000
00000000
01300000
10000000
00000000
00010000
00000000
00200000
00000000
00310000
00100000
00001000
00000000
00010000
00001000
,  // measure 48
00010000
00001000
01000000
00001000
00010000
00M00000
00010000
01000000
00000000
00001000
01000000
00001000
00010000
00M00000
00010000
01000000
,  // measure 49
00000000
00001000
01000000
00001000
00010000
00M00000
01010000
00000000
01002000
00000000
00000000
00023000
00000000
00000000
00030100
00000000
,  // measure 50
00001100
00000000
00000000
00000010
00000001
00000000
00001000
00000000
00000010
00000000
00000110
00000000
00000110
00000000
00000000
00000000
,  // measure 51
00001010
00000000
00000000
00000001
00000010
00000000
00000100
00000000
00001000
00000000
00000010
00000100
00000000
00001000
00010000
00000000
,  // measure 52
00001000
00010000
00000010
00010000
00001000
00000M00
00001000
00000100
00010000
00000100
00001000
00000M00
00001000
00010000
00000010
00010000
,  // measure 53
00001000
00000M00
00001000
00000100
00010000
00000100
00001000
000000M0
00011000
00000000
00000000
00010100
00000000
00000000
00010010
00000000
,  // measure 54
00010000
00000000
00001000
00000000
01001000
00000000
01000000
00100000
00000000
00100000
10000000
00000000
10020000
00000000
00130000
00000000
,  // measure 55
02000000
03200000
00302000
00023000
,  // measure 56
00130000
00010000
00000000
00000000
00001000
00010000
00000000
00000000
01000000
00010000
00000000
00000000
00001000
00010000
00000000
00000000
,  // measure 57
00000010
00001000
00000M00
00001000
00010000
00001000
00000M00
00001000
00000100
00001000
000M0000
00001000
02000000
03000000
00000000
00000000
,  // measure 58
00100000
10000000
00100000
10000000
00010000
00100000
00010000
00100000
02000000
00000000
00000000
00000000
13000000
00100000
01000000
00010000
,  // measure 59
20000000
00000000
00000000
00000000
31000000
00100000
00010000
00100000
00001000
00000000
00010000
00000100
00000000
00001000
00000100
00000000
,  // measure 60
00000010
00000001
00000010
00000001
00001000
00000010
00001000
00000010
00000200
00000000
00000000
00000000
00000301
00000010
00000100
00001000
,  // measure 61
00000002
00000000
00000000
00000000
00000103
00000010
00001000
00000010
00010000
00000000
00001000
01000000
00000000
00010000
01000000
00100000
,  // measure 62
10000000
01000000
00100000
01000000
10000000
00010000
00100000
00010000
02000000
00000000
00000000
00000000
03100000
10000000
01000000
00100000
,  // measure 63
00020000
00000000
00000000
00000000
01030000
00100000
00010000
00001000
00010000
00000000
00000100
00001000
00000000
00000100
00010000
00000000
,  // measure 64
00001000
00010000
00001000
01000000
00010000
00000000
01000000
00000000
00001000
00010000
00000100
00001000
00000100
00000000
00000010
00000000
,  // measure 65
00000100
00010000
00001000
00010000
01000000
00010000
00001000
00010000
00000100
00000000
00000000
00000000
00001100
00000000
00000000
00000000
,  // measure 66
00020200
00000000
00000000
00030300
,  // measure 67
02000000
00000000
03001000
00010000
00M00000
00010000
00000000
01000000
00002000
00000000
01003000
00010000
00M00000
00011000
00000000
00001000
,  // measure 68
00200000
00000000
00301000
00010000
0M000000
00010000
00000000
00100000
00002000
00000000
00013000
00001000
000000M0
00001000
00000000
00000010
,  // measure 69
00020000
00000000
00030100
00001000
000000M0
00001000
00000000
00010000
00000200
00000000
00010300
00001000
00000M00
00001010
00000000
00000010
,  // measure 70
00020000
00000000
00030100
00001000
000M0000
00001000
00000000
00010000
00001000
01000000
00010000
01000000
00001000
00010000
00000100
00010000
,  // measure 71
00002000
00000000
00013000
00001000
000000M0
00001000
00000000
00000100
00000020
00000000
00000031
00000100
000000M0
00001100
00000000
00001000
,  // measure 72
00000020
00000000
00001030
00000100
000000M0
00000100
00000000
00000001
00000020
00000000
00000130
00001000
000000M0
00001000
00000000
00010000
,  // measure 73
00002000
00000000
00103000
01000000
000M0000
01000000
00000000
00010000
20000000
00000000
30100000
01000000
000M0000
11000000
00000000
10000000
,  // measure 74
00200000
00000000
01300000
00010000
00M00000
00010000
00000000
00001000
00010000
00000100
00001000
00000100
00010000
00001000
01000000
00010000
,  // measure 75
10000000
01000000
00010000
00001000
00000000
00000000
00010000
00001000
00000100
00000001
00000000
00000000
,  // measure 76
00000001
00000010
00001000
00010000
01000000
10000000
00020000
00000000
00000000
00030000
00000000
00000000
;

//---------------dance-single - ----------------
#NOTES:
     dance-single:
     :
     Medium:
     11:
     0.454697,0.538449,0.140313,0.332319,0.339704,431.000000,412.000000,19.000000,45.000000,0.000000,0.000000,0.454697,0.538449,0.140313,0.332319,0.339704,431.000000,412.000000,19.000000,45.000000,0.000000,0.000000:
0000
0000
0000
0000
,
0000
0000
0000
0000
,
0000
0000
0000
0000
,
0000
0000
0000
0000
,
0002
0000
0103
0010
2000
0000
3001
0010
,
0200
0000
0000
0000
0310
0000
0001
0000
2000
0000
0000
3010
0000
0000
0100
0000
,
0102
1003
2100
3001
,
0002
0000
0000
0023
0000
0000
0130
1000
0100
1000
0000
0000
,
0001
0000
0000
0010
0000
0001
0000
0000
1000
0000
0000
0010
0000
1000
0000
0000
,
0001
0000
0000
0100
0000
0001
0000
0000
1000
0000
0000
0100
0000
1000
0000
0000
,
0001
0000
0000
0010
0000
0001
0000
0000
0100
0000
0000
0010
0000
1000
0000
0000
,
0100
0000
0000
0010
0000
0001
0000
0000
1000
0000
0010
0000
0100
0000
0001
0000
,
1000
0000
0000
0100
0000
0010
0000
0000
0001
0000
0000
0100
0000
0010
0000
0000
,
1000
0000
0000
0010
0000
0100
0000
0000
0001
0000
0000
0010
0000
0100
0000
0000
,
1000
0000
0000
0100
0000
0001
0000
0000
0100
0000
0000
1000
0000
0010
0000
0000
,
0200
0000
0000
0000
0000
0000
0301
1000
0001
1000
0000
0000
,
0001
0010
0100
0000
1000
0001
1000
0100
,
1000
0100
0010
0000
0001
1000
0001
0100
,
0010
1000
0001
0000
0100
0001
0100
0001
,
0010
0000
0000
0001
0000
0000
1000
0000
0000
0010
0000
0000
0100
0000
0001
0000
,
1000
0100
0010
0000
0001
1000
0001
0100
,
0010
1000
0001
0000
1000
0001
0010
0100
,
0010
0001
1000
0000
0010
0100
0001
0000
,
1000
0100
0000
0000
1000
0001
0000
0000
1000
0000
0001
0000
1001
0000
0000
0000
,
2000
0000
0000
0000
0100
0000
0000
0000
0002
3000
0000
0000
0010
0000
0000
0000
,
1003
0000
0000
0010
0000
0000
0200
0000
0000
0000
0001
0000
0301
0000
0000
0000
,
0002
0010
2003
0100
,
3002
2003
3020
0230
,
0301
0000
0000
0010
0000
0000
0100
0000
1000
0000
0000
0010
0000
0000
0100
0000
,
0001
0000
0000
0001
0000
0000
1000
0000
0000
0000
0001
0000
0010
0000
0000
0000
,
0100
1000
0100
1000
0001
0100
0001
0100
,
0020
2030
3200
0320
,
0031
0100
0010
0100
0002
0000
1003
0100
,
0010
0000
0000
0000
0001
0000
0100
0000
0010
0000
0000
1000
0000
0000
0001
0000
,
1000
0100
0010
0100
2000
0000
3010
0100
,
0001
0000
0000
0000
0010
0000
0100
0000
1000
0000
0000
0001
0000
0000
0100
0000
,
0010
1000
0100
0010
0200
0000
1300
0010
,
0100
0000
0000
0000
0001
0000
0010
0000
0100
0000
0000
0010
0000
0000
0001
0000
,
2000
0000
3010
0100
0002
0000
0013
0000
,
0100
0010
0001
0100
0010
0000
0110
0000
,
2002
0000
0000
0000
,
3003
0000
0000
0000
,
0220
0000
0000
0330
,
0002
0023
0230
0000
,
1300
0000
0000
0001
0000
0000
1000
0000
0000
0000
0010
0000
0100
0000
0000
0000
,
0001
0000
0000
1000
0000
0000
0001
0000
0000
0000
0010
0000
0100
0000
0000
0000
,
1000
0000
0000
0001
0000
0000
1000
0000
0000
0000
0010
0000
0100
0000
0000
0000
,
0001
0000
0000
1000
0000
0000
0001
0000
0010
0000
0000
0000
0110
0000
0000
0000
,
0001
0000
0100
0000
0010
0000
0000
0100
0000
0000
0001
0000
0010
0000
0000
0100
,
0000
0000
1000
0000
0010
0000
0100
0000
0010
0000
0000
1000
0000
0000
0001
0000
,
1000
0000
0000
0100
0000
0000
1000
0000
0000
0000
0100
0000
0100
0000
0000
0000
,
0010
0000
0000
0001
0000
0000
0010
0000
0001
0000
0000
1000
0000
0000
0001
0000
,
0100
0100
0010
1000
1000
0001
0010
0010
,
0100
0000
1000
0000
1000
0000
0001
0000
0100
0000
0000
0010
0000
0000
0100
0000
,
0001
0010
0110
0000
1000
0001
1001
0000
,
0002
0203
0320
1030
,
1100
0101
1100
0101
,
1010
0101
0011
1100
,
0001
0010
1000
0010
0002
0000
1003
0100
,
0010
0000
0000
0000
0001
0000
0100
0000
0010
0000
0000
0100
0000
0000
0001
0000
,
1000
0100
0001
0100
2000
0000
3001
0010
,
0100
0000
0000
0000
1000
0000
0010
0000
0100
0000
0000
0010
0000
0000
0100
0000
,
0001
0100
1000
0100
0002
0000
1003
0100
,
0010
0000
0000
0000
0001
0000
0100
0000
0010
0000
0000
1000
0000
0000
0001
0000
,
0020
0000
0130
1000
0020
0000
0130
0000
,
0001
0010
1000
0010
0100
0000
0110
0000
,
2002
0000
0000
3003
,
1000
0000
0000
0010
0000
1000
0000
0000
0001
0000
0000
0010
0000
0001
0000
0000
,
1000
0000
0000
0100
0000
1000
0000
0000
0001
0000
0000
0100
0000
0001
0000
0000
,
1000
0000
0000
0010
0000
1000
0000
0000
0100
0000
0000
0010
0000
0001
0000
0000
,
0100
0000
0000
0010
0000
1000
0000
0000
0001
0000
0010
0000
0100
0000
1000
0000
,
0001
0000
0000
0100
0000
0010
0000
0000
1000
0000
0000
0100
0000
0010
0000
0000
,
0001
0000
0000
0010
0000
0100
0000
0000
1000
0000
0000
0010
0000
0100
0000
0000
,
0001
0000
0000
0100
0000
1000
0000
0000
0100
0000
0000
0001
0000
0010
0000
0000
,
0100
0000
0000
1000
0000
0010
0000
0000
0001
0000
0010
0000
1000
0000
0001
0000
,
1000
0100
1000
0100
0000
0000
1000
0001
1000
0001
0000
0000
,
0100
0010
0100
0001
1000
0001
2000
0000
0000
3000
0000
0000
;

//---------------dance-single - ----------------
#NOTES:
     dance-single:
     :
     Easy:
     7:
     0.336539,0.425092,0.339704,0.649869,0.000000,319.000000,273.000000,46.000000,88.000000,0.000000,0.000000,0.336539,0.425092,0.339704,0.649869,0.000000,319.000000,273.000000,46.000000,88.000000,0.000000,0.000000:
0000
0000
0000
0000
,
0000
0000
0000
0000
,
0000
0000
0000
0000
,
0000
0000
0000
0000
,
2000
3010
0200
0301
,
0020
0031
2000
3100
,
0220
0330
2002
3003
,
0110
1001
0110
1001
,
0002
0103
0020
1030
,
0200
1300
0002
0013
,
0020
0031
2000
3010
,
0200
0301
2000
3200
,
0320
0031
2000
3010
,
0200
0301
0020
0130
,
0200
1300
0002
0103
,
0110
0000
0002
2003
,
3010
0010
1000
1001
,
0010
0010
0001
1001
,
0100
0100
0001
1001
,
1000
0000
0000
0001
0000
0000
1000
0000
,
0001
0010
0100
1001
,
1000
0010
0100
1001
,
0001
0010
0100
1001
,
0110
0000
0110
0000
0001
1000
0001
0000
,
0020
0000
0032
0000
,
1003
0000
0001
0000
1000
0001
1000
0000
,
0001
0100
1000
0100
,
0001
0001
1000
1000
,
0200
0000
2300
0000
,
3001
0000
1000
0000
0001
1000
0001
0000
,
1000
0100
1000
0000
0001
0100
0001
0000
,
0020
0230
0320
0130
,
2000
3002
0203
0300
,
0002
1003
2000
3100
,
2000
3002
0023
0030
,
0002
1003
2000
3010
,
0200
0302
2003
3000
,
0002
1003
2000
3100
,
0020
0130
2000
3001
,
0010
1001
0010
1001
,
2002
0000
0000
0000
,
3003
0000
0000
0000
,
0000
0000
0000
0000
,
0200
0000
0000
0310
,
1001
0001
0100
0001
,
1001
1000
0100
1000
,
1010
0010
0100
0001
,
0011
0010
1001
0110
,
1000
0101
1000
0101
,
1000
0101
1100
0000
,
1010
1010
1001
0000
,
0011
0011
1001
0000
,
1000
0000
0001
0000
0000
1000
0000
0000
,
0001
0000
0000
1000
0001
0000
1001
0000
,
0001
0101
1000
1100
,
0002
0023
0230
1300
,
0010
0100
0010
0100
,
0110
1001
0110
1001
,
0002
0000
0203
0000
0320
0000
1030
0001
,
1000
0000
0001
1000
0001
0000
1000
0000
,
2000
0000
3020
0000
0230
0000
0301
1000
,
0001
0000
1000
0001
1000
0000
0001
0000
,
0002
0000
0023
0000
0230
0000
1300
0001
,
1000
0000
0001
1000
0001
0000
0010
0000
,
0200
0010
2300
0010
,
3001
0100
0001
0100
0001
0000
0010
0000
,
2002
0000
0000
3003
,
2000
3010
0200
0301
,
0020
0031
2000
3100
,
0200
1300
0002
0103
,
0020
1030
0002
0023
,
0230
1300
0002
0103
,
0020
1030
0200
0310
,
0020
0031
2000
3010
,
0200
0301
2000
3002
,
1003
1100
0001
0101
,
1000
1010
2002
3003
;
