#TITLE:NegaPosi* Continues;
#SUBTITLE:;
#ARTIST:sasakure.UK;
#TITLETRANSLIT:;
#SUBTITLETRANSLIT:;
#ARTISTTRANSLIT:;
#GENRE:;
#CREDIT:;
#MUSIC:Negaposi-Continues-_Edit_.ogg;
#BANNER:np-banner.png;
#BACKGROUND:np-bg.png;
#CDTITLE:;
#SAMPLESTART:36.024;
#SAMPLELENGTH:19.364;
#SELECTABLE:YES;
#OFFSET:2.157;
#BPMS:0.000=220.000
,40.000=110.000
,42.000=220.000
,106.000=110.000
,114.000=440.000
,115.000=220.000
,272.000=110.000
,288.000=220.000
,324.000=110.000
,352.000=220.000
;
#STOPS:114.000=0.136;
#DISPLAYBPM:110.000:220.000;
#BGCHANGES:;
#FGCHANGES:;

//--------------- dance-single - Evergreen ----------------
#NOTES:
     dance-single:
     Evergreen:
     Beginner:
     6:
     0,0,0,0,0:
0000
0000
0000
0000
,
0000
0000
0000
0000
,
2000
0000
0000
0000
,
0000
0000
0000
0000
,
3002
0000
0000
0000
,
0000
0000
0000
0000
,
1003
0000
0010
0000
,
0100
0000
0001
0000
,
1000
0000
0100
0000
,
0010
0000
0001
0000
,
0000
0000
1000
0010
,
0100
0000
0001
0010
,
0100
0000
1000
0001
,
1000
0000
0001
1000
,
0001
0000
1000
0010
,
1000
0000
0001
0010
,
0001
0000
1000
0010
,
0100
0001
1000
0100
,
0010
0001
1000
0100
,
0010
0000
0001
0100
,
0010
0000
1000
0001
,
0100
0000
0001
1000
,
0100
0000
1000
0100
,
1000
0000
0001
0100
,
0001
0000
1000
0010
,
0100
0010
1000
0100
,
0010
0001
0020
0000
,
0031
0001
2000
0000
,
0010
3010
0000
0001
,
1000
0000
0001
1000
,
0100
0000
0010
0001
,
1000
0000
0010
1000
,
0001
0100
0001
1000
,
0100
0010
0001
0000
,
0001
0000
1000
0010
,
0100
0001
1000
0000
,
1000
0000
0001
0010
,
0100
0010
0001
0000
,
0001
0000
0000
0000
1000
0000
0000
0010
,
0000
0000
0100
0000
0000
0001
0000
0000
,
1000
1000
0001
0100
,
0010
0100
0001
0000
,
0001
0000
1000
0100
,
0010
0100
1000
0000
,
1000
0000
0010
1000
,
0001
0100
0010
0000
,
0010
0000
0000
0000
1000
0000
0000
0010
,
0000
0000
0100
0000
0000
0001
0000
0000
,
1000
0000
0000
0100
0000
0000
0010
0000
,
0010
0000
0010
0000
0000
0001
0000
1000
,
0000
0010
0000
1000
,
0000
0100
0010
0001
,
0000
0010
0000
0001
,
0000
1000
0010
0100
,
0000
0001
0000
1000
,
0000
0001
1000
0001
,
0000
1000
0000
0010
,
0000
0100
0000
0001
,
1000
0100
0000
0010
,
0001
0010
0000
1000
,
0010
1000
0000
0001
,
0100
0000
0000
0001
0000
0000
1000
0000
,
0100
1000
0100
0010
,
0000
0001
0100
0010
,
0000
0000
1000
0000
0000
0010
0000
0000
,
0100
0000
0000
0001
0000
0000
0000
1000
,
0000
0000
0000
0000
0000
0000
0000
0100
,
0000
0000
0000
0000
,
0010
0001
0010
0000
0001
1000
0001
0000
,
1000
0000
0010
0000
1000
0000
0000
0000
0000
0001
0000
1000
0000
0001
0000
0000
,
1000
0100
1000
0000
0001
0100
0001
0000
,
1000
0001
1000
0000
0001
1000
0001
1000
,
0001
0010
0100
0000
,
1000
0010
0100
0000
,
0001
0010
0001
0000
,
1000
0000
0000
0000
0000
0010
0000
0000
0000
0000
0000
0100
0000
0000
0000
0000
,
0001
1000
0010
1000
,
0001
0010
0001
1000
,
0100
0010
0001
0010
,
0100
1000
0010
0100
,
0001
0000
0000
0000
,
1000
0001
0100
0010
1000
0000
1000
0000
,
0001
0010
0100
1000
0001
0000
0001
0000
,
1000
0010
0100
0010
1000
0000
1000
0000
,
0001
0000
0000
0010
0000
0000
0100
0000
0000
1000
0000
0000
0001
0000
0001
0000
,
1000
0100
0010
0100
1000
0000
1000
0000
,
0001
0100
0010
0100
0001
0000
0001
0000
,
0010
0001
1000
0100
0010
0000
0010
0000
,
0001
0000
0000
0010
0000
0000
0100
0000
,
0000
1000
0000
0000
0001
0000
0000
0000
,
1000
0001
1000
0000
,
0010
1000
0010
0000
,
1000
0010
0100
0010
,
1000
0001
1000
0000
,
0001
1000
0001
0000
,
1000
0100
0010
0001
,
0010
0000
0000
0001
0000
0000
0100
0000
,
0000
0010
0000
0000
1000
0000
0010
0000
,
1000
0010
0100
0000
,
0001
0010
0100
0000
,
1000
0010
1000
0010
,
0100
0001
0100
0000
,
0001
1000
0100
0000
,
1000
0001
0100
0000
,
0001
0000
0000
1000
0000
0000
0100
0000
,
0000
0010
0000
0000
0001
0000
0000
1000
,
0000
0010
0010
0010
,
0000
1000
0000
0001
0000
0000
0100
0000
,
0100
0000
0100
0000
0000
0001
0000
1000
,
0000
0001
0001
0001
,
0000
1000
0000
0001
0000
0000
1000
0000
,
1000
0000
1000
0000
0000
0001
0000
1000
,
0000
0200
0000
0000
,
0000
0000
0000
0000
,
0000
0000
0000
0000
,
0000
0000
0000
0000
,
0300
0000
0000
0000
;

//--------------- dance-single - Evergreen ----------------
#NOTES:
     dance-single:
     Evergreen:
     Easy:
     13:
     0,0,0,0,0:
0000
0000
0000
0000
,
0000
0000
0000
0000
,
2000
0000
0000
0000
,
0000
0000
0000
0000
,
3002
0000
0000
0000
,
0000
0000
0000
0000
0000
0000
0000
0003
,
1001
0000
1010
0000
,
0011
0000
1100
0000
,
0101
0000
1010
0000
,
0011
0000
0110
0000
,
1M01
0000
0000
0000
1M00
0000
0010
1000
,
0010
0000
1000
0000
0001
0000
0010
0001
,
0010
0000
0001
0000
1000
0000
0100
1000
,
0100
0000
1000
0000
0001
0000
0100
0001
,
0100
0000
0001
0000
1000
0000
0001
1000
,
0001
0000
1000
0000
0001
0000
1000
0001
,
1000
0000
0001
0000
1000
0100
0010
0001
,
1000
0020
1000
1030
,
0001
0100
0001
1000
0100
0000
0010
0000
,
0001
0010
0001
0000
1000
0000
0010
0000
,
1000
0010
1000
0001
0100
0000
0001
0000
,
0100
0001
0100
0000
0001
0000
1000
0000
,
0100
1000
0100
0010
0001
0000
0010
0000
,
0001
0000
1000
0010
1000
0000
0001
0000
,
1000
0001
0100
0001
1000
0100
1000
0001
,
0000
1000
0001
0000
1000
0000
0010
0000
,
0100
0001
0M20
1000
,
0001
0000
1030
0010
0002
0000
1000
0000
,
0100
0000
1003
0001
1M00
0000
001M
0000
,
0100
0001
0100
0000
0001
0000
0010
0000
,
0100
1000
0100
0000
1000
0000
0010
0000
,
0100
0000
0001
0000
1000
0100
0010
0001
,
1000
0010
0100
0001
2000
0000
0010
0000
,
0100
0000
3010
0000
1000
0010
1000
0000
,
0001
0010
0001
0010
0002
0000
0010
0000
,
0100
0000
0013
0000
0001
0010
0001
0000
,
1000
0100
1000
0010
2000
0000
0010
0000
,
0100
0000
3010
0000
1000
0100
0010
0100
,
1000
0000
0001
0000
0100
0001
0100
0001
,
0000
1000
0100
1000
0100
1000
0000
0000
,
0001
0100
0002
0010
,
1000
0000
0013
0000
0001
0010
0001
1000
,
0100
0000
1000
0010
2000
0000
0010
0000
,
0001
0000
3010
0000
1000
0010
0100
0001
,
0010
0000
0001
1000
0002
0000
0010
0000
,
2003
0000
0010
0000
3001
1000
0001
0000
,
1000
0001
1000
0000
0001
0010
0001
1000
,
0001
1000
0010
1000
0010
0100
0001
0100
,
0001
1000
0001
1000
0100
1000
0001
0010
,
0001
0010
0000
0001
0000
0010
0000
0011
,
0000
0000
1000
0010
0100
0010
1000
0000
,
0001
0000
1000
0100
0010
0100
1000
0000
,
0001
0000
1000
0010
0100
0001
1000
0000
,
0001
0000
1000
0100
1000
0000
0001
0100
,
0001
0000
1000
0010
0100
0001
0010
0000
,
0001
0000
0010
0001
0010
0100
1000
0000
,
0010
1000
0010
0000
0000
0100
0000
0000
,
0001
0000
0010
0001
0010
0000
0001
1000
,
0001
1000
0001
0100
0001
0000
1000
0100
,
1000
0000
0001
0100
0010
1000
0100
0010
,
0001
0000
1000
0001
1000
0000
0001
1000
,
0001
0000
1000
0000
0010
0000
0100
0000
0001
0000
1000
0000
,
0010
1000
0001
0100
0001
0000
1000
0100
,
1000
0000
0001
0010
0001
0010
0100
1000
,
0010
0000
1000
0010
1000
0010
0000
0000
,
0100
0001
0100
0001
0000
0010
0000
0011
,
0000
0000
0000
0000
0000
0000
0000
1010
,
0000
0000
0000
0000
,
M110
0100
0001
0010
0001
1000
0010
1000
,
0001
0000
0100
0001
0100
0000
0001
0000
1000
0100
0000
0010
0000
0001
0000
0010
,
0001
1000
0010
0100
0001
1000
0100
1000
,
0001
0000
0100
0000
0001
0000
1000
0000
0010
1000
0010
1000
0001
1000
0001
1000
,
0M01
0000
0010
0001
0010
0000
0001
0000
,
1000
0000
0010
1000
0010
0000
1000
0000
,
0001
0000
0100
0001
0100
0000
0001
0000
,
1000
0000
0000
0000
0000
0001
0000
0000
0000
0000
0000
1000
0000
0000
0000
0000
,
0001
0100
0001
1000
0100
1000
0010
0100
,
0001
0010
0100
1000
0100
0010
0100
1000
,
0001
0100
0010
0100
0001
1000
0010
1000
,
0001
0010
0001
1000
0100
0010
0001
1000
,
0001
0000
0000
0000
,
10M0
0001
0100
0010
1000
0000
1000
0000
,
0001
0010
0100
1000
0001
0000
0001
0000
,
1000
0010
0100
0010
1000
0000
1000
0000
,
0001
0000
0000
0010
0000
0000
0100
0000
0000
1000
0000
0000
0001
0000
0001
0000
,
1000
0100
0010
0100
1000
0000
1000
0000
,
0001
0100
0010
0100
0001
0000
0001
0000
,
0010
0001
1000
0100
0010
0000
0010
0000
,
010M
1000
0100
1000
0000
0001
0100
0001
,
0100
0001
0000
0000
1000
0000
0100
0000
,
0010
0001
0010
0000
0001
1000
0001
0000
,
1000
0010
1000
0000
0001
0100
0001
0000
,
1000
0100
0010
0100
1000
0000
0001
0000
,
1000
0010
0100
0010
1000
0000
0001
0000
,
1000
0010
1000
0000
0010
0100
0010
0000
,
0100
0001
0100
0000
0001
0010
0001
0000
,
1000
0100
0010
0001
0000
1000
0010
0100
,
0001
0000
1000
0001
0100
0010
0100
0001
,
1000
0100
1000
0000
0001
0100
0001
0000
,
1000
0010
1000
0000
0001
0010
0001
0000
,
1000
0010
0100
0001
0010
0001
1000
0100
,
0010
0100
1000
0010
0100
0001
0100
0010
,
1000
0001
1000
0000
0001
1000
0001
0000
,
1000
0010
0100
0001
0010
0100
1000
0100
,
1000
0010
1000
0001
1000
0001
0010
0001
,
0010
0100
1000
0100
1000
0001
1000
0001
,
0100
0001
1000
0010
1000
0010
0000
1000
,
0000
0010
0000
1010
0000
0000
0001
0010
,
0001
0010
0000
0001
0000
0010
0000
0011
,
0000
0000
1000
0100
1000
0100
0000
1000
,
0000
0100
0000
1100
0000
0000
0001
0100
,
0001
0100
0000
0001
0000
0100
0000
0101
,
0000
2002
0000
0000
,
0000
0000
0000
0000
,
0000
0000
0000
0000
,
0000
0000
0000
0000
,
3003
0000
0000
0000
;

//--------------- dance-single - Evergreen ----------------
#NOTES:
     dance-single:
     Evergreen:
     Medium:
     15:
     0,0,0,0,0:
0000
0000
0000
0000
,
0000
0000
0000
0000
,
2000
0000
0000
0000
,
0000
0000
0000
0000
,
3200
0000
0000
0000
,
0000
0000
0000
0000
,
0310
0001
1000
0001
0100
0010
1000
0100
,
0010
0001
1000
0010
0100
0010
1000
0001
,
0100
0000
0001
0000
1000
0000
0100
0000
0010
0000
0001
0000
,
1000
0000
0010
0000
1000
0000
0001
0000
0010
0000
0001
0000
,
1M00
0001
1000
0000
0001
1000
0001
0000
1M00
0000
0010
0000
1000
0000
0010
0000
,
0000
0100
0000
0001
0000
0010
0001
0010
,
0001
0010
0100
1000
0000
0010
1000
0010
,
0100
0001
0100
0001
0000
0010
0001
0010
,
0100
1000
0001
0020
0030
0010
0001
1000
,
0010
2000
3000
1000
0010
1000
0001
0100
,
0010
1000
0100
0010
0001
1000
0001
0010
,
0100
1000
0010
0000
0100
0001
1000
0100
,
0010
0001
1000
0010
0100
0001
1000
0001
,
0000
1000
0001
1000
0000
0010
1000
0001
,
0010
0100
0010
0001
0000
0010
0001
0010
,
0001
2000
3000
1000
0001
0100
0001
0010
,
0100
0010
0001
1000
0100
1000
0001
1000
,
0000
0001
1000
0001
0000
1000
0100
0010
,
0001
0100
0010
0100
0001
1000
0100
1000
,
0001
0010
0100
1000
1100
0000
1001
0000
,
0101
0000
0000
0000
1001
0000
0000
0000
2M10
0000
0000
0000
3001
0010
0100
0010
,
0002
0000
0000
0000
1003
0010
0100
0010
2000
0000
0000
3001
0020
0000
0000
0030
,
0100
0000
1000
0001
0100
0010
1000
0001
M010
0000
0000
0000
010M
0000
0000
0000
,
1000
0001
0100
0010
1000
0001
1000
0001
,
0010
0100
1000
0001
0010
0100
0010
0001
,
0100
0001
0010
0100
1000
0001
1000
0001
,
1000
0001
1000
0001
1000
0000
0001
0000
2000
0000
0000
0000
0010
0000
0000
0000
,
0100
0000
3001
2000
3000
1000
0001
1000
,
0001
0010
0100
1000
0002
0000
0010
0000
,
0100
0000
1003
0020
0030
0010
1000
0001
,
1000
0100
0010
0001
2000
0000
0010
0000
,
0100
0000
3001
0200
0300
0100
0001
0010
,
0001
1000
0100
1000
0001
0010
0001
0100
,
0000
0001
0100
0001
1000
0100
0000
1000
,
0010
0000
0000
0000
0100
0000
0000
0000
0002
0000
0000
0000
0010
0000
0000
0003
,
1000
0010
1000
0002
0003
0001
1000
0100
,
1000
0000
1000
0001
2000
0000
0010
0000
,
3001
1000
0010
2000
3000
1000
0010
0100
,
0001
0100
0010
1000
0002
0000
0010
0003
,
0200
0000
1300
0200
0300
0100
1000
0001
,
0100
0001
0010
0001
1000
0010
1000
0001
,
0010
0001
1000
0100
1000
0001
0100
0001
,
1000
0010
0100
0001
0100
0010
1000
1000
,
1000
1000
0000
1000
0000
0001
0000
0010
,
0001
1000
1001
0001
0100
0010
1000
0001
,
0010
0200
0300
0100
0010
0001
1000
0001
,
0100
0020
0030
0010
0100
0001
0010
0100
,
1000
0020
0030
0010
1000
0100
0010
0001
,
1000
0020
0030
0010
1000
0100
1000
0001
,
0100
0002
0003
0001
0100
0001
1000
0100
,
1000
0000
0001
0100
0001
0000
1000
0000
0100
0000
0010
0000
0000
0000
0001
0000
,
1000
0200
1000
0000
0000
1000
0000
0000
,
1300
0000
0001
0010
0001
0010
0001
1000
,
0010
0000
1000
0000
0010
0000
1000
0000
0001
0000
0100
0000
0010
1000
0010
0000
,
0100
0001
1000
0100
0010
0100
1000
0100
,
0010
0000
0001
0000
1000
0000
0010
0000
0100
0000
0001
0000
,
1000
0010
1000
0010
1000
0001
0010
0001
,
0010
0000
0001
0000
1000
0000
0100
0000
0010
0001
0010
0000
0100
0000
1000
0000
,
0001
0100
0001
1000
0100
1000
0000
0001
,
0010
0001
1000
0010
1000
0001
0000
1001
,
0000
1000
0001
1000
0001
0000
0000
0110
,
0000
0100
0010
0100
0010
0000
0000
0000
,
1M01
0000
1000
0010
0000
1000
0000
0001
1000
0000
0100
0000
0010
0000
0001
0000
,
1000
0010
0100
0010
1000
0000
0001
0100
0001
1000
0000
0001
0000
1001
0000
1000
,
0100
0000
0010
0001
0000
1000
0000
0010
0100
0000
0001
0000
1000
0000
0100
0000
,
1000
0000
0001
0000
0100
0001
0100
0000
0001
1000
0100
0010
0001
1000
0010
0100
,
00M1
1000
0001
0010
0100
1000
0020
0030
,
0010
1000
0001
1000
0100
0010
0002
0003
,
0001
0010
0100
1000
0010
0100
0010
1000
,
0001
0000
0000
0000
0000
1000
0000
0000
0000
0000
0000
0001
0000
0000
0000
0000
,
1000
0010
0100
0001
1000
0100
0010
0001
,
0010
0100
1000
0001
0100
0010
1000
0001
,
0100
0010
0100
0001
1000
0100
0010
0100
,
1000
0000
0001
0000
0100
0001
0100
0000
0001
0000
1000
0000
0100
1000
0100
0000
,
1000
0000
0000
0000
,
M002
0000
0010
0000
0100
0000
0013
0000
0001
0010
0001
0000
1000
0010
1000
0010
,
2000
0000
0010
0000
0100
0000
3010
0000
1000
0010
1000
0000
0001
0100
0001
0010
,
0002
0000
0010
0000
0100
0000
0013
0000
0001
0100
0010
0100
0001
0000
1000
0000
,
0100
1000
0100
1000
0000
0001
0100
0001
0100
0001
0000
0000
1000
0000
0100
0000
,
2000
0000
0010
0000
0001
0000
3010
0000
1000
0010
1000
0001
0100
0000
0001
0010
,
0002
0000
0010
0000
1000
0000
0013
0000
0001
0010
0100
1000
0010
0000
1000
0001
,
2000
0000
0010
0000
3002
0000
0010
0000
1003
0001
1000
0000
0001
1000
0001
0000
,
1M00
0010
1000
0100
0000
1000
0100
1000
,
0001
0100
0000
0001
0010
0000
0100
1000
,
0001
0100
0010
1000
0010
0100
0001
1000
,
0100
0010
0100
1000
0001
0100
0001
1000
,
1001
0000
1100
0000
0011
0000
0001
0010
,
0001
0000
1000
0010
1000
0001
0100
0001
,
1000
0100
0010
0001
0010
0100
1000
0010
,
0100
0001
0100
0010
1000
0001
1000
0100
,
1000
0001
0020
0030
0010
0001
1000
0001
,
0100
0000
0000
0010
0000
0000
1000
0000
0000
0010
0000
0000
0100
0000
0000
0001
0000
0000
0010
0000
0001
0000
0010
0000
,
0001
0010
0001
1000
0010
0100
0001
1000
,
0100
1000
0001
0100
0010
0100
0001
1000
,
0100
0010
0110
0000
1100
0000
1000
0010
,
0100
0001
1000
0100
0010
0001
1000
0010
,
0200
0001
0310
1000
0001
0100
0010
0100
,
0002
0010
1003
0100
1000
0010
0100
0010
,
1000
0100
0010
0100
0010
0001
1000
0010
,
0100
0010
0100
0001
1000
0100
1000
0001
,
0100
0001
1000
1000
1000
1000
0000
0001
,
0000
1000
0000
0001
0010
0000
0001
0001
,
0001
0001
0000
1000
0000
0001
0000
0010
,
0001
1000
0010
0010
0010
0010
0000
1000
,
0000
0001
0000
0100
0000
0001
0100
0100
,
0100
0100
0000
0010
0000
0001
0100
0010
,
1000
0001
2002
0000
0000
0000
0000
0000
,
0000
0000
0000
0000
,
0000
0000
0000
0000
,
0000
0000
0000
0000
,
3003
0000
0000
0000
;

//--------------- dance-single - Evergreen ----------------
#NOTES:
     dance-single:
     Evergreen:
     Hard:
     17:
     0,0,0,0,0:
0000
0000
0000
0000
,
0000
0000
0000
0000
,
0001
0100
0010
1000
0001
0010
0100
0010
,
0001
1000
0010
0100
0001
1000
0010
1000
,
0001
0010
0100
0010
0001
1000
0100
0010
,
0100
1000
0001
0100
0001
1000
0020
1000
,
0130
0001
2000
0010
3001
0010
0200
1000
,
0310
0001
0200
0010
0301
1000
0100
0010
,
0001
0010
0001
1000
0010
1000
0001
0100
0001
1000
0100
0010
,
0001
1000
0010
0100
0001
1000
0100
0010
0100
1000
0001
0100
,
M001
0100
0100
0000
0001
1000
1000
0000
00M1
0000
0100
0000
0001
0000
2000
0000
,
0000
0010
0000
3001
0000
0010
0001
1000
,
0010
0100
0001
0010
0000
0100
0000
2000
,
0100
3001
0100
0001
0000
1000
0001
1000
,
0010
0100
0001
0010
0000
0100
1000
0000
,
0002
0010
1003
0010
0100
0001
1000
0100
,
0010
0001
0100
0010
2000
0010
3002
0010
,
1003
0000
0002
0000
0000
0010
0013
0001
,
1000
0000
0001
1000
1001
0001
0100
0001
,
0000
1000
0100
1000
0000
0010
0100
0001
,
0020
0100
0031
1000
0100
0010
0001
0100
,
0001
0001
0000
1000
0010
0100
0001
1000
,
0020
0100
1030
0001
1000
0100
0010
0001
,
0000
0010
0001
1000
0000
0010
1000
0100
,
0020
0100
0031
1000
0002
0100
2003
0100
,
3001
1000
0001
0010
0011
0000
1010
0000
,
0101
0000
0000
0000
1100
0000
0000
0000
M011
0000
0001
0010
0001
1000
0100
0010
,
0000
0001
1000
0010
0100
0001
1000
0100
0020
0000
0000
0032
0000
0000
2003
0000
,
3001
1000
0001
1000
0001
0010
0100
1000
00M1
0000
0000
0000
1M00
0000
0010
0000
,
0200
0001
0310
1000
0100
0010
0002
0010
,
1003
0010
0100
0001
0101
0000
0101
0000
,
1100
0000
1100
0000
1000
0010
0100
0001
,
1000
0100
1000
0001
0100
0001
2000
0000
0000
0010
0000
0000
,
0100
0000
3001
1000
0001
1000
0100
1000
,
0010
1000
0001
0100
0002
0000
0010
0000
,
0100
0000
1003
0100
0010
0001
0100
0010
,
1000
0100
0010
0001
2000
0000
0010
0000
,
0100
0000
3001
0100
0010
1000
0001
0010
,
0001
1000
0001
0100
0001
1000
0001
0100
,
0000
0001
0100
0001
1000
0100
0000
1000
,
0001
0000
0000
0000
0010
0000
0000
0000
0001
0000
0000
0000
1000
0000
0000
0000
0010
0000
0000
0000
1000
0000
0000
0000
0002
0000
0000
0000
0000
0000
0000
0000
0000
0000
0000
0000
0010
0000
0000
0000
0000
0000
0000
0000
0000
0003
0000
0000
,
1000
0010
1000
0001
0010
0100
1000
0100
,
0010
0001
0010
0100
2000
0000
0010
0000
,
3001
1000
0010
1000
0010
0100
0001
0100
,
0010
1000
0100
0010
0002
0000
0010
0013
,
0200
0000
1300
0100
1000
0001
0100
0010
,
1000
0001
1000
0000
0001
0000
0010
0000
0001
0000
1000
0000
0100
0000
1000
0000
,
0010
0100
0001
0010
0100
1000
0010
0100
,
0001
0010
0100
0010
0001
0010
0011
0011
,
0011
0011
0000
1001
0000
1010
0000
1100
,
1000
0001
1001
1000
0010
1000
0001
1000
,
0100
1000
0000
0001
0100
0001
0010
0001
,
1000
1000
0010
1000
0001
1000
0100
1000
,
0001
0100
0000
0001
0010
0001
1000
0100
,
1000
0010
0100
0001
1000
0001
0100
0001
,
0010
0001
0000
1000
0100
1000
0010
1000
,
0001
1000
0001
0000
1000
0000
0100
0000
0010
0000
0001
0000
0000
0000
1000
0000
,
0020
0000
0100
0000
0000
0100
0000
0000
,
0100
0000
1030
0010
2000
0010
3001
1000
,
0010
0000
1000
0000
0001
0000
0100
0000
0010
0000
1000
0000
0010
1000
0010
0000
,
1000
0100
1000
0010
2000
0100
3001
0100
,
0001
0000
1000
0000
0100
0000
0010
0000
0001
0000
1000
0000
,
0001
0100
0001
1000
0010
1000
0002
0010
,
1003
0000
0001
0000
0010
0000
0100
0000
0010
0000
0001
0000
0010
0001
0010
0000
,
0001
0100
0010
1000
0100
1000
0000
0001
,
0010
0001
0100
0001
0000
0101
0000
0011
,
0000
0001
1000
0001
0100
0010
1000
1010
,
0000
1000
0001
0010
0100
1000
0001
0100
,
001M
0000
1000
0010
0100
0010
1000
0000
0001
0000
0100
0000
0010
0000
1000
0000
,
0001
0010
0100
0010
0001
0000
1000
0100
1000
0001
0000
1000
0000
1001
0000
0001
,
0100
0000
0010
1000
0000
0001
0000
0010
0100
0000
1000
0000
0001
0000
0100
0000
,
0001
0000
1000
0000
0100
1000
0100
0000
1000
0001
0100
0010
1000
0001
0010
0100
,
100M
0100
1000
0001
0000
1000
0001
0100
,
0010
1000
0001
0010
0100
0010
0001
1000
,
0100
1000
0001
0100
0000
0010
1000
0001
,
1001
0000
0000
0000
0000
1010
0000
0000
0000
0000
0000
0011
0000
0000
0000
0000
,
0010
0000
0001
0000
0010
0000
0100
0000
1000
0000
0010
0000
1000
0000
0010
1000
,
0010
0000
1000
0000
0001
0000
0010
0000
0100
0000
0010
0000
0001
0000
1000
0001
,
1000
0001
0100
0010
1000
0001
0010
0100
,
1000
0100
1000
0100
0010
0001
0010
0001
1000
0010
1000
0010
0100
0001
0100
0001
,
1000
0000
0000
0000
,
M002
0000
0010
0000
0100
0000
1003
0001
0000
0001
1000
0001
1000
0010
0100
0001
,
2000
0000
0010
0000
0100
0000
3001
0010
0000
0010
0001
1000
0001
0100
0010
1000
,
0002
0000
0010
0000
0100
0000
1003
0100
0000
0100
1000
0010
1000
0001
0100
0001
,
1000
0010
1000
0100
0000
1000
0100
1000
0001
0100
0000
0001
0010
0000
0100
0000
,
2000
0000
0000
0000
0010
0000
0000
3000
0001
0000
0010
0000
0001
0000
1000
0000
0000
0000
1000
0000
0001
0000
0100
0000
0001
0000
0000
0000
0001
0000
1000
0000
,
0002
0000
0010
0000
1003
0001
0010
0001
0000
0001
0010
0100
1000
0100
0010
0001
,
2000
0000
0010
3000
0200
0000
0301
0100
0000
0100
0001
1000
0100
1000
0010
1000
,
0M01
1000
0001
0100
0000
0001
0100
0001
,
1000
0000
0000
0100
0000
0000
0000
0000
0000
1000
0000
0000
0001
0000
0010
0000
0001
0000
1000
0000
0010
0000
1000
0000
,
0002
0010
2003
0010
3001
0100
0001
0010
,
0100
0000
1000
0000
0010
1000
0010
0000
1000
0000
0001
0000
0010
0001
0010
0000
,
0001
0010
0100
1000
0001
0100
0001
1000
,
0010
0100
0001
1000
0100
1000
0001
1000
,
0002
0100
2003
0100
3001
0100
0010
0100
,
0001
0000
1000
0000
0100
1000
0100
0000
1000
0000
0001
0000
0100
0001
0100
0000
,
0001
0010
0100
1000
0000
0001
1000
0010
,
0100
0000
0000
0001
0000
0000
0000
0000
0000
1000
0000
0000
0001
0000
0000
0100
0000
0000
0001
0000
1000
0000
0001
0000
,
2000
0010
3200
0010
1300
0001
0100
0010
,
0100
0000
0001
0000
1000
0100
1000
0000
0001
0000
1000
0000
0001
0100
0001
0000
,
0010
0100
0010
0001
0100
0010
1000
0100
,
0010
0000
0100
0000
1000
0000
0001
0000
0100
0000
0010
0000
1000
0001
1000
0000
,
0002
0010
0203
0010
0301
0100
0010
1000
,
0001
0000
1000
0000
0100
0010
0100
0000
1000
0000
0001
0000
0100
0010
0100
0000
,
0001
0010
0001
1000
0100
1000
0010
0100
,
0001
0010
0100
1000
0010
1000
0001
0010
,
0100
1000
1100
1100
1100
1100
0000
1001
,
0000
0101
0000
0011
0011
0000
0101
0101
,
0101
0101
0000
1001
0000
1010
0000
1100
,
1100
0000
1010
1010
1010
1010
0000
1001
,
0000
0011
0000
0101
0101
0000
0011
0011
,
0011
0011
0000
1001
0000
1010
0000
0110
,
0110
2002
0000
0000
,
0000
0000
0000
0000
,
0000
0000
0000
0000
,
0000
0000
0000
0000
,
3003
0000
0000
0000
;

//--------------- dance-single - Evergreen ----------------
#NOTES:
     dance-single:
     Evergreen:
     Challenge:
     18:
     0,0,0,0,0:
0000
0000
0000
0000
,
0000
0000
0000
0000
,
0001
0100
0010
1000
0001
0010
0100
0010
,
0001
1000
0010
0100
0001
1000
0010
1000
,
0001
0010
0100
0010
0001
1000
0100
0010
,
0100
1000
0001
0100
0001
1000
0010
1000
,
1010
0010
1000
0001
1001
1000
0001
0010
,
0011
0001
1000
0100
1100
1000
0010
1000
,
0001
0010
0001
0100
0010
1000
0001
0010
0100
1000
0001
0010
,
0100
0010
0001
1000
0010
0100
0010
1000
0001
0100
0010
1000
,
001M
1000
0010
1000
0100
1000
0001
0100
M001
0000
0100
0000
0001
0000
0200
0000
,
0000
1000
0000
0301
0000
0010
0001
1000
,
0010
0100
0001
0010
0000
0100
0000
2000
,
0100
3002
0100
1003
0000
0001
1000
0001
,
0010
0100
1000
0010
0000
0100
0001
0000
,
2000
0010
3002
0010
1003
0100
0010
0001
,
1000
1000
0010
0100
0001
0010
1000
0010
,
0001
0000
2000
0000
0000
0010
3010
1000
,
0001
0000
1000
0001
1001
1000
0010
0100
,
0001
0000
1000
0000
0001
0010
0001
0000
0000
0000
0010
0000
0100
0000
1000
0000
,
0010
1000
0010
0000
0100
0000
0001
0000
0100
0000
0010
0000
1000
0000
0100
0000
,
0010
0001
0010
0000
0001
0000
1000
0000
0010
0000
0100
0000
0001
0000
1000
0000
,
0010
1000
0010
0000
0100
0000
0001
0000
1000
0000
0100
0000
0010
0000
0001
0010
,
0001
1000
0010
1000
0000
0001
0010
0001
,
1000
0000
0010
0000
1000
0001
1000
0000
0100
0000
0010
0000
0001
0000
1000
0000
,
0010
0100
0001
1000
1001
0001
0011
0010
,
0110
0000
0100
0000
1100
0000
1000
0000
101M
0010
2000
0010
3001
2000
0100
3001
,
1000
0100
1000
0001
0010
0100
1000
0010
0100
0002
0010
1003
0002
0100
1003
0001
,
0100
0001
1000
0100
1000
0010
0100
0001
M101
0000
0000
0000
M011
0000
0001
0000
,
0010
1000
0010
0001
0000
1000
0001
0100
,
0010
0001
0010
1000
0001
0000
0001
0000
,
1000
0000
1000
0000
0001
1000
0100
1000
,
0001
0010
0001
1000
0010
1000
0002
0000
0000
0010
0000
0000
,
0100
0000
1003
0100
1000
0010
0100
0001
,
0010
0001
1000
0100
2000
0000
0010
0000
,
0100
0000
3001
0100
0010
1000
0100
0010
,
0001
1000
0001
0100
0002
0000
0010
0000
,
0100
0000
1003
0100
0010
0001
1000
0010
,
0100
0000
0001
0000
0100
0001
0100
0000
0001
0000
1000
0000
0100
0000
1100
0000
,
0000
1000
0001
0100
0001
0101
0000
1000
,
0001
0010
0001
1000
0010
1000
0020
0000
0000
0001
0000
0000
,
1030
0010
1000
0001
0010
0100
1000
0010
,
0100
0001
0100
0000
0001
0000
1000
0000
0200
0000
0000
0000
0001
0000
0000
0000
,
1300
0001
0010
0001
0010
0100
1000
0100
,
0010
0001
0100
0010
2000
0000
0010
3010
,
0200
0000
0301
0100
0001
1000
0100
0010
,
0001
1000
0001
0000
1000
0000
0010
0000
1010
0000
0001
0000
0010
0000
0011
0000
,
1000
0100
1100
0001
0100
0101
1000
0001
,
1001
1000
0100
1100
1000
0010
1010
1010
,
1010
1010
0000
1001
0000
0011
0000
1001
,
0001
0010
0011
0001
1000
1000
0100
0100
,
0010
0010
0000
0100
0100
0010
0020
0100
,
0031
1000
0000
1000
0001
0001
0100
0100
,
0010
0010
0000
0100
0100
0010
0020
0100
,
1030
0001
0000
1000
0100
0010
0001
1000
,
0010
0010
0000
1000
0010
0100
0001
1000
,
0100
0010
0001
0010
0100
0000
1000
0010
1000
0000
0001
0000
0000
0000
1000
0000
,
0010
0100
0001
0000
1000
0001
1000
0000
,
0001
0000
0011
0001
0010
0100
1000
0001
,
0100
0000
0000
1000
0000
0000
0100
0000
0000
0001
0000
0000
0010
0000
0000
0100
0000
0000
1000
0000
0001
0000
1000
0000
,
0001
0010
0100
1000
0001
0100
0010
0100
,
0110
0000
1010
0000
0011
0000
1100
0000
0101
0000
1001
0000
,
0001
1000
0010
1000
0100
0010
0001
1000
,
0100
0000
0000
0001
0000
0000
0100
0000
0000
1000
0000
0000
0010
0000
0000
0100
0000
0000
0001
0000
1000
0000
0001
0000
,
1000
0010
0100
0001
0100
0101
0000
1000
,
0001
1000
0100
1100
0000
0011
0000
1010
,
0000
0000
1000
0000
0010
0000
0100
0000
0001
0000
0010
0000
0100
1000
0100
0000
,
0000
1000
0001
0010
0100
1000
0001
0100
,
001M
0000
1000
0010
0000
1000
0000
0001
0010
0001
0010
0100
1000
0000
0001
0000
,
0100
0000
0010
1000
0010
0000
1000
0001
1000
1001
0000
1010
0000
0011
0000
0001
,
0010
0000
0001
1000
0001
0000
1000
0100
1000
0000
0001
0000
0100
0000
0010
0000
,
0100
0000
0001
0100
0001
0000
1000
0000
0100
0010
0001
1000
0010
0100
0001
0010
,
M001
0010
0100
2000
0010
0000
3001
0100
,
0010
0100
0001
2000
0100
0000
3001
1000
,
0100
1000
0001
0100
0010
1000
0001
0010
,
0011
0000
0000
0000
0000
1010
0000
0000
0000
0000
0000
0101
0000
0000
0000
0000
,
1000
0010
1000
0000
0001
0000
0010
0000
0100
0000
1000
0000
0010
0000
0100
0000
,
0001
0010
0001
0000
1000
0000
0010
0000
0100
0000
0001
0000
1000
0000
0100
0000
,
0010
0000
0001
0000
1000
0010
1000
0000
0001
0000
1000
0000
0001
0010
0001
0000
,
1000
0100
0010
0001
1000
0010
0100
0001
1000
0100
1000
0001
0100
0010
1000
0001
,
1000
0000
0000
0000
0000
0000
0001
1000
0100
0010
0001
1000
,
0M02
0000
0010
0000
0100
0000
1003
0001
1000
0001
0100
0001
0010
0001
1000
0100
,
2000
0000
0010
0000
0100
0000
3001
0100
0010
1000
0100
0010
0001
0100
0010
1000
,
0002
0000
0010
0000
0100
0000
1003
0100
0010
0001
1000
0010
1000
0001
1000
0100
,
1000
0000
0000
0001
0000
0000
1000
0000
0000
0100
0000
0000
0000
0000
0000
1000
0000
0000
0100
0000
0000
1000
0000
0000
0001
0000
0000
0100
0000
0000
0000
0000
0000
0001
0000
0000
1000
0000
0010
0000
1000
0000
0001
0000
0010
0000
0001
0000
,
2000
0000
0000
0000
0010
0000
0000
3000
0001
0000
0010
0000
0001
0000
1000
0000
0010
0000
0100
0000
0001
0000
0100
0000
0010
0000
1000
0000
0010
0000
0100
0000
,
0002
0000
0010
0000
1003
0001
0010
0001
0010
0100
1000
0100
0010
0001
0100
0010
,
2000
0000
0000
0000
0010
0000
3010
0000
0200
0000
0000
0000
0301
0000
0100
0000
0001
0000
1000
0000
0100
0000
0010
0000
0001
1000
0001
0000
1000
0000
0010
0000
,
1M10
1000
0001
1001
0000
1000
0001
0010
,
0001
0000
0011
0000
0001
0000
1000
0000
0001
0010
0100
1000
0001
0100
0010
1000
,
0002
0000
0010
0000
2003
0000
0010
0000
3001
0000
0100
0000
0010
1000
0010
0000
,
1000
0000
0001
0000
0010
0000
0100
1000
0100
0000
1000
0000
0001
0000
0010
0000
,
0100
0000
1000
0000
0001
0000
0100
0000
0010
0000
0100
0000
0001
0000
0010
0100
,
0010
0000
0001
0000
1000
0000
0010
0000
0100
0000
0010
0000
1000
0010
1000
0000
,
0002
0000
0100
0000
2003
0000
0100
0000
3001
0000
0010
0000
0001
0010
0001
0000
,
1000
0000
0010
0000
0100
0000
0001
0100
0001
1000
0100
1000
0010
0000
1000
0000
,
1010
1000
0001
1001
0000
0001
0101
0100
,
0001
0000
0000
1001
0000
0000
1000
0000
0000
0001
0000
0000
1001
0000
0000
0000
0001
0000
0010
0000
0100
0000
1000
0000
,
0020
1000
2030
0100
3002
0010
2003
0010
,
3001
0000
0100
0000
0010
0000
1000
0010
1000
0000
0001
0000
0010
0001
0010
0000
,
0100
0000
1000
0000
0001
0100
0001
0000
0010
0000
0100
0000
1000
0100
1000
0000
,
0001
0000
1000
0000
0001
0010
0001
0000
1000
0010
1000
0000
0001
1000
0001
0000
,
0020
0001
0032
0100
2003
0010
3002
0010
,
1003
0000
0100
0000
0010
0000
0100
0000
1000
0010
1000
0000
0001
0010
0001
0000
,
1000
0100
1100
0001
0100
0101
1000
0010
,
1010
0001
0010
0011
1000
0001
1001
1000
,
0001
0100
0101
0101
0101
0101
0000
1001
,
0000
1100
0000
1010
1000
0100
1100
1100
,
1100
1100
0000
1001
0000
0101
0000
0011
,
0001
1000
1010
1010
1010
1010
0000
1001
,
0000
0011
0000
0101
0001
0010
0011
0011
,
0011
0011
0000
1001
0000
1100
0000
1001
,
0001
1000
2002
0000
0000
0000
0000
0000
,
0000
0000
0000
0000
,
0000
0000
0000
0000
,
0000
0000
0000
0000
,
0000
3003
0000
0000
;
