#TITLE:NaHaNaHa vs. Gattchoon Battle;
#SUBTITLE:;
#ARTIST:DJ Senda & Tiny-K;
#TITLETRANSLIT:;
#SUBTITLETRANSLIT:;
#ARTISTTRANSLIT:;
#GENRE:DJ BATTLE;
#CREDIT:;
#BANNER:NaHaNaHa vs. Gattchoon Battle.png;
#BACKGROUND:NaHaNaHa vs. Gattchoon Battle-bg.png;
#LYRICSPATH:NaHaNaHa vs. Gattchoon Battle.lrc;
#CDTITLE:cdtitle.png;
#MUSIC:NaHaNaHa vs. Gattchoon Battle.ogg;
#OFFSET:-0.027000;
#SAMPLESTART:38.716999;
#SAMPLELENGTH:15.000000;
#SELECTABLE:YES;
#DISPLAYBPM:124.000000:163.000000;
#BPMS:0.000000=124.000000
,109.000000=126.999992
,111.000000=138.000000
,113.000000=144.000000
,115.000000=161.000000
,117.000000=163.000000
,217.000000=81.500000
;
#STOPS:20.000000=1.451612
;
#BGCHANGES:-0.500=NaHaNaHa vs. Gattchoon Battle.avi=1.000=0=0=0=StretchNoLoop==CrossFade_Fastest==,
99999=-nosongbg-=1.000=0=0=0 // don't automatically add -songbackground-
;
#KEYSOUNDS:;
#ATTACKS:;

//---------------dance-single - Daff_4K----------------
#NOTES:
     dance-single:
     Daff_4K:
     Beginner:
     4:
     0.131362,0.178705,0.029038,0.000000,0.000000,95.000000,92.000000,3.000000,0.000000,0.000000,0.000000,0.131362,0.178705,0.029038,0.000000,0.000000,95.000000,92.000000,3.000000,0.000000,0.000000,0.000000:
// measure 0
0000
0000
0000
0000
,  // measure 1
0000
0000
0000
0000
,  // measure 2
0000
0000
0000
0000
,  // measure 3
0010
0000
0000
0100
,  // measure 4
0100
0000
0000
0000
,  // measure 5
1001
0000
0000
0000
,  // measure 6
0000
1000
0000
0010
,  // measure 7
0000
1000
0000
0000
,  // measure 8
0000
0001
0000
0010
,  // measure 9
0000
0001
0000
0000
,  // measure 10
0000
1000
0000
0000
,  // measure 11
1001
0000
0000
0000
,  // measure 12
0000
0001
0001
0000
,  // measure 13
1000
0000
0100
0100
,  // measure 14
0100
0000
0000
0000
,  // measure 15
0010
0000
0000
0010
,  // measure 16
0010
0000
0000
0001
,  // measure 17
0000
1000
0000
0001
,  // measure 18
0000
1000
0000
0001
,  // measure 19
0000
1000
0000
0100
,  // measure 20
0000
1000
1000
1000
,  // measure 21
0000
0001
0000
0100
,  // measure 22
0000
0001
0001
0001
,  // measure 23
0000
1000
0000
0010
,  // measure 24
0000
1000
1000
1000
,  // measure 25
0000
0001
0000
0010
,  // measure 26
0000
0001
0001
0001
,  // measure 27
0000
1001
0000
0000
,  // measure 28
0000
0000
0000
0000
,  // measure 29
0000
0000
1000
0000
,  // measure 30
0001
0000
1000
0000
,  // measure 31
0100
0100
0000
0010
,  // measure 32
0000
0100
0100
0100
,  // measure 33
0000
1000
0000
0001
,  // measure 34
0000
1000
0000
0000
,  // measure 35
0000
0010
0000
0100
,  // measure 36
0000
0010
0010
0010
,  // measure 37
0000
0000
0000
0000
,  // measure 38
0000
0000
0000
0000
,  // measure 39
0000
0000
1000
0000
,  // measure 40
1000
0000
0001
0000
,  // measure 41
0001
0000
1000
0000
,  // measure 42
0001
0000
1000
1000
,  // measure 43
0000
0000
0000
0000
,  // measure 44
0000
0000
0000
0000
,  // measure 45
0000
0000
0010
0000
,  // measure 46
0010
0000
0100
0100
,  // measure 47
0100
0000
0001
0000
,  // measure 48
1000
0000
0001
0001
,  // measure 49
0001
0000
0010
0000
,  // measure 50
0010
0000
0100
0100
,  // measure 51
0100
0100
0000
0010
,  // measure 52
0000
0100
0100
0100
;

//---------------dance-single - Daff_4K----------------
#NOTES:
     dance-single:
     Daff_4K:
     Easy:
     5:
     0.214328,0.291469,0.087114,0.193586,0.000000,155.000000,146.000000,9.000000,20.000000,0.000000,0.000000,0.214328,0.291469,0.087114,0.193586,0.000000,155.000000,146.000000,9.000000,20.000000,0.000000,0.000000:
// measure 0
0000
0000
0000
0000
,  // measure 1
0000
0000
0000
0000
,  // measure 2
0000
0000
0000
0000
,  // measure 3
0100
0000
0000
0010
,  // measure 4
0010
0100
0000
0001
,  // measure 5
1001
1000
1000
0000
,  // measure 6
0100
0000
0001
0100
,  // measure 7
1000
0001
0001
0000
,  // measure 8
0100
0000
1000
0100
,  // measure 9
0001
0010
0000
0010
,  // measure 10
0000
0100
0000
1000
,  // measure 11
1001
0001
0000
0100
,  // measure 12
0000
0010
0000
0000
,  // measure 13
0000
1000
1000
0000
,  // measure 14
0100
0000
0001
0100
,  // measure 15
1000
0001
0001
0000
,  // measure 16
0100
0000
1000
0100
,  // measure 17
0001
0020
0030
0200
,  // measure 18
0300
0010
0100
0010
,  // measure 19
0100
2000
3000
0002
,  // measure 20
0003
1000
0010
0200
,  // measure 21
0300
0002
0003
2000
,  // measure 22
3000
0001
0010
0200
,  // measure 23
0300
1000
0010
0001
,  // measure 24
0010
0200
0010
0010
,  // measure 25
0310
0002
0003
0010
,  // measure 26
0010
2000
3000
0010
,  // measure 27
0010
0002
0003
2000
,  // measure 28
3000
0001
1000
0001
,  // measure 29
1001
2000
0010
0000
,  // measure 30
3010
0002
0010
0000
,  // measure 31
0013
0001
0001
1000
,  // measure 32
1000
0001
1000
1001
,  // measure 33
0000
1000
0010
0001
,  // measure 34
0010
1000
0001
1000
,  // measure 35
0000
0001
0001
1000
,  // measure 36
1000
0001
1000
1001
,  // measure 37
0000
0000
0000
0000
,  // measure 38
0000
0000
0000
0000
,  // measure 39
0000
0002
0100
0103
,  // measure 40
0000
0020
1000
1030
,  // measure 41
0001
2000
0100
3100
,  // measure 42
0000
0020
0001
0031
,  // measure 43
0000
0000
0000
0000
,  // measure 44
0000
0000
0000
0000
,  // measure 45
0000
1000
0010
0001
,  // measure 46
0010
1000
0001
1000
,  // measure 47
1001
0001
0010
1000
,  // measure 48
0010
0001
1000
0001
,  // measure 49
1001
1000
0010
0100
,  // measure 50
0001
0010
0100
1000
,  // measure 51
1001
0001
0100
1000
,  // measure 52
0010
0001
1000
1001
,  // measure 53
0000
0000
0000
0000
0000
0000
0000
0200
,  // measure 54
0000
0000
0000
0300
;

//---------------dance-single - Daff_4K----------------
#NOTES:
     dance-single:
     Daff_4K:
     Medium:
     9:
     0.362283,0.476949,0.387173,0.261342,0.004840,262.000000,222.000000,40.000000,27.000000,0.000000,0.000000,0.362283,0.476949,0.387173,0.261342,0.004840,262.000000,222.000000,40.000000,27.000000,0.000000,0.000000:
// measure 0
0000
0000
0000
0000
,  // measure 1
0000
0000
0000
0000
,  // measure 2
0000
0000
0000
0000
,  // measure 3
0001
0000
1000
0000
0001
1000
0001
0000
,  // measure 4
1000
0000
0001
0000
0010
0100
0010
0000
,  // measure 5
1001
0000
1000
0000
0010
0000
1000
0001
,  // measure 6
0000
1000
0000
0100
0010
0000
0100
0000
,  // measure 7
1001
0000
0001
0000
0010
0000
0001
1000
,  // measure 8
0000
0001
0000
0100
0020
0000
0000
0000
,  // measure 9
1030
0001
1000
0000
0001
0000
0010
0000
,  // measure 10
1000
0000
0010
0000
0001
1000
0001
0000
,  // measure 11
1001
0000
1000
0000
0010
0000
0100
0010
,  // measure 12
0100
0001
1000
0000
,  // measure 13
1001
0000
0001
0000
0100
0000
0001
1000
,  // measure 14
0000
0001
0000
0010
0100
0000
0010
0000
,  // measure 15
1001
0000
1000
0000
0100
0000
1000
0001
,  // measure 16
0000
1000
0000
0010
0100
0000
0010
0000
,  // measure 17
1001
2000
3010
0002
,  // measure 18
0013
1000
0100
0001
,  // measure 19
0100
1000
1100
0001
,  // measure 20
0101
1000
0001
0110
,  // measure 21
1001
0001
0011
1000
,  // measure 22
1010
0000
0001
0100
1000
0100
0002
0000
,  // measure 23
1003
1100
0010
0101
,  // measure 24
0010
0000
1000
0001
1000
0001
0010
0100
,  // measure 25
0010
0000
0022
0000
0033
0101
0000
0010
,  // measure 26
1000
0000
2020
0000
3030
1100
0000
0010
,  // measure 27
0001
1002
0103
2000
,  // measure 28
3100
0001
0010
1000
,  // measure 29
0010
0000
0001
2000
0000
0100
0000
3001
,  // measure 30
0000
1000
0000
0002
0000
0100
0000
1003
,  // measure 31
0001
0012
1003
2010
,  // measure 32
3001
0000
0010
0100
0010
0000
2002
0000
,  // measure 33
3003
0000
1000
0100
1000
0100
0020
0000
,  // measure 34
0031
0000
0001
0100
0001
0100
0020
0000
,  // measure 35
1030
1002
0013
2001
,  // measure 36
3010
0000
0100
0010
0100
0000
2002
0000
,  // measure 37
3003
1000
0001
1000
,  // measure 38
0001
0100
0010
0100
,  // measure 39
0010
0000
1000
0000
0100
0010
0100
0000
,  // measure 40
1000
0000
0001
0000
0100
0010
0100
0000
,  // measure 41
0001
0000
1000
0000
0100
0010
0001
0000
,  // measure 42
0100
0010
1000
0000
0001
0000
2002
0000
,  // measure 43
3003
0000
0000
0000
,  // measure 44
0000
0000
0000
0000
,  // measure 45
0000
0000
1000
0100
1000
0000
0001
0100
,  // measure 46
0001
0000
1000
0001
1000
0001
0010
0100
,  // measure 47
0010
0001
0101
1000
,  // measure 48
1100
0001
1001
0110
,  // measure 49
1001
0000
1000
0010
1000
0000
0001
0010
,  // measure 50
0001
0000
0100
0010
0100
0000
0110
0000
,  // measure 51
1001
1100
0011
0101
,  // measure 52
1010
1001
0110
2002
,  // measure 53
0000
0000
0000
0000
3003
0000
0000
0100
,  // measure 54
0000
0200
0000
0000
0000
0000
0000
0000
0000
0000
0000
0000
0300
0000
0000
0000
;

//---------------dance-single - Daff_4K----------------
#NOTES:
     dance-single:
     Daff_4K:
     Hard:
     12:
     0.432804,0.549302,0.367814,0.474287,0.145190,313.000000,275.000000,38.000000,49.000000,0.000000,0.000000,0.432804,0.549302,0.367814,0.474287,0.145190,313.000000,275.000000,38.000000,49.000000,0.000000,0.000000:
// measure 0
0000
0000
0000
0000
,  // measure 1
0000
0000
0000
0000
,  // measure 2
0000
0000
0000
0000
,  // measure 3
0001
0000
1000
0000
0010
0100
0010
0100
,  // measure 4
0001
0000
1000
0000
0100
0010
0001
1000
,  // measure 5
1001
0000
0002
0000
0103
0000
0001
1000
,  // measure 6
0000
1200
0000
0010
0310
0000
0001
0000
,  // measure 7
1001
0000
2000
0000
3100
0000
1000
0001
,  // measure 8
0000
0201
0000
0010
0310
0000
2000
0000
,  // measure 9
3001
1000
0001
1000
0100
0000
0001
0000
,  // measure 10
0100
0000
1000
0001
1000
0010
0100
0000
,  // measure 11
1001
0000
0001
0000
0010
0000
1000
0010
,  // measure 12
0001
0000
0100
0000
0010
0100
0010
0000
,  // measure 13
1001
0000
2000
0000
3010
0000
1000
0001
,  // measure 14
0000
0021
0000
0100
0130
0000
1000
0000
,  // measure 15
1001
0000
0002
0000
0013
0000
0001
1000
,  // measure 16
0000
1020
0000
0100
0130
0000
0001
0000
,  // measure 17
1001
2000
3100
0002
,  // measure 18
0103
2000
3020
0032
,  // measure 19
0023
0000
0000
0000
1030
0200
0000
0000
1300
0000
0000
0000
0001
0200
0000
0000
,  // measure 20
0301
0000
0000
0000
0010
0100
0000
0000
0100
0010
0000
0000
0001
1000
0000
0001
,  // measure 21
2000
0000
0000
0000
3001
0200
0000
0000
0310
0000
0000
0000
1000
0200
0000
0000
,  // measure 22
0310
0000
0000
0000
0001
0000
0100
0000
1000
0000
0100
0000
0001
2000
0000
0000
,  // measure 23
3001
0000
0000
0000
1000
0010
0000
0000
0110
0000
0000
0000
0001
0010
0000
0000
,  // measure 24
0110
0000
1000
0010
0001
1000
0001
0010
,  // measure 25
1000
0000
0000
0000
0001
0020
0000
0000
0000
0000
0130
0000
0000
0100
1000
0000
,  // measure 26
0002
0000
0000
0000
1003
0020
0000
0000
0000
0000
0130
0000
0000
0100
0001
0000
,  // measure 27
2000
3002
0013
2000
,  // measure 28
3010
0002
0203
2300
,  // measure 29
3100
0001
1000
0001
0000
0101
0000
1010
,  // measure 30
0000
1000
0001
1000
0000
1100
0000
0010
,  // measure 31
0001
0101
1010
1100
,  // measure 32
0011
0000
0001
1000
0010
0100
0001
2002
,  // measure 33
0000
0000
3003
0000
1000
0100
0000
1000
0100
0000
0010
0001
0000
0010
0001
0000
,  // measure 34
1000
0000
0001
0000
0100
0010
0000
0100
0010
0000
1000
0000
0001
0000
0000
0000
,  // measure 35
1001
0101
0011
1100
,  // measure 36
1010
0000
0010
0100
0001
1000
0001
2002
,  // measure 37
0000
3003
2000
0000
0100
0000
3002
0000
,  // measure 38
0100
2003
0010
3002
,  // measure 39
0010
0000
2003
0000
0010
3010
0200
0000
,  // measure 40
0301
0010
1000
0010
0002
1000
1003
0000
,  // measure 41
0101
0000
0002
0000
0010
0013
0200
0000
,  // measure 42
1300
0010
0001
0010
1000
0000
2002
0000
,  // measure 43
3003
0000
0000
0000
,  // measure 44
0000
0000
0000
0000
,  // measure 45
0000
0000
1000
0100
1100
0000
0001
0100
,  // measure 46
0101
0000
1000
0100
0001
0100
1000
0010
,  // measure 47
0110
0000
0000
0000
0001
0000
1000
0000
0100
1000
0000
0000
1000
0000
0001
0000
,  // measure 48
0100
0001
0000
0000
0001
0000
1000
0000
0100
0010
0000
0000
0100
0010
0000
0000
,  // measure 49
0001
1000
0000
0000
1000
0000
0010
0000
0001
0000
0010
0000
1000
0000
0100
0000
,  // measure 50
0001
0000
0100
0000
1000
0000
0010
0000
0100
0000
0001
0000
1000
0001
1000
0000
,  // measure 51
0100
0110
1001
0101
,  // measure 52
1010
1100
0011
2002
,  // measure 53
0000
0000
0000
0000
3003
0000
0000
0020
,  // measure 54
0000
0200
0000
0000
0000
0000
0000
0000
0000
0000
0000
0000
0330
0000
0000
0000
,  // measure 55
0000
0000
0000
0000
,  // measure 56
0000
0000
0000
1000
0100
0000
0000
0000
0000
0000
0000
0001
0100
0000
0000
0000
;

//---------------dance-single - DJ SenDaff & Tiny_4K----------------
#NOTES:
     dance-single:
     DJ SenDaff & Tiny_4K:
     Challenge:
     14:
     0.554487,0.686627,0.590439,0.377494,0.343616,401.000000,340.000000,61.000000,39.000000,0.000000,0.000000,0.554487,0.686627,0.590439,0.377494,0.343616,401.000000,340.000000,61.000000,39.000000,0.000000,0.000000:
// measure 0
0000
0000
0000
0000
,  // measure 1
0000
0000
0000
0000
,  // measure 2
0000
0000
0000
0000
,  // measure 3
1000
0000
0000
0000
0001
0000
0000
0000
1000
0000
0001
1000
0000
0100
0010
0100
,  // measure 4
0001
0000
0100
1000
0000
0000
0000
0000
0010
0000
0100
0000
0001
0000
1000
0000
,  // measure 5
1001
0000
1010
0000
0101
0000
0001
1000
,  // measure 6
0000
1100
0000
0010
0001
0000
0101
0000
,  // measure 7
1010
0000
0011
0000
1100
0000
1000
0001
,  // measure 8
0000
0000
0101
0000
0000
0000
0010
2000
0002
0000
0000
0000
3003
0000
0000
0000
,  // measure 9
1000
0001
1000
0001
1000
0000
0001
0000
0000
0000
2001
0000
0000
0000
3010
0000
,  // measure 10
0100
0000
0010
0000
1000
0000
0001
1000
0100
0000
0010
0000
0001
0000
0000
0000
,  // measure 11
1001
0000
1000
0010
0001
0010
1000
0001
,  // measure 12
0010
0100
1000
0001
0200
0010
0310
0000
,  // measure 13
1001
0000
0101
0000
1010
0000
1000
0001
,  // measure 14
0010
0100
0010
0000
0001
0000
1000
0000
0010
0000
0000
0000
0101
0000
0000
0000
,  // measure 15
0001
1000
0001
0000
1100
0000
0000
0000
0011
0000
0000
0000
0001
0000
1000
0001
,  // measure 16
1000
0000
0010
0100
0010
0000
0100
0000
0001
0000
0000
0000
0010
0100
0010
0000
,  // measure 17
0100
2001
0010
3002
,  // measure 18
0010
1003
1100
0101
,  // measure 19
1001
0000
0000
0000
2000
0100
0000
0000
3001
0000
0000
0000
0002
0100
0000
0000
,  // measure 20
1003
0000
0000
0000
2000
0010
0000
0000
3002
0010
0000
0000
0103
0010
0000
0010
,  // measure 21
2000
0000
0000
0000
3001
0010
0000
0000
0101
0000
0000
0000
1000
0010
0000
0000
,  // measure 22
1100
0000
0000
0000
0001
1000
0001
1000
0100
0010
0100
0010
0001
0200
0000
0000
,  // measure 23
0310
0000
0000
0000
1000
0100
0000
0000
0100
2000
0000
0000
3001
0100
0000
0000
,  // measure 24
0100
0002
0000
0000
0013
0100
0010
0100
1000
0001
1000
0001
0100
0010
1000
0100
,  // measure 25
0010
0001
0000
0000
0001
0200
0000
0000
1300
0000
0100
0010
0000
0010
1000
0000
,  // measure 26
1001
0000
0000
0000
1000
0200
0000
0000
0301
0000
0100
0010
0000
0010
0001
0000
,  // measure 27
1001
2010
3100
0012
,  // measure 28
0103
0110
1001
0101
,  // measure 29
1010
0000
1000
1100
0000
0011
0000
1001
,  // measure 30
0000
1000
0001
0101
0000
1010
0000
1000
,  // measure 31
0001
0011
1010
1100
,  // measure 32
0101
0000
0001
0010
1000
0010
0110
2002
,  // measure 33
0000
0000
3003
0000
1000
0010
0000
0010
0100
0000
0001
0010
0000
0010
0100
0000
,  // measure 34
1000
0001
1000
0000
0001
0100
0000
0100
1000
0000
0100
0000
0001
0000
0010
0000
,  // measure 35
0100
1000
1001
0001
0100
0110
0010
1000
,  // measure 36
1001
0001
0010
0110
1001
0010
0100
2002
,  // measure 37
0000
3003
0002
0000
0010
0000
1000
0000
,  // measure 38
0100
2003
0010
0001
,  // measure 39
3100
0000
1020
0000
0130
0101
2001
0000
,  // measure 40
3100
0001
0100
1000
1010
0010
0110
0000
,  // measure 41
1001
0000
0021
0000
0130
1100
1002
0000
,  // measure 42
0103
1000
0100
0001
1000
0000
2002
0000
,  // measure 43
3003
0000
0000
0000
,  // measure 44
0000
0000
0000
0000
,  // measure 45
0000
0000
0000
0000
1000
0000
0010
0000
1000
0100
1000
0000
0001
0000
0010
0000
,  // measure 46
0001
0100
0001
0000
1000
0000
0100
0000
0001
0000
0100
0000
1000
0001
1000
0000
,  // measure 47
0010
0000
0100
0000
0001
0000
0010
0000
0002
0100
0000
0000
1003
0000
0010
0000
,  // measure 48
2000
0100
0000
0000
3001
0000
1000
0000
0200
0010
0000
0000
0320
0001
0000
0000
,  // measure 49
0032
1000
0000
0000
1003
0010
0100
0000
0010
0000
1000
0000
0001
0010
0100
0000
,  // measure 50
0010
0000
0001
0000
1000
0001
1000
0000
0010
0000
0100
0000
0001
1000
0001
0000
,  // measure 51
1001
0000
0000
0000
1000
0100
0010
0000
0001
0100
0010
0000
1000
0001
1000
0001
,  // measure 52
0010
0000
0100
0000
0020
0000
0001
1000
0000
0000
1000
0001
0000
0000
0200
0000
,  // measure 53
0000
0000
0000
0000
0330
0000
0000
0110
,  // measure 54
0000
2002
0000
0000
0000
0000
0000
0000
0000
0000
0000
0000
3003
0000
0000
0000
,  // measure 55
0000
0000
0000
0000
,  // measure 56
0000
0000
0000
1000
1000
0000
0000
0000
0000
0000
0000
0001
0001
0000
0000
0000
;
